#TITLE:En Mon Coeur;
#SUBTITLE:;
#ARTIST:E-Rotic;
#TITLETRANSLIT:;
#SUBTITLETRANSLIT:;
#ARTISTTRANSLIT:;
#CREDIT:;
#BANNER:En Mon Coeur-bn.PNG;
#BACKGROUND:En Mon Coeur-bg.PNG;
#LYRICSPATH:;
#CDTITLE:E-Rotic - the Collection.png;
#MUSIC:En Mon Coeur.ogg;
#OFFSET:-6.995;
#SAMPLESTART:57.170;
#SAMPLELENGTH:12.000;
#SELECTABLE:YES;
#BPMS:0.000=147.000;
#STOPS:3.000=1.224
;
#BGCHANGES:;

//---------------dance-single - ----------------
#NOTES:
     dance-single:
     :
     Hard:
     8:
     0.491,0.461,0.262,0.172,0.122: // measure 1
0000
0000
0000
1001
,  // measure 2
0001
0000
0000
0001
0000
0000
0001
0000
1000
0000
0000
1000
0000
0000
1000
0000
,  // measure 3
0010
0000
0000
0010
0000
0000
0010
0000
0100
0000
0000
0100
0000
0000
0001
0100
,  // measure 4
0001
0000
0000
0100
0000
0000
0010
0000
1000
0000
0000
0010
0000
0000
1000
0000
,  // measure 5
0010
0000
0000
0100
0000
0000
0001
0000
0100
0000
0000
0001
0000
0000
0010
0000
,  // measure 6
1001
0000
0000
0001
0000
0000
1000
0000
1000
0000
0000
1000
0000
0000
0001
0000
,  // measure 7
0001
0000
0000
0001
0000
0000
1000
0000
1000
0000
0000
1000
0000
0000
0010
0000
,  // measure 8
0010
0000
0000
0010
0000
0000
0010
0000
0100
0000
0000
0100
0000
0000
0100
0000
,  // measure 9
0001
0000
0000
0001
0000
0000
1000
0000
1000
0000
0000
0010
0000
0000
1000
0000
,  // measure 10
0010
0000
1000
0010
0000
0000
0100
0000
0001
0000
0100
0001
0000
0000
0100
0000
,  // measure 11
0010
0000
1000
0001
0000
0000
1000
0000
0001
0000
0010
0001
0000
0000
0010
0000
,  // measure 12
0100
0000
1000
0100
0000
0000
1000
0000
0010
0000
1000
0010
0000
0000
0100
0000
,  // measure 13
0001
0000
0010
0001
0000
0000
0010
0000
0100
0000
0010
0001
0000
0000
0010
0000
,  // measure 14
0001
0000
0010
0001
0000
0000
0010
0000
0001
0000
0010
0100
0000
0000
0010
0000
,  // measure 15
0001
0011
1100
0110
,  // measure 16
2002
0003
0001
3001
,  // measure 17
1001
0000
0100
1000
0100
0000
0010
0000
,  // measure 18
2002
0003
0010
3010
,  // measure 19
1001
0000
0100
0010
0100
0000
0001
0000
,  // measure 20
0102
0000
0100
0103
,  // measure 21
1100
0000
0010
0100
0010
0000
1000
0000
,  // measure 22
0102
0000
0010
0103
,  // measure 23
1001
0000
0100
1000
0100
0000
1001
0010
,  // measure 24
0100
0000
0001
0100
1000
0000
0100
0010
,  // measure 25
1000
0000
0001
0010
0100
0000
1000
0010
,  // measure 26
0100
0000
0000
0001
0000
1000
0100
0000
,  // measure 27
1001
0000
0000
1010
0000
0100
0001
0000
,  // measure 28
1001
0000
0100
0010
1000
0000
0010
0000
,  // measure 29
2002
3003
0220
0330
,  // measure 30
2002
0000
0000
3003
,  // measure 31
1001
0000
0001
1000
0001
0010
0100
0010
,  // measure 32
0001
1000
0010
0100
0001
0100
0010
0100
,  // measure 33
0001
0010
0100
0010
0001
0010
0001
0010
,  // measure 34
0100
0010
0001
1000
0010
0100
0001
0000
,  // measure 35
0100
0010
1000
0001
0010
0100
1000
0001
,  // measure 36
1000
0001
0100
0010
1000
0001
0010
0100
,  // measure 37
0010
0001
0010
0100
1000
0010
0100
0001
,  // measure 38
1000
0010
0100
0001
0010
0100
1000
0000
,  // measure 39
1001
0000
0010
1000
0001
0010
0100
1000
,  // measure 40
0001
1000
0010
1000
0010
0100
0001
0100
,  // measure 41
0010
1000
0001
0010
0100
1000
0001
0100
,  // measure 42
0010
1000
0001
0010
0100
1000
0010
0100
,  // measure 43
0020
0000
0100
0130
,  // measure 44
0010
0100
0010
0100
0000
0010
0110
0000
,  // measure 45
1001
0000
0010
0000
0100
0000
0001
0100
,  // measure 46
0000
0010
1000
0100
0010
0000
0001
0100
,  // measure 47
0000
0010
0100
0010
1000
0000
0001
0100
,  // measure 48
0000
0010
0000
0100
0000
0001
0000
0010
,  // measure 49
0200
0000
0000
0000
1300
0000
0010
1000
,  // measure 50
0000
1001
0000
1000
0100
0000
1000
0010
,  // measure 51
0000
0100
0001
0100
0010
1000
0001
0100
,  // measure 52
0000
0000
0010
0100
0000
0101
0000
0000
,  // measure 53
2002
0000
0003
0000
3010
0000
0100
0001
,  // measure 54
0000
0100
0010
1000
0001
0000
0010
0100
,  // measure 55
0000
1000
0010
0100
0001
1000
0000
0200
,  // measure 56
0000
0000
1300
0000
0001
0000
1001
0010
,  // measure 57
0000
1000
0010
1000
0001
0010
0100
0010
,  // measure 58
0001
0010
0100
1000
0010
0100
0001
1000
,  // measure 59
2002
0000
0000
0000
,  // measure 60
0000
0000
0000
0000
,  // measure 61
3003
0000
0000
0000
;

//---------------dance-single - ----------------
#NOTES:
     dance-single:
     :
     Medium:
     6:
     0.378,0.380,0.307,0.108,0.000:
0000
0000
0000
2000
,
0010
0000
0010
0000
0010
0000
0010
0010
,
0100
0000
0100
0000
0100
0000
0100
0100
,
0001
0000
0001
0000
0001
0000
0001
0001
,
3000
0000
1000
0000
1000
0000
1000
1000
,
0010
0000
0010
0000
0100
0001
0100
0002
,
0100
0003
0010
0000
0100
0000
1000
0000
,
1001
0000
0100
0000
1000
0000
0100
1000
,
0100
0000
0010
0000
0100
0001
0100
0001
,
0010
0000
0100
0000
0001
0000
0100
1000
,
0100
0000
1001
0000
0010
0000
0100
0010
,
0010
0000
0100
0000
0001
0000
0100
1000
,
0100
0000
1001
0000
0001
0000
0001
0010
,
0001
0000
0100
0000
1000
0000
0001
0100
,
2000
3002
2003
3010
,
0020
0000
0000
0000
0000
0000
0000
0030
,
1001
0000
1100
0000
,
1001
0000
0010
0010
,
0101
0000
1001
1100
,
1001
0000
0010
0010
,
1001
0000
0100
1000
0100
0000
0001
0000
,
0011
0000
0100
0100
,
1001
0000
1100
0001
,
2001
0001
0001
3001
,
1001
0000
0010
0100
0010
0000
0001
0100
,
1000
0000
0001
0010
0000
0100
0001
0000
,
0100
0000
1000
0100
0000
0010
0100
0000
,
0001
0100
1000
0010
,
2002
0000
0000
0003
0001
0002
0000
0003
,
3001
0000
0000
0000
,
1001
0000
0100
0000
1000
0000
0010
0100
,
0000
0000
0001
0000
0100
0000
1000
0100
,
0000
0000
0010
0000
0100
0000
0001
0010
,
0000
0100
0000
0001
0000
0100
0000
0000
,
1000
0000
0010
0000
0100
0000
0001
0100
,
0000
0000
0010
0000
1000
0000
0100
1000
,
0000
0000
0010
0000
0100
0000
0001
0100
,
0000
0010
0000
0010
0000
0010
0000
0000
,
1001
0000
0100
0000
1000
0000
0010
0100
,
0000
0000
0001
0000
1000
0000
0010
0100
,
0000
0000
0001
0000
0100
0000
0010
0100
,
0000
0001
1000
0010
,
1001
0000
0001
0001
,
1100
1001
0101
1001
,
1100
0000
0001
0000
0010
0000
0100
0001
,
0100
0000
0001
0000
0010
0000
0100
0100
,
1000
0000
0100
0000
0010
0000
0100
0010
,
0100
0001
1001
1100
,
1001
0000
0001
0000
0010
0000
0100
0010
,
0100
0000
0001
0000
0100
0000
0001
0010
,
0001
0000
0101
0000
0110
0000
0001
0100
,
1000
0000
0001
0000
0010
0100
0010
0100
,
0010
0000
0001
0100
1000
0000
0001
0000
,
0010
0000
0101
0000
0011
0000
0001
0100
,
1000
0000
0001
0010
0100
0000
0001
0000
,
0100
0000
1001
0000
0100
0000
1000
0010
,
0100
0000
0010
0000
0010
0100
0010
0100
,
0001
1000
0010
0100
,
2200
0000
0000
0000
,
0000
0000
0000
0000
,
3300
0000
0000
0000
;

//---------------dance-single - ----------------
#NOTES:
     dance-single:
     :
     Easy:
     3:
     0.245,0.262,0.145,0.081,0.000:
0000
0000
0000
1001
,
0002
0000
1003
0000
,
0010
0010
0100
0001
,
0200
0000
0310
0000
,
0001
1000
0100
0010
,
2000
0000
3001
0000
,
0100
0010
1000
0001
,
0011
0000
1100
0000
,
0001
0010
0100
0100
,
0110
0000
1001
0000
,
0100
1000
0001
0010
,
0200
0300
0002
0003
,
1000
0001
0010
0100
,
0020
0030
1001
0000
,
0100
0100
0100
0100
,
2002
0000
0000
3003
,
0001
0000
1000
0000
,
0010
0010
0010
0000
,
0100
0000
1000
0010
,
1001
0000
0000
0000
,
0001
0000
1000
0000
,
1001
0000
0000
0000
,
0100
0000
0010
0001
,
1001
0100
1000
0001
,
0010
0100
0001
0100
,
1000
0000
0001
0000
,
1000
0000
0010
0000
,
0100
0001
0010
0001
,
0200
0300
0001
0000
,
0000
0000
0000
0000
,
1001
0000
0010
0010
,
0010
0000
0100
0001
,
0100
0000
1000
0001
,
0010
0100
0001
0100
,
1000
0000
0001
0010
,
1000
0000
0100
0001
,
0010
0000
1000
0100
,
0010
0001
0010
0100
,
1000
0000
0001
0010
,
0100
0000
0001
1000
,
0100
0000
1000
0001
,
0010
0100
0001
0100
,
1000
0000
0010
0000
,
0001
0000
0100
0000
,
1000
0010
0100
0001
,
0001
0100
0010
1000
,
1000
0100
0010
0001
,
0001
0010
0100
1000
,
1001
0000
0100
0000
,
0010
0000
0001
0100
,
1000
0000
0010
0100
,
0001
0001
0001
0010
,
0001
0000
0100
0100
,
0010
0000
0001
1000
,
0100
0000
0001
1000
,
0010
0000
0010
0000
,
1001
0000
0100
0100
,
1001
0000
1100
0000
,
1001
0000
0000
0000
;
