#TITLE:Du Du-Da Da;
#SUBTITLE:;
#ARTIST:Danny Keith;
#TITLETRANSLIT:;
#SUBTITLETRANSLIT:;
#ARTISTTRANSLIT:;
#CREDIT:;
#BANNER:Du Du-Da Da-bn.fw.png;
#BACKGROUND:Du Du-Da Da-bgfinal.png;
#LYRICSPATH:Du Du-Da Da.lrc;
#CDTITLE:cd.png;
#MUSIC:Du Du-Da Da.mp3;
#OFFSET:-6.227;
#SAMPLESTART:44.957;
#SAMPLELENGTH:12.000;
#SELECTABLE:YES;
#BPMS:0.000=154.970;
#STOPS:;
#BGCHANGES:;

//---------------dance-single - ----------------
#NOTES:
     dance-single:
     :
     Medium:
     6:
     0.479,0.506,0.177,0.439,0.000:
0100
0100
0200
0000
0310
0000
0100
0000
,
0010
0010
0020
0000
0130
0000
0010
0000
,
1000
1000
2000
0000
3001
0000
1000
0000
,
0001
0001
0002
0000
1003
0000
0001
0000
,
1000
1000
2000
0000
3001
0000
0010
0000
,
0001
0001
0002
0000
0103
0000
0010
0000
,
0100
0100
0200
0000
0301
0000
1000
0000
,
0010
0010
0020
0000
0130
0000
0010
0000
,
0200
0000
0001
0000
0310
0000
0100
0010
,
0100
0000
0001
1000
0001
0000
1000
0000
,
0010
1000
0100
0010
,
0100
0010
1001
0000
,
0002
0000
1000
0000
0103
0000
1000
0010
,
1000
0000
0001
1000
0001
0000
0100
0000
,
0010
1000
0001
0010
,
0001
0000
1000
0000
1001
0000
1000
1000
,
1000
0000
1000
0000
1000
0000
0001
0001
,
0001
0000
0001
0000
0001
0000
1000
0010
,
2000
0000
3001
0100
0002
0000
0103
0010
,
0200
0000
0310
1000
0020
0000
1030
0010
,
0010
0000
0010
0000
0010
0000
0100
0010
,
0100
0000
0100
0000
0100
0000
0010
0100
,
0010
0000
0100
0010
0100
0000
0010
0000
,
0101
0101
1010
1010
,
0001
0001
0000
1000
2000
0000
3010
0000
,
0010
0100
0100
1001
,
1000
1000
0000
0001
0002
0000
1003
0000
,
0010
0100
2002
3003
,
0010
0010
0000
0100
0200
0000
0310
0000
,
0100
0001
1000
1001
,
0100
0100
0000
0010
0020
0000
0130
0000
,
0010
1000
2002
3003
,
0010
0100
0000
0010
0200
0000
0310
0000
,
0100
0001
1000
1010
,
0010
1000
0000
0010
2000
0000
3001
0000
,
0100
0010
1001
0000
,
0001
0100
0000
0001
0200
0000
0301
0000
,
1000
0010
0100
0001
,
0010
0001
0000
0010
0002
0000
1003
0000
,
0010
0100
1001
0000
,
0010
0010
0020
0000
0130
0000
0010
0000
,
0100
0100
0200
0000
0310
0000
0100
0000
,
0001
0001
0002
0000
1003
0000
0001
0000
,
1000
1000
2000
0000
3001
0000
1000
0000
,
0001
0001
0002
0000
1003
0000
0100
0000
,
1000
1000
2000
0000
3010
0000
0100
0000
,
0010
0010
0020
0000
1030
0000
0001
0000
,
0100
0100
0200
0000
0301
0000
0001
0000
,
1000
1000
0000
0001
0002
0000
0103
0000
,
0100
0010
0010
1001
,
0001
0001
0000
1000
2000
0000
3001
0000
,
0100
0010
2002
3003
,
0100
0100
0000
0010
0020
0000
0130
0000
,
0010
1000
0001
1001
,
0010
0010
0000
0100
0200
0000
0310
0000
,
0100
0001
2002
3003
,
1000
0010
0000
0100
0002
0000
0103
0000
,
0010
1000
0001
0101
,
0100
0001
0000
1000
0020
0000
1030
0000
,
0010
0100
1001
0000
,
0001
0010
0000
0100
2000
0000
3001
0000
,
1000
0010
1000
0001
,
0010
0100
0000
1000
0002
0000
1003
0000
,
0100
0010
0002
0003
;

//---------------dance-single - ----------------
#NOTES:
     dance-single:
     :
     Hard:
     8:
     0.643,0.566,0.206,0.542,0.299: // measure 1
0100
0000
0100
0000
0200
0000
0300
0010
0000
1000
0000
0010
0000
1000
0010
0000
,  // measure 2
1000
0000
1000
0000
2000
0000
3000
0001
0000
1000
0000
0001
0000
1000
0001
0000
,  // measure 3
0100
0000
0100
0000
0200
0000
0300
0010
0000
0100
0000
0010
0000
0100
0010
0000
,  // measure 4
1000
0000
1000
0000
2000
0000
3000
0100
0000
0010
0000
0100
0000
0010
0001
0000
,  // measure 5
1000
0000
0001
0000
1001
0000
0000
0001
0000
0100
0000
0001
0000
0100
0001
0000
,  // measure 6
0100
0000
0010
0000
1001
0000
0000
0010
0000
1000
0000
0010
0000
1000
0001
0000
,  // measure 7
1000
0000
0010
0000
0101
0000
0000
1000
0000
0001
0000
1000
0000
0001
0100
0000
,  // measure 8
0010
0000
0100
0000
1001
0000
0000
0001
0000
0100
0000
0010
0000
0100
0010
0000
,  // measure 9
2000
0000
0010
0000
3001
0000
0001
1000
,  // measure 10
0010
0000
0010
1000
0001
0000
1010
0000
,  // measure 11
1000
0001
2000
0000
3001
0100
0020
0000
,  // measure 12
0130
0010
0110
0000
,  // measure 13
0002
0000
1000
0000
0103
0000
0100
0010
,  // measure 14
0100
0000
0001
0100
0010
0100
0001
0000
,  // measure 15
1000
0010
1000
0000
0001
0100
0010
0000
,  // measure 16
2000
0000
3001
0000
1001
0000
0010
1000
,  // measure 17
2000
0000
0010
0000
0001
0000
3001
1000
,  // measure 18
0002
0000
0100
0000
1003
0000
0010
1000
,  // measure 19
1010
0000
0001
0100
0101
0000
0010
0100
,  // measure 20
0110
0000
0001
1000
1001
0000
0001
1000
,  // measure 21
0020
0000
0100
0000
1030
0000
0100
0010
,  // measure 22
0200
0000
0010
0000
0301
0000
0001
1000
,  // measure 23
0020
0000
1030
0001
0200
0000
0310
0100
,  // measure 24
0020
0230
0320
0130
,  // measure 25
0001
0002
0000
1003
2000
0000
3001
0010
,  // measure 26
0100
1000
0010
0100
0002
0000
1003
0000
,  // measure 27
0010
0020
0000
0130
0200
0000
0310
0100
,  // measure 28
0001
1000
0010
0100
0020
0000
0130
0000
,  // measure 29
0001
0002
0000
1003
2000
0000
3001
0010
,  // measure 30
0100
1000
0010
0100
0001
0000
1001
0000
,  // measure 31
0010
0020
0000
0130
0200
0000
0301
1000
,  // measure 32
0010
0100
0001
0100
2001
0000
3001
0000
,  // measure 33
0100
0010
0000
0010
0200
0000
0301
1000
,  // measure 34
0100
0010
0001
1000
0200
0000
1300
0000
,  // measure 35
0001
1000
0000
1000
0002
0000
0013
0001
,  // measure 36
0100
0001
1000
0010
0100
0000
0101
0000
,  // measure 37
0010
0100
0000
0100
0020
0000
1030
0001
,  // measure 38
0100
0001
0010
0100
2000
0000
3001
0000
,  // measure 39
1000
2000
0000
3001
0002
0000
1003
0010
,  // measure 40
0100
0001
0010
0100
0010
0000
1001
0000
,  // measure 41
0010
0000
0010
0000
0020
0000
0030
0100
0000
0001
0000
0100
0000
0001
0100
0000
,  // measure 42
0001
0000
0001
0000
0002
0000
0003
1000
0000
0001
0000
1000
0000
0001
1000
0000
,  // measure 43
0010
0000
0010
0000
0020
0000
0030
0100
0000
0010
0000
0100
0000
0010
0100
0000
,  // measure 44
0001
0000
0001
0000
0002
0000
0003
0010
0000
0100
0000
0010
0000
0100
1000
0000
,  // measure 45
0001
0000
1000
0000
1001
0000
0000
1000
0000
0010
0000
1000
0000
0010
1000
0000
,  // measure 46
0010
0000
0100
0000
1001
0000
0000
0100
0000
0001
0000
0100
0000
0001
1000
0000
,  // measure 47
0001
0000
0100
0000
1010
0000
0000
0001
0000
1000
0000
0001
0000
1000
0010
0000
,  // measure 48
0100
0000
0010
0000
1001
0000
0000
1000
0000
0010
0000
0100
0000
0010
0100
0000
,  // measure 49
0010
0020
0000
0130
0200
0000
0310
0100
,  // measure 50
0001
1000
0010
0100
0002
0000
1003
0000
,  // measure 51
0100
0200
0000
0310
0020
0000
0031
0010
,  // measure 52
0100
1000
0100
0010
0002
0000
1003
0000
,  // measure 53
1000
2000
0000
3001
0002
0000
1003
0100
,  // measure 54
0010
0001
0100
0010
1000
0000
1001
0000
,  // measure 55
0100
0200
0000
0310
0020
0000
1030
0001
,  // measure 56
0100
0010
1000
0010
2001
0000
3001
0000
,  // measure 57
0010
0100
0000
0100
0020
0000
1030
0001
,  // measure 58
0010
0100
1000
0001
0020
0000
0031
0000
,  // measure 59
1000
0001
0000
0001
2000
0000
3100
1000
,  // measure 60
0010
1000
0001
0100
0010
0000
1010
0000
,  // measure 61
0100
0010
0000
0010
0200
0000
0301
1000
,  // measure 62
0010
1000
0100
0010
0002
0000
1003
0000
,  // measure 63
0001
0001
0000
1000
2000
0000
3001
0100
,  // measure 64
0010
1000
0001
0001
0002
0000
0003
0000
;

//---------------dance-single - ----------------
#NOTES:
     dance-single:
     :
     Beginner:
     2:
     0.167,0.237,0.037,0.019,0.000:
0010
0000
0000
0000
,
0100
0000
0000
0000
,
0001
0000
0000
0000
,
1000
0000
0000
0000
,
0010
0000
0000
0000
,
0100
0000
0000
0000
,
0001
0000
0000
0000
,
1000
0000
0000
0000
,
0010
0000
0000
0000
,
0010
0010
0010
0000
,
0100
0000
0000
0000
,
0100
0100
0100
0000
,
0001
0000
0000
0000
,
0001
0001
0001
0000
,
1000
0000
0000
0000
,
1000
1000
1000
0000
,
0010
0000
0010
0000
,
0100
0000
0100
0000
,
0001
0000
1000
0000
,
0001
0000
1000
0000
,
0010
0000
0010
0000
,
0100
0000
0100
0000
,
0001
0000
0001
0000
,
1000
1000
1000
1000
,
0010
0000
0000
0000
,
0100
0000
0010
0000
,
0100
0000
0000
0000
,
0001
0001
0001
0000
,
0100
0000
0000
0000
,
0010
0000
0100
0000
,
0010
0000
0000
0000
,
1000
1000
1000
0000
,
0010
0000
0000
0000
,
0100
0000
0010
0000
,
0100
0000
0000
0000
,
0001
0001
0001
0000
,
1000
0000
0000
0000
,
0001
0000
1000
0000
,
0001
0000
0000
0000
,
1000
1000
1000
0000
,
0001
0000
0000
0000
,
0010
0000
0000
0000
,
1000
0000
0000
0000
,
0001
0000
0000
0000
,
0100
0000
0000
0000
,
0010
0000
0000
0000
,
1000
0000
0000
0000
,
0001
0000
0000
0000
,
1001
0000
0000
0000
,
0010
0010
0010
0010
,
0100
0000
0000
0000
,
0001
0001
0001
0000
,
1001
0000
0000
0010
,
0010
0010
0010
0010
,
0100
0000
0000
0000
,
0001
0001
0001
0000
,
1001
0000
0001
0000
,
1000
0010
0100
0001
,
2000
0000
3010
0000
,
1000
0001
1000
0000
,
1001
0000
0010
0000
,
0100
0100
1000
1000
,
0020
0000
0130
0000
,
0001
1000
0001
0000
;

//---------------dance-single - ----------------
#NOTES:
     dance-single:
     :
     Easy:
     4:
     0.328,0.386,0.206,0.318,0.000:
0010
0010
0100
0100
,
0001
0001
1000
1000
,
0010
0100
0001
1000
,
0002
0000
2003
0000
,
3100
0100
0010
0010
,
1000
1000
0001
0001
,
1000
0010
0100
0001
,
2000
0000
3002
0000
,
0103
0000
0010
0000
,
0100
0100
0100
0000
,
0001
0000
1000
0000
,
0010
0100
1001
0000
,
1000
0000
0001
0000
,
1000
0001
1000
0000
,
0010
0000
0100
0000
,
0010
0100
0110
0000
,
0100
0100
0100
0000
,
0010
0010
0010
0000
,
1010
0000
0101
0000
,
1010
0000
0101
0000
,
1000
1000
1000
0000
,
0001
0001
0001
0000
,
2000
3000
0002
0003
,
2000
3002
2003
3002
,
2003
0000
3002
0000
,
1003
1000
0001
0001
,
0200
0000
0320
0000
,
0130
0010
0110
0000
,
0200
0000
0320
0000
,
0130
0001
1000
0010
,
1010
0000
0101
0000
,
0010
0100
1001
0000
,
0002
0000
2003
0000
,
3001
0001
1000
1000
,
0020
0000
0230
0000
,
0310
0100
0110
0000
,
0020
0000
0230
0000
,
0310
1000
0001
0100
,
0101
0000
1010
0000
,
0100
0010
1001
0000
,
1000
1000
0001
1000
,
0001
0001
1000
0001
,
0100
0100
0010
0100
,
0010
0010
0100
0010
,
1000
0001
0010
0100
,
1000
0010
0100
0001
,
0010
0100
1000
0010
,
0100
0100
0010
0010
,
0020
0000
0230
0000
,
0310
0010
0100
0100
,
0002
0000
2003
0000
,
3001
1000
1001
0000
,
2000
0000
3002
0000
,
1003
0100
0010
0001
,
0011
0000
1100
0000
,
0001
1000
0110
0000
,
0200
0000
0320
0000
,
0130
0100
0010
0010
,
2000
0000
3002
0000
,
1003
0001
1001
0000
,
0002
0000
2003
0000
,
3001
0010
0100
1000
,
1100
0000
0011
0000
,
1000
0001
0110
0000
;
