#TITLE:Drive Me Faster Now!;
#SUBTITLE:;
#ARTIST:Pretty Woman;
#TITLETRANSLIT:;
#SUBTITLETRANSLIT:;
#ARTISTTRANSLIT:;
#CREDIT:;
#BANNER:Drive Me Faster Now!-bn.jpg;
#BACKGROUND:Drive Me Faster Now!-bg.PNG;
#LYRICSPATH:;
#CDTITLE:Super Eurobeat 125.png;
#MUSIC:Drive Me Faster Now!.ogg;
#OFFSET:-6.193;
#SAMPLESTART:48.970;
#SAMPLELENGTH:12.000;
#SELECTABLE:YES;
#BPMS:0.000=157.000;
#STOPS:1.000=0.382
,2.000=0.382
,3.000=0.382
,4.000=0.382
;
#BGCHANGES:;

//---------------dance-single - ----------------
#NOTES:
     dance-single:
     :
     Hard:
     8:
     0.595,0.495,0.367,0.317,0.000: // measure 1
1000
1001
0110
0101
,  // measure 2
1010
0010
0100
0001
,  // measure 3
0010
0100
2002
3003
,  // measure 4
0102
0000
1003
0000
0010
0100
0001
0100
,  // measure 5
0010
1000
0010
0100
0001
1000
0001
0000
,  // measure 6
0001
0010
0100
1000
0010
0100
0001
1000
,  // measure 7
0010
0100
0010
1000
0100
0010
0001
0000
,  // measure 8
0120
0000
0130
0000
1000
0001
0100
0010
,  // measure 9
0100
0001
1000
0010
1000
0001
0100
0000
,  // measure 10
0001
0100
0001
1000
0001
0100
0010
1000
,  // measure 11
0001
0100
0000
2002
0000
0000
3003
0000
,  // measure 12
0002
0000
1000
0000
0013
0000
0100
0001
,  // measure 13
0100
0000
0001
0100
0010
0100
0010
0000
,  // measure 14
0101
0000
1100
0000
1000
0100
0010
0000
,  // measure 15
0001
0100
0010
1000
0010
0100
0001
1000
,  // measure 16
0100
0000
1002
0000
1003
0000
0001
0010
,  // measure 17
0100
0000
1100
0000
0011
0000
1000
0001
,  // measure 18
0110
0000
0001
0100
0010
0000
0010
0100
,  // measure 19
0010
0000
1000
0100
1000
0001
0010
0100
,  // measure 20
2000
3002
0203
0320
,  // measure 21
2030
0000
3002
0000
0023
0000
0130
1000
,  // measure 22
0200
0000
2300
0000
3001
0000
1000
0010
,  // measure 23
0100
1001
0101
1001
,  // measure 24
1010
0000
0001
0100
0010
0000
1000
0010
,  // measure 25
0100
0000
0001
1000
0100
0000
0010
0001
,  // measure 26
0100
0000
0001
0001
0002
0000
1003
1000
,  // measure 27
2000
0000
3010
0010
0010
0000
1001
0000
,  // measure 28
2001
0000
3010
0000
0001
0100
0010
1000
,  // measure 29
0010
0100
0001
1000
0001
0100
0010
0000
,  // measure 30
1000
0100
1000
0000
0010
0100
0001
0000
,  // measure 31
0001
0010
0100
0010
0100
0000
1001
0000
,  // measure 32
0200
0000
1300
0000
1000
0010
0100
0001
,  // measure 33
0100
0010
0001
0010
0100
0010
0100
0000
,  // measure 34
0001
1000
0001
0000
0001
0010
0001
0000
,  // measure 35
0101
1100
1001
0110
,  // measure 36
1002
0000
0103
0000
0010
0100
0001
0100
,  // measure 37
1000
0100
0001
0100
0010
0100
0001
0000
,  // measure 38
1000
0100
1000
0000
0010
0100
0010
0000
,  // measure 39
0001
0100
0001
0100
0001
0000
0101
0000
,  // measure 40
2001
0000
3010
0000
0001
0100
0010
1000
,  // measure 41
0001
1000
0010
1000
0010
0100
0001
0000
,  // measure 42
0100
0001
0100
0000
0001
0010
0100
1001
,  // measure 43
0000
0011
0000
2002
0000
0000
3003
0000
,  // measure 44
0012
0000
0103
0000
1000
0010
0001
0010
,  // measure 45
0100
0001
1000
0010
1000
0001
0100
0000
,  // measure 46
0001
1000
0100
0010
0001
1000
0010
1000
,  // measure 47
0001
0010
0100
1000
0010
1000
0001
0000
,  // measure 48
2010
0000
3010
0000
0001
0100
0010
0100
,  // measure 49
0001
1000
0010
0100
0001
1000
0010
0000
,  // measure 50
1000
0001
1000
0001
0100
0010
0100
0010
,  // measure 51
1000
0001
0000
0201
0000
0000
0301
0000
,  // measure 52
1002
0000
0013
0000
1000
0010
0100
0001
,  // measure 53
1000
0001
0100
0010
1000
0001
0100
0000
,  // measure 54
0001
0100
0001
0100
0010
0100
0010
0100
,  // measure 55
0010
1000
0010
0100
0001
0100
0001
0000
,  // measure 56
1200
0000
1300
0000
0010
1000
0010
1000
,  // measure 57
0001
1000
0001
1000
0001
0100
0010
0000
,  // measure 58
1000
0010
0100
0001
0100
0010
1000
0001
,  // measure 59
1000
0001
0000
2002
0000
0000
3003
0000
;

//---------------dance-single - ----------------
#NOTES:
     dance-single:
     :
     Medium:
     6:
     0.449,0.437,0.307,0.198,0.000:
0100
1001
0110
1001
,
0110
1000
0010
1000
,
0100
0000
1000
0001
2000
0000
0000
0000
,
3010
0000
0100
0000
0001
0100
0001
0000
,
0100
1000
0100
0000
0010
0100
0010
0000
,
0010
0100
0010
0100
,
0110
0110
1001
1001
,
0002
0000
1003
0000
0001
1000
0001
0000
,
0010
1000
0010
0000
0010
0100
0001
0000
,
0001
0101
0001
1100
,
0010
0100
0000
1001
0000
0000
0000
0000
,
0100
0000
1000
0000
0010
1000
0000
0001
,
0000
0001
0100
0000
1000
0000
0010
0000
,
0110
0000
0001
0000
0001
0010
0000
0100
,
0000
0001
0000
0100
0000
1000
0000
0010
,
0000
0000
1000
0000
0100
1000
0000
0010
,
0000
0100
0010
0000
0100
0000
0010
0000
,
0110
0000
0000
0000
0001
0100
0001
0000
,
0001
1000
0001
0000
0010
0000
0100
0000
,
0010
0000
0010
0100
,
0001
0010
0100
1000
,
0002
0000
1000
0000
,
1003
1000
0001
0001
,
1001
0000
0100
1000
,
0010
0100
0010
0100
,
0010
0000
0001
0100
0001
0000
0010
1000
,
0010
0000
0001
0100
0001
0000
1001
0000
,
0002
0000
1003
0000
0001
1000
0001
0000
,
0010
0000
0100
0000
0100
1000
0100
0000
,
0020
0000
0130
0000
0200
0000
0310
1000
,
0000
0001
0000
1000
0000
0001
1000
0000
,
0002
0000
1003
0000
0001
1000
0001
0000
,
0100
0000
0010
0000
0100
0010
0100
0000
,
2000
0000
3001
0000
0200
0000
0310
0001
,
0000
1000
0000
0001
0000
1000
0001
0000
,
0012
0000
0013
0000
0001
0010
0001
0000
,
0100
0000
1000
0000
1000
0010
1000
0000
,
0200
0000
1300
0000
2000
0000
3100
0010
,
0000
0001
0000
0010
0000
0001
0010
0000
,
0002
0000
0013
0000
0001
0010
0001
0000
,
1000
0000
0100
0000
1000
0100
1000
0000
,
0020
0000
0031
0000
2000
0000
3100
0001
,
0000
0010
0000
0001
0000
0010
0001
0000
,
2001
0000
3100
0000
0001
0100
0001
0000
,
0100
1000
0100
0000
0010
0100
0010
0000
,
0010
0100
0010
0100
,
0110
0110
1001
1001
,
0002
0000
1003
0000
0001
1000
0001
0000
,
0010
1000
0010
0000
0010
0100
0001
0000
,
0001
0101
0001
1100
,
0010
0100
0000
1001
0000
0000
1000
0000
,
0010
0000
0001
0000
1000
0001
1000
0000
,
0001
0100
0001
0000
0010
0001
0010
0000
,
0010
0001
0010
0001
,
0011
0011
1100
1100
,
2000
0000
3100
0000
1000
0100
1000
0000
,
0010
0100
0010
0000
0010
0001
1000
0000
,
1000
1001
1000
0101
,
0010
0001
0000
2002
0000
0000
3003
0000
;

//---------------dance-single - ----------------
#NOTES:
     dance-single:
     :
     Easy:
     4:
     0.322,0.318,0.099,0.258,0.000:
0000
0010
0110
0010
,
1001
1000
0010
1000
,
0100
0010
1001
0000
,
0001
0001
1000
0010
,
1000
0100
1000
0000
,
0001
0001
1000
1000
,
0010
0010
0100
0100
,
0010
0100
0010
0100
,
0001
1000
0010
0000
,
1000
0100
1000
0001
,
0100
0010
1000
0000
,
0000
0001
1000
0010
,
1000
0100
0010
0001
,
0000
1000
0001
0100
,
0010
1000
0001
0010
,
0100
0000
0100
0010
,
0001
1000
0010
0100
,
1001
0000
0001
0001
,
1000
0010
0100
0001
,
2000
0000
0001
0000
,
3001
0000
0002
0000
,
1000
0000
1003
0000
,
0200
0000
0010
0000
,
0310
0000
0010
0000
,
0100
0000
0110
0000
,
1001
0001
0002
1000
,
1003
2000
0010
3010
,
1010
0001
0100
1000
,
0001
1000
0100
0010
,
0002
0000
2003
0000
,
3020
0000
0230
0000
,
0310
1000
0001
0010
,
0100
1000
0010
0100
,
0200
0000
0320
0000
,
2030
0000
3002
0000
,
1003
0010
0100
0001
,
0010
0100
1000
0010
,
0200
0000
0320
0000
,
2030
0000
3002
0000
,
1003
0010
0100
0001
,
0010
0100
1000
0010
,
0200
0000
0302
0000
,
2003
0000
3020
0000
,
0130
0100
0001
0010
,
0001
1000
0001
0000
,
0100
0100
0001
0001
,
0010
0010
1000
1000
,
0010
1000
0010
1000
,
0100
0001
0010
0000
,
0001
1000
0001
0100
,
1000
0010
0001
0000
,
2002
3003
1000
0001
,
0100
0010
2000
0000
,
3010
0010
0100
0100
,
0010
0100
0010
0100
,
2002
3003
0001
0001
,
1000
0010
1000
0100
,
1000
1000
0001
0000
,
1000
0001
0000
1010
0000
0000
0000
0000
;
