#TITLE:Domino;
#SUBTITLE:;
#ARTIST:Alvin;
#TITLETRANSLIT:;
#SUBTITLETRANSLIT:;
#ARTISTTRANSLIT:;
#CREDIT:;
#BANNER:Domino-bn.PNG;
#BACKGROUND:Domino-bg.PNG;
#LYRICSPATH:;
#CDTITLE:Super Eurobeat 166.png;
#MUSIC:Domino.mp3;
#OFFSET:-5.984;
#SAMPLESTART:65.564;
#SAMPLELENGTH:12.000;
#SELECTABLE:YES;
#BPMS:0.000=161.970;
#STOPS:52.500=0.741
;
#BGCHANGES:;

//---------------dance-single - ----------------
#NOTES:
     dance-single:
     :
     Medium:
     6:
     0.507,0.427,0.192,0.010,0.000:
0000
0000
0001
0100
0010
0000
1000
0100
,
1000
0000
0001
1000
0001
0000
0010
0100
,
0010
0000
0001
0100
0001
0000
0100
1000
,
0100
0000
0001
1000
0001
0000
0001
0010
,
0001
0000
0100
1000
0100
0000
0010
0100
,
0010
0000
0001
0100
0001
0000
0010
0100
,
0010
0000
0100
1000
0100
0000
0001
1000
,
0001
0000
0001
0000
0010
0000
1000
0100
,
1000
0001
0010
0000
0100
0001
0000
0100
,
1000
0100
0000
0000
0001
0000
0010
0000
,
1001
0000
0100
1000
0100
0000
1000
0001
,
1000
0010
0100
0001
,
1001
0000
0001
0100
1000
0000
0001
0010
,
1000
0200
0000
0300
0001
0000
0010
0000
,
1000
0000
0100
1000
0100
1000
0001
0000
,
0010
0000
0100
0000
0001
0000
0100
1000
,
0100
0000
0001
0010
0001
0000
0100
0001
,
0100
0000
0100
1000
0100
0000
0010
0100
,
0010
0000
0001
0010
0001
0000
0001
1000
,
0001
0000
0100
1000
0100
0000
0001
0010
,
0001
0000
0100
0100
0001
0000
0100
1000
,
0100
0000
0001
0010
0001
0000
0010
1000
,
0010
0000
0001
0100
0001
0000
0001
0100
,
1000
0001
1000
0001
1000
0010
0100
0000
,
0001
0000
0100
0000
1000
0001
0000
0001
,
0010
0000
1000
0000
0100
0010
0000
0001
,
0100
0000
0010
0000
0100
0001
0000
0100
,
1000
0100
0000
0100
1000
0001
0000
0001
,
0010
0000
0100
0000
0001
0100
0000
1000
,
0010
0000
0100
0000
0100
1000
0000
0010
,
0100
0001
0100
1000
,
0001
0000
0001
0010
0100
0001
0100
1000
,
0000
0001
0000
0001
0010
0100
0001
1000
,
0000
0100
0000
1000
0001
0000
0010
0000
,
0100
0000
0100
1000
0100
1000
0001
0000
,
0001
0000
0010
0000
0100
0001
0100
1000
,
0000
0010
0000
0000
0100
1000
0001
0010
,
0000
0100
0000
0001
0100
0000
1000
0000
,
0001
0000
0010
0100
0010
0100
0001
0000
,
0100
0000
1000
0100
1000
0000
0001
0010
,
0100
0001
0000
0100
1000
0100
0000
0001
,
0010
0100
0100
0000
1000
0000
0001
0000
,
0010
0100
1000
1001
,
0011
0000
1100
0000
0110
0000
0001
0100
,
1000
0001
0000
0001
0010
0100
0000
0010
,
0100
0001
1000
0000
1001
0000
0001
0000
,
0100
1000
0001
1001
,
0011
0000
1100
0000
0110
0000
0001
0100
,
1000
0010
0000
0010
0100
0001
0000
0001
,
0100
1000
0100
0000
0010
0000
0010
0000
,
0100
0100
1000
1001
,
0011
0000
1100
0000
0101
0000
0001
0010
,
0100
0010
0000
0100
1000
0100
0000
0001
,
0010
1000
0100
0000
1001
0000
0001
0000
,
0100
0100
1000
1001
,
0011
0000
1100
0000
1001
0000
0001
0010
,
1000
0000
0100
1000
0100
0000
0010
0100
,
0010
0000
0001
0010
0001
0000
0100
1000
,
0100
0000
0001
0010
0100
0000
0100
1000
,
0010
0000
0001
0010
0100
0000
0001
0100
,
1000
0000
0001
0010
1000
0000
0001
0010
,
0100
0000
0010
0001
0100
0000
1000
0010
,
0100
0000
0001
0100
1000
0000
0010
0100
,
0001
0100
1000
0010
0100
0001
0000
0000
;

//---------------dance-single - ----------------
#NOTES:
     dance-single:
     :
     Easy:
     4:
     0.297,0.273,0.173,0.000,0.000:
0000
0001
0100
0001
,
0010
0100
1000
0010
,
0100
1000
0000
0010
,
0000
0100
0001
0010
,
0100
1000
0001
0010
,
0100
0001
0010
0100
,
1000
0100
0000
0010
,
0000
1000
0100
1000
,
0010
0010
0000
0100
,
0000
0001
1000
0010
,
0000
1000
0100
0010
,
0100
0001
0001
0001
,
0000
1000
0000
0010
,
0000
1001
0000
0000
0100
0000
0001
0000
,
0000
1000
0000
0010
,
0100
1000
0001
0001
,
0010
0100
1000
0010
,
0100
1000
0010
0100
,
0000
0001
0000
0010
,
0100
1000
0010
0100
,
0001
0010
0100
1000
,
0001
0010
0100
1000
,
0000
0001
0000
0001
,
0010
0100
1000
1000
,
0001
0010
0000
0100
,
1000
0001
0000
0100
,
0001
1000
0000
0100
,
0010
0100
1000
0001
,
0010
0100
0000
0001
,
0001
0100
0000
1000
,
1000
0010
0000
0100
,
0001
0010
0100
0101
,
0000
0101
0000
1100
,
0000
1100
0000
0110
,
0000
0110
0000
0101
,
0001
0010
1000
1010
,
0000
0101
0000
0011
,
0000
1100
0000
0010
,
1000
0100
0001
1001
,
0000
1001
0000
0010
,
0000
0100
0000
0010
,
0010
1000
0000
0001
,
0100
1000
0010
0100
,
0010
1001
0000
0010
,
0000
0100
0000
0001
,
0010
0100
0000
0100
,
1000
0010
0100
1000
,
0010
0011
0000
0100
,
0000
1000
0000
0001
,
0010
0100
0000
0100
,
1000
0001
1000
0010
,
1000
0110
0000
0001
,
0000
1000
0000
0100
,
0010
0001
0000
1000
,
0001
0010
0100
1000
,
0010
1001
0000
0100
,
1000
0100
1000
0100
,
0010
0010
0010
0100
,
0000
0001
0000
0001
,
0100
1000
0001
0001
,
0010
0100
0001
0100
,
1000
0001
0010
0100
,
0000
0001
0000
1000
,
0010
0100
0000
0000
;

//---------------dance-single - ----------------
#NOTES:
     dance-single:
     :
     Hard:
     8:
     0.644,0.519,0.173,0.182,0.000: // measure 1
0000
0010
0001
0010
0100
0010
0001
0010
,  // measure 2
0100
0010
0001
0100
0010
0100
0001
0010
,  // measure 3
0100
1000
0010
0100
0010
1000
0010
0100
,  // measure 4
0010
1000
0010
0100
0001
0010
0100
1000
,  // measure 5
0010
0100
0001
0010
0100
0010
0001
0010
,  // measure 6
0100
0010
0001
0100
0010
1000
0100
0010
,  // measure 7
0001
0100
0010
0100
1000
0100
0010
0100
,  // measure 8
0001
0100
0001
0100
0010
0100
0001
0010
,  // measure 9
0100
0100
1000
0010
1000
1010
0000
0100
,  // measure 10
0001
0011
0000
0001
0100
0010
0100
0000
,  // measure 11
1001
0000
0001
0001
1000
1000
0010
0010
,  // measure 12
0100
0100
0200
0000
0320
0000
0230
0000
,  // measure 13
0310
0000
0001
1000
0010
0100
0000
0010
,  // measure 14
0100
2002
0000
3003
1001
0000
0001
1000
,  // measure 15
0001
1000
0100
1000
0010
1000
0200
0000
,  // measure 16
0320
0000
0032
0000
1003
0010
0100
0001
,  // measure 17
0010
0100
1000
0010
0100
0010
0100
0001
,  // measure 18
0010
0100
0010
0001
0100
0010
1000
0100
,  // measure 19
0010
0100
0010
0001
0010
0100
1000
0010
,  // measure 20
0100
0001
0010
0100
1000
0001
1000
0010
,  // measure 21
1000
0010
0100
0010
0100
0010
0100
0001
,  // measure 22
0010
0100
1000
0010
0100
0001
0010
0100
,  // measure 23
0010
0100
0010
0001
0010
0001
1000
0010
,  // measure 24
0100
0001
1000
0010
0100
0001
1000
0010
,  // measure 25
1000
0000
0100
1000
0100
0000
0100
0010
,  // measure 26
0100
0000
0001
0010
0001
0000
0001
0100
,  // measure 27
0010
1000
0100
0000
0100
0010
0100
0000
,  // measure 28
1001
0000
0010
1000
0010
0000
0010
0100
,  // measure 29
0001
0100
0010
0000
0101
0000
0001
0010
,  // measure 30
0100
1000
0010
0000
0110
0000
0001
0100
,  // measure 31
0001
0000
0010
1000
0010
0000
0010
0100
,  // measure 32
0001
0010
0100
1000
0010
0100
0002
0000
,  // measure 33
0100
1000
0103
0200
,  // measure 34
0010
0000
0001
0000
0310
0000
0001
0100
,  // measure 35
0010
0100
0010
1000
0010
0100
0001
0000
,  // measure 36
0001
0100
0010
0000
1001
0000
0100
1000
,  // measure 37
0100
1000
0010
0000
0110
0000
0001
0010
,  // measure 38
0100
1000
0010
0000
0110
0000
0001
0001
,  // measure 39
1000
1000
0010
0010
0100
0001
0100
0010
,  // measure 40
1000
0100
0010
0001
0001
0000
1000
0010
,  // measure 41
0100
0001
0000
0010
0001
1000
0000
0100
,  // measure 42
1000
0001
0100
0000
1001
0000
0001
0001
,  // measure 43
1000
1000
0100
0100
0010
0001
2000
0000
,  // measure 44
3020
0000
0130
0000
0101
0000
0010
1000
,  // measure 45
0100
0010
0000
0001
0100
0010
0000
0010
,  // measure 46
1000
0001
0010
0000
0011
0000
0001
0001
,  // measure 47
0010
0010
0100
0100
1000
0010
0200
0000
,  // measure 48
0320
0000
0130
0000
1001
0000
0001
0010
,  // measure 49
0100
1000
0000
0010
0100
0001
0000
0010
,  // measure 50
0100
0010
0100
0000
0110
0000
0001
0001
,  // measure 51
1000
1000
0100
0100
0010
0001
2000
0000
,  // measure 52
3020
0000
0130
0000
1001
0000
0010
0100
,  // measure 53
0001
0010
0000
0100
1000
0010
0000
0001
,  // measure 54
0100
0010
0100
0000
1001
0000
0100
1000
,  // measure 55
0100
1000
0010
1000
0010
0100
0002
0000
,  // measure 56
0203
0000
0320
0000
1030
0100
1000
0010
,  // measure 57
0100
0001
1000
0010
0100
0010
1000
0100
,  // measure 58
0010
0001
0010
0100
0010
0001
0010
0100
,  // measure 59
1000
0010
0100
0001
0010
0001
0010
0001
,  // measure 60
0100
0010
0100
0001
0100
0010
1000
0100
,  // measure 61
0010
0001
0100
0010
1000
0100
0010
0001
,  // measure 62
1000
0010
0100
0001
1000
0010
0100
0010
,  // measure 63
1000
0001
0100
0010
1000
0001
0010
0001
,  // measure 64
0100
0010
1000
0010
0100
0010
0000
0000
;
