#TITLE:Do It All Night 2003;
#SUBTITLE:;
#ARTIST:E-Rotic;
#TITLETRANSLIT:;
#SUBTITLETRANSLIT:;
#ARTISTTRANSLIT:;
#CREDIT:;
#BANNER:Do It All Night 2003-bn.png;
#BACKGROUND:Do It All Night 2003-bg.png;
#LYRICSPATH:;
#CDTITLE:cd.png;
#MUSIC:Do It All Night 2003.mp3;
#OFFSET:-6.918;
#SAMPLESTART:29.650;
#SAMPLELENGTH:12.000;
#SELECTABLE:YES;
#BPMS:0.000=140.010;
#STOPS:;
#BGCHANGES:;

//---------------dance-single - ----------------
#NOTES:
     dance-single:
     :
     Hard:
     8:
     0.588,0.537,0.421,0.299,0.266: // measure 1
0020
0000
0000
0000
1030
0000
0000
0000
0010
0000
1000
0010
0000
1000
0010
0000
,  // measure 2
0200
0000
0000
0000
0302
0000
0000
0000
0013
0000
0001
0010
0000
0001
0010
0000
,  // measure 3
0200
0000
0000
0000
2300
0000
0000
0000
3010
0000
1000
0010
0000
1000
0010
0000
,  // measure 4
0200
0000
0000
0000
0302
0000
0000
0000
0103
0000
0010
0100
0000
0010
0100
0000
,  // measure 5
2002
0000
3003
1000
0010
0100
0010
1000
,  // measure 6
0001
0000
0001
0000
0010
0000
0010
0000
0100
0000
0100
1000
0000
0000
0000
0000
,  // measure 7
2002
0000
3003
0010
1000
0010
0100
0001
,  // measure 8
1000
0000
1000
0000
0010
0000
0010
0000
0100
0000
0100
0001
0000
0000
0000
0000
,  // measure 9
2002
0000
3003
0001
0100
0010
0100
0010
,  // measure 10
1000
0001
0100
0001
0010
0001
0101
0000
,  // measure 11
0010
0010
0100
0100
0110
0100
1001
0000
,  // measure 12
0001
1000
0100
0010
0001
1000
0010
0000
,  // measure 13
2002
0000
0000
3003
,  // measure 14
1001
0000
0000
0000
,  // measure 15
1001
0000
1000
0001
0010
0100
0010
0000
,  // measure 16
0011
0000
0001
1000
0010
0100
0001
0100
,  // measure 17
0010
1000
0001
0010
0100
1000
0010
0100
,  // measure 18
0010
0000
0110
0000
0001
1000
0010
0100
,  // measure 19
0001
0000
0101
0000
0010
0100
0010
1000
,  // measure 20
0100
0000
0110
0000
1000
0010
1000
0010
,  // measure 21
0100
0001
0100
0010
1000
0001
0010
0100
,  // measure 22
1000
0001
0100
0010
0100
0001
0010
0100
,  // measure 23
2000
0000
3010
1000
0010
0100
0001
1000
,  // measure 24
0020
0000
1030
0001
0100
0010
1000
0100
,  // measure 25
0010
0100
1000
0001
1000
0010
0100
0001
,  // measure 26
1000
0000
1000
0100
0010
0001
0201
0000
,  // measure 27
0310
0000
1000
0001
0010
0100
2001
0000
,  // measure 28
3001
0000
0001
0100
0010
1000
0001
0100
,  // measure 29
0020
0000
0130
0010
0100
0010
1000
0001
,  // measure 30
0200
0320
2030
3001
,  // measure 31
1001
0000
0000
0010
0000
0000
0100
0000
0001
0000
0010
0000
0100
0000
1000
0000
,  // measure 32
0010
0000
0000
0100
0000
0000
0010
0000
1000
0000
0001
0000
0010
0000
0100
0000
,  // measure 33
1000
0000
0000
1000
0000
0000
0100
0000
0010
0000
0001
0000
0100
0000
0010
0000
,  // measure 34
0100
0000
0000
0010
0000
0000
1000
0000
0001
0000
0100
0000
0010
0000
1000
0000
,  // measure 35
0100
0000
0000
1001
0000
0000
0001
0000
1000
0000
0100
0000
1000
0000
0010
0000
,  // measure 36
1000
0000
0000
0110
0000
0000
0010
0000
0100
0000
0010
0000
1000
0000
0100
0000
,  // measure 37
1000
0000
0000
0011
0000
0000
0100
0000
0001
0000
0100
0000
0010
0000
1000
0000
,  // measure 38
0001
0000
0000
0110
0000
0000
0100
0000
0010
0000
1000
0000
0001
0000
0100
0000
,  // measure 39
1001
0000
0000
0110
0000
0000
0100
0000
0001
0100
0001
0000
0100
0000
0010
0000
,  // measure 40
1000
0000
0000
1010
0000
0000
0100
0000
0010
0100
0010
0000
0100
0000
0001
0000
,  // measure 41
0011
0000
0000
1001
0000
0000
1000
0000
0001
1000
0001
0000
0100
0000
0010
0000
,  // measure 42
1000
0000
0000
1010
0000
0000
0100
0000
0010
0100
0010
0000
0100
0000
0100
0000
,  // measure 43
1001
0000
0000
0110
0000
0000
0100
0000
0010
0100
0001
0000
0100
0000
0001
0000
,  // measure 44
0100
0000
0000
0101
0000
0000
0100
0000
0010
1000
0010
0000
1000
0000
0010
0000
,  // measure 45
0110
0000
0000
1001
0000
0000
0010
0000
0100
0010
0100
0000
0001
0000
1000
0000
,  // measure 46
1100
0000
0000
1010
0000
0000
1000
0000
0001
0000
0001
0000
1000
0000
1000
0000
,  // measure 47
1001
0000
0000
0110
0000
0000
0100
0000
0001
0100
0000
0002
0000
0000
0003
0000
,  // measure 48
0101
0000
0000
1010
0000
0000
0100
0000
0010
0100
0000
0020
0000
0000
0030
0000
,  // measure 49
1010
0000
0000
0101
0000
0000
1000
0000
0100
1000
0000
0002
0000
0000
0003
0000
,  // measure 50
0110
0000
0000
1001
0000
0000
0100
0000
0010
0100
0000
0020
0000
0000
0030
0000
,  // measure 51
1000
0001
0000
0110
0000
0000
0100
0000
0001
0010
0000
0002
0000
0000
0003
0000
,  // measure 52
1000
0010
0000
1010
0000
0000
0001
0000
1000
0001
0000
0020
0000
0000
0030
0000
,  // measure 53
0001
0100
0000
0101
0000
0000
0010
0000
1000
0010
0000
0020
0000
0000
0030
0000
,  // measure 54
1000
0001
0100
0010
1000
0001
0100
0010
,  // measure 55
2002
0000
0000
3003
;

//---------------dance-single - ----------------
#NOTES:
     dance-single:
     :
     Medium:
     6:
     0.419,0.384,0.065,0.449,0.037:
2000
3010
1000
0001
,
0200
0310
0100
0001
,
0002
1003
0010
0100
,
0002
0013
0200
1300
,
2002
0000
0000
3003
,
0001
1000
0001
1000
0001
1000
0001
0000
,
0220
0000
0000
0330
,
0010
0100
0010
0100
0010
0100
0010
0000
,
0110
0000
0000
0010
0100
0010
0100
0000
,
0001
1000
0100
0010
,
0001
0000
1000
0000
0010
1000
0010
0000
,
0010
0100
0001
0000
0001
0100
0010
0000
,
0002
0000
0000
0000
,
1003
0000
0010
1000
0000
0010
1000
0000
,
0020
0000
0130
0001
0000
0100
0001
0000
,
0200
0000
0310
0000
1000
0010
1000
0000
,
0100
0000
0010
0001
0010
0000
0001
0000
,
0100
0000
0010
0000
1000
0010
1000
0000
,
0002
0000
0103
0000
0010
1000
0100
0000
,
0020
0000
0031
0000
0100
0001
0100
0000
,
0010
0000
1000
0001
1000
0000
0001
0000
,
0010
0000
0001
1000
0000
0010
1000
0000
,
0020
0000
0130
0001
0000
0100
0010
0000
,
0200
0000
0300
0000
0001
1000
0010
0000
,
0010
0000
0100
0001
0100
0000
0001
0000
,
0011
0000
0000
0100
0000
1000
0010
0000
,
0110
0000
0001
1000
0000
0001
1000
0000
,
1001
0000
0010
0000
0100
0010
0100
0000
,
0001
1000
0100
0000
0100
0010
0001
0000
,
0002
0203
0320
1030
,
0002
0000
1003
0000
0010
1000
0010
0000
,
0200
0000
0310
0000
0100
0010
0100
0000
,
0002
0000
0013
0000
0100
0010
0200
0000
,
2300
0000
3010
0000
0010
0100
0010
0100
,
0020
0000
0130
0000
0001
0100
0001
0000
,
2000
0000
3010
0000
0010
0100
0001
0000
,
0002
0000
0013
0000
0100
1000
0010
0000
,
0020
0000
0130
0000
0001
0100
0001
0100
,
0010
0000
1000
0000
0010
1000
0010
0100
,
0002
0000
0103
0000
0010
0100
0010
1000
,
0200
0000
0310
0000
0001
0100
0010
1000
,
0020
0000
1030
0000
0010
1000
0010
0100
,
0002
0000
0013
0000
0100
1000
0010
0100
,
0002
0000
0013
0000
0001
0010
0100
1000
,
0020
0000
0130
0000
0001
1000
0001
1000
,
0200
0000
0310
0000
0001
1000
0010
1000
,
0020
0130
0200
0301
,
0002
1003
2000
3001
,
0020
0130
0200
0310
,
0002
0103
2000
3010
,
0001
0000
0000
0001
0000
0000
0000
0000
1000
0000
0000
1000
0000
0000
0000
0000
,
0010
0000
0000
0010
0000
0000
0000
0000
0100
0000
0000
0100
0000
0000
0000
0000
,
0001
0000
0000
0002
0000
0000
0003
0000
1000
0000
0000
2000
0000
0000
3000
0000
,
0010
0000
0000
0020
0000
0000
0030
0000
0100
0000
0000
0100
0000
0000
0000
0000
,
2002
0000
0000
3003
;

//---------------dance-single - ----------------
#NOTES:
     dance-single:
     :
     Easy:
     4:
     0.318,0.384,0.224,0.327,0.000:
0010
1000
0010
0000
,
0100
0001
0100
0000
,
0010
0100
0010
0000
,
1000
0001
1000
0000
,
2002
3003
0001
0001
,
1000
1000
0010
0010
,
0220
0330
0100
0100
,
0010
1000
0001
0010
,
2002
3003
0010
1000
,
0001
0100
0010
1000
,
2000
3020
0230
0301
,
0002
0203
0320
1030
,
0002
0000
0000
0000
,
1003
0000
0000
0000
,
1001
0010
1000
0010
,
1010
0100
0001
0010
,
0011
0001
0100
0010
,
1000
1010
0010
0100
,
1001
0010
0100
0001
,
0011
0001
0100
0010
,
0200
0310
0020
0130
,
0200
0302
2003
3010
,
1010
0100
0002
0103
,
0110
1000
0010
1000
,
0001
1000
0001
0010
,
0100
1000
0020
0130
,
0101
0000
2000
3100
,
1100
0000
0010
0100
,
0001
1000
0010
0100
,
0002
0000
1000
1003
,
1000
0000
0001
1000
,
0001
0000
0100
0010
,
0100
0000
0001
1000
,
0001
0000
0001
1000
,
0010
0000
0010
0100
,
0002
0000
1003
0010
,
2000
0000
3010
0100
,
0002
0000
1003
1000
,
0010
1010
0100
0001
,
0100
0010
1000
0001
,
0010
0100
0010
0001
,
1000
0010
0100
0001
,
0001
0101
0010
1000
,
0010
1010
1000
0001
,
0010
0110
0001
1000
,
0010
1010
1000
0001
,
2000
0000
3002
0000
,
2003
0000
3020
0000
,
0230
0000
0302
0000
,
2003
0000
3020
0000
,
0130
0000
1001
0000
,
0011
0000
0101
0000
,
1010
0000
0110
0000
,
0001
1000
0010
0100
,
2002
0000
0000
3003
;

//---------------dance-single - ----------------
#NOTES:
     dance-single:
     :
     Beginner:
     1:
     0.136,0.177,0.009,0.215,0.000:
0010
0000
0000
0000
,
0100
0000
0000
0000
,
0010
0000
0000
0000
,
0100
0000
0000
0000
,
0002
0000
0000
0000
,
0003
0000
0000
0000
,
2000
0000
0000
0000
,
3000
0000
0000
0000
,
0020
0000
0000
0000
,
0030
0000
0000
0000
,
0200
0000
0000
0000
,
0300
0000
0000
0000
,
0002
0000
0000
0000
,
1003
0000
0000
0000
,
1000
0000
0001
0000
,
1000
0000
0010
0000
,
0100
0000
0001
0000
,
1000
0000
0001
0000
,
1000
0000
0010
0000
,
0100
0000
0001
0000
,
1000
0000
0001
0000
,
1000
0000
0001
0000
,
2000
0000
3000
0000
,
0002
0000
0003
0000
,
0200
0000
0300
0000
,
0020
0000
0030
0000
,
0200
0000
0300
0000
,
0002
0000
0003
0000
,
1000
0000
0001
0000
,
1000
0001
1000
0001
,
2000
0000
3000
0000
,
0020
0000
0030
0000
,
0200
0000
0300
0000
,
0002
0000
0003
0000
,
2000
0000
3000
0000
,
0200
0000
0300
0000
,
0020
0000
0030
0000
,
0002
0000
0003
0000
,
1000
0000
0010
0010
,
0010
0000
0100
0100
,
0100
0000
0001
0001
,
0001
0000
1000
1000
,
1000
0000
0001
0001
,
0001
0000
1000
1000
,
1000
0000
0010
0010
,
0010
0000
0100
0000
,
0010
0000
0000
0000
,
0100
0000
0000
0000
,
0001
0000
0000
0000
,
1000
0000
0000
0000
,
0002
0000
0000
0003
,
2000
0000
0000
3000
,
0020
0000
0000
0030
,
0200
0000
0000
0300
,
1001
0000
0000
0000
;
