#TITLE:Cyberdance Technotrance;
#SUBTITLE:;
#ARTIST:Marko Polo;
#TITLETRANSLIT:;
#SUBTITLETRANSLIT:;
#ARTISTTRANSLIT:;
#CREDIT:;
#BANNER:Cyberdance Technotrance-bn.PNG;
#BACKGROUND:Cyberdance Technotrance-bg.PNG;
#LYRICSPATH:;
#CDTITLE:Super Eurobeat 132.png;
#MUSIC:Cyberdance Technotrance.ogg;
#OFFSET:-6.143;
#SAMPLESTART:48.130;
#SAMPLELENGTH:12.000;
#SELECTABLE:YES;
#BPMS:0.000=159.990;
#STOPS:;
#BGCHANGES:;

//---------------dance-single - ----------------
#NOTES:
     dance-single:
     :
     Hard:
     7:
     0.522,0.512,0.257,0.237,0.000:
0000
0000
0000
0000
,
0000
0000
0000
0000
,
0000
0000
0000
0000
,
0000
0000
0000
0000
,
1000
0000
0001
1000
0002
0000
0003
0000
,
1000
0010
1000
0000
0100
0001
0100
0010
,
0100
0000
0001
1000
0001
0000
1000
0010
,
2000
0000
3001
1001
,
2001
0000
3010
1000
0020
0000
0030
0000
,
1000
0010
1000
0000
0100
0010
0100
0010
,
0100
0001
0100
0000
0010
1000
0010
0000
,
1000
0001
1000
0001
2000
0000
3001
0000
,
2000
0000
0000
0002
3000
0000
0000
0000
,
1003
0000
0000
0010
1000
0010
1000
0010
,
0100
0000
0001
0100
0001
0000
0010
1000
,
0010
0000
1001
0000
0001
0010
0001
0010
,
0002
0000
0000
2000
0003
0000
0000
0001
,
3000
0000
0000
0010
0100
0010
0100
0001
,
0100
0000
0100
1000
0010
0000
0010
1000
,
0100
1000
0010
0000
1001
0000
0110
0000
,
0002
0000
2003
0000
3010
0000
0100
0001
,
0100
0000
0010
1000
0100
1000
0010
0000
,
2010
0000
0000
0100
3100
0000
0000
0000
,
0210
0000
0000
0010
0310
0000
0001
0000
,
1000
0000
1100
0000
0010
0100
0001
0000
,
0010
1000
0100
0000
0100
1000
0001
1000
,
0020
0000
0000
0000
0030
1000
0000
0001
,
0000
1000
0000
0001
0000
0010
1000
0010
,
1001
0100
0000
1001
0000
1000
0001
0100
,
0010
0100
0001
0100
0010
0100
0001
0000
,
0001
1000
0000
1001
0000
0010
0100
0001
,
0010
0100
1000
0010
0100
0001
0010
0000
,
0001
0010
0000
0110
0000
0100
1000
0010
,
0100
0001
0010
0001
0100
0010
1000
0100
,
1000
0000
0010
0000
0100
0001
0000
1010
,
0000
0101
0000
2000
0000
3001
1000
0100
,
1000
0010
0000
1001
0000
0001
0010
0100
,
1000
0001
1000
0010
1000
0100
1000
0000
,
0010
1000
0000
1010
0000
0001
0010
0100
,
1000
0001
0100
0010
0100
0000
0001
0000
,
1010
0001
0000
1001
0000
0001
1000
0010
,
0100
0001
0010
0100
1000
0010
0100
0001
,
0020
0000
0031
0000
1000
0010
0000
0100
,
0000
0110
0000
1001
0000
0100
0100
0100
,
1000
0000
0010
0001
0200
0000
0000
0000
,
0301
0100
1000
0000
0100
0001
1000
0100
,
1000
0000
0010
1000
0100
0000
0001
1000
,
0020
0000
1030
0011
,
0120
0000
1030
0100
0002
0000
0003
0000
,
0100
1000
0001
0000
1000
0100
0010
0100
,
0001
1000
0100
0000
0010
0100
0010
0000
,
1000
0001
0100
1000
0020
0000
1030
0000
,
0002
0010
0010
0013
,
0100
0010
0001
0010
0001
0010
0100
0010
,
2000
0010
0010
3010
,
0001
1000
0001
1000
0100
1000
0001
1000
,
0200
0000
0010
0000
0310
0001
0010
0100
,
0001
0100
0010
1000
0001
0000
0110
0000
,
0100
0001
0100
0001
0100
0001
1010
0000
,
1000
0100
0010
0100
1000
0100
0110
0000
,
0001
1000
0010
1000
0001
1000
0010
0000
,
1001
0000
0000
0000
;

//---------------dance-single - ----------------
#NOTES:
     dance-single:
     :
     Challenge:
     8:
     0.603,0.572,0.435,0.346,0.000:
0000
0000
0000
0000
,
0000
0000
0000
0000
,
0000
0000
0000
0000
,
0000
0000
0000
0000
,
2001
0000
3010
1000
0020
0000
2030
0000
,
3001
0100
0010
0100
0001
1000
0010
0100
,
2001
0000
3010
0100
0001
0000
0001
0100
,
0020
0000
0130
0000
0012
0010
0013
0000
,
0001
0100
1000
0010
1000
0000
1001
0000
,
0010
0100
0001
0100
1000
0001
0010
0100
,
0001
0100
0010
0200
0000
0301
0100
0020
,
0000
1030
0100
2000
0000
3010
0010
0010
,
1001
0000
0100
1000
0002
0000
2003
0000
,
3020
0000
0000
1030
0100
1000
0001
1000
,
1001
0000
0010
0100
0001
0000
0001
1000
,
0010
0000
1100
0000
0001
0010
0001
0010
,
0100
0000
0001
1000
0010
0000
2001
0000
,
0200
0000
3300
0001
0100
0010
0100
0001
,
0100
0000
0010
1000
0100
0000
0001
1000
,
0010
1000
0001
0000
1001
0000
1100
0000
,
0002
0000
0203
0000
0310
0000
1000
0001
,
1000
0000
0010
0100
0001
0100
0010
0100
,
0002
0000
1003
0100
1000
0000
1010
0000
,
0002
0000
0103
0010
0100
0000
1001
0000
,
0010
0000
1000
0000
1100
0000
0001
0100
,
0010
0000
0001
0100
0010
0100
0001
1000
,
0200
0000
1300
0000
0010
0100
0001
0010
,
0001
0000
0001
1000
0100
1000
0010
0000
,
1001
0100
0000
1001
0000
0010
0100
0001
,
0010
0100
1000
0010
0100
0001
0010
0001
,
0011
0100
0000
1001
0000
0010
0100
0001
,
1000
0100
1000
0010
0100
0000
1001
0000
,
0101
1000
0000
1001
0000
0010
0100
0001
,
0010
0100
1000
0010
0100
0001
0010
0100
,
0100
0000
1001
0000
0010
1000
0000
1001
,
0000
0011
0000
0200
0000
0301
0001
1000
,
0010
1000
0000
1001
0000
0010
0100
0001
,
0010
0100
1000
0010
1000
0100
1000
0000
,
0001
1000
0000
1010
0000
0100
0010
1000
,
0000
0110
0000
1000
0010
0100
1000
0010
,
0010
0100
0000
1001
0000
0010
0100
0001
,
0010
0100
1000
0010
0100
0001
0010
1000
,
0010
0000
1001
0000
0010
0100
0000
0011
,
0000
1100
0000
0110
0000
0001
0010
0100
,
0021
0000
0130
1000
2000
0000
3020
0000
,
1030
0010
0001
0100
1000
0001
0001
0100
,
1020
0000
0130
0010
0010
0000
1000
1000
,
2000
0000
3010
0000
0201
0001
0301
0000
,
1000
0010
1000
0100
1000
0000
0110
0000
,
0010
0001
1000
1000
0010
0010
1000
0010
,
0001
0100
0001
0002
0000
0103
0010
2000
,
0000
3001
0100
0020
0000
1030
0010
0010
,
0012
0000
2003
0000
3020
0000
0130
0001
,
0100
0000
1001
0000
0010
1000
0001
1000
,
0010
0100
0001
0000
0010
1000
0100
0000
,
2001
0000
3020
0000
0230
0000
1300
0001
,
1000
0000
1001
0000
0010
0100
0001
0010
,
0100
1000
0010
1000
0001
0000
1001
0000
,
0010
1000
0100
1000
0001
0001
1001
0000
,
0010
0100
0001
0010
0100
0100
1100
0000
,
0001
1000
0010
0100
0001
0001
0101
0000
,
0110
0000
0000
0000
;

//---------------dance-single - ----------------
#NOTES:
     dance-single:
     :
     Medium:
     5:
     0.385,0.392,0.059,0.188,0.000: // measure 1
0000
0000
0000
0000
,  // measure 2
0000
0000
0000
0000
,  // measure 3
0000
0000
0000
0000
,  // measure 4
0000
0000
0000
0000
,  // measure 5
0020
0000
0130
1000
0200
0000
0300
0000
,  // measure 6
0001
0100
0001
0000
0010
1000
0010
0000
,  // measure 7
0100
0000
1000
0001
1000
0000
0010
0000
,  // measure 8
2000
0000
3001
0001
,  // measure 9
1000
0000
0010
1000
0020
0000
0000
0000
,  // measure 10
0130
0001
0100
1000
,  // measure 11
0010
1000
0010
0000
0001
0100
0001
0000
,  // measure 12
0010
0000
1000
0000
0001
1000
0001
0000
,  // measure 13
0001
0000
0000
2002
0000
3003
0000
0010
,  // measure 14
0000
0000
1000
0000
0001
1000
0001
0000
,  // measure 15
0010
0000
0100
0000
0001
0000
0100
1000
,  // measure 16
0100
1001
0010
0100
,  // measure 17
0001
0000
0000
0202
0000
0303
0000
0010
,  // measure 18
0000
0000
0100
0000
0001
0100
0001
0000
,  // measure 19
0010
0000
1000
0000
0001
0000
1000
0100
,  // measure 20
1000
0101
0010
1000
,  // measure 21
2000
0000
0010
0000
3100
0000
0001
0100
,  // measure 22
0000
0010
0010
0010
,  // measure 23
1001
0000
0000
0200
0000
0000
0000
0300
,  // measure 24
0011
0000
0000
0200
0000
0000
0000
0300
,  // measure 25
0002
0000
1000
0000
0013
0000
0001
0100
,  // measure 26
0000
0000
0010
0000
0100
0000
1000
0002
,  // measure 27
0000
0000
1003
0000
0010
1000
0100
1000
,  // measure 28
0000
0010
0000
0100
0000
1000
0000
0000
,  // measure 29
0010
1000
0000
0100
0000
1000
0000
0010
,  // measure 30
0000
1000
0000
0001
0000
0010
1000
0000
,  // measure 31
0100
0001
0000
0010
0000
0100
0000
1000
,  // measure 32
0000
0001
0000
0001
1000
0000
0010
0000
,  // measure 33
0001
0010
0000
0001
0000
1000
0000
0100
,  // measure 34
0000
0010
0000
0100
0000
1000
0100
0002
,  // measure 35
0000
0003
0100
0100
,  // measure 36
1000
0001
0100
0010
,  // measure 37
0100
0010
0000
0001
0000
0010
0000
0100
,  // measure 38
0000
0010
0000
1000
0000
0100
0010
0000
,  // measure 39
0001
1000
0000
0100
0000
0001
0000
0010
,  // measure 40
0000
1000
0000
1000
0010
0000
0100
0000
,  // measure 41
1000
0100
0000
1000
0000
0010
0000
0001
,  // measure 42
0000
0100
0000
0001
0000
0010
0001
2000
,  // measure 43
0000
3000
0001
0001
,  // measure 44
0010
1000
0001
0100
,  // measure 45
0020
0000
0031
0100
0002
0000
0003
0000
,  // measure 46
0001
0010
1000
0000
1000
0010
0001
0000
,  // measure 47
0010
0000
1000
0001
1000
0000
0010
0000
,  // measure 48
0200
0000
0301
1000
,  // measure 49
0001
0000
0001
1000
0020
0000
0000
0000
,  // measure 50
0031
1000
0100
0010
,  // measure 51
0001
0010
0001
0000
0001
0100
1000
0000
,  // measure 52
0100
0000
1000
0000
0010
1000
0001
0000
,  // measure 53
1000
0010
0000
0010
0000
0010
0000
1000
,  // measure 54
0001
1000
0010
1000
,  // measure 55
0001
0100
0001
0100
,  // measure 56
0010
0100
0000
0001
0000
0001
0000
0001
,  // measure 57
1000
0010
0100
1000
,  // measure 58
0001
0010
0100
0001
,  // measure 59
0001
0100
0001
0100
0001
0100
0000
0000
,  // measure 60
0010
1000
0010
1000
0010
1000
0000
0000
,  // measure 61
0100
1000
0100
1000
0100
1000
0000
0000
,  // measure 62
0001
0000
0000
0000
;

//---------------dance-single - ----------------
#NOTES:
     dance-single:
     :
     Easy:
     3:
     0.282,0.331,0.158,0.168,0.000: // measure 1
0000
0000
0000
0000
,  // measure 2
0000
0000
0000
0000
,  // measure 3
0000
0000
0000
0000
,  // measure 4
0000
0000
0000
0000
,  // measure 5
1000
0010
2000
3000
,  // measure 6
0001
0001
1000
1000
,  // measure 7
0010
0100
0010
0100
,  // measure 8
0002
0000
1000
1003
,  // measure 9
0010
0100
0002
0000
,  // measure 10
1003
1000
0001
0001
,  // measure 11
0010
0000
0100
0000
,  // measure 12
1001
0000
0011
0000
,  // measure 13
0100
0000
0000
0200
0000
0000
0000
0000
,  // measure 14
0300
0000
0010
1000
,  // measure 15
0010
0000
1000
0001
,  // measure 16
0100
0000
0001
0100
,  // measure 17
1000
0000
0000
2000
0000
0000
0000
0000
,  // measure 18
3000
0000
0010
0010
,  // measure 19
0100
0000
1000
0001
,  // measure 20
1000
0000
0010
0010
,  // measure 21
1001
1000
0010
0100
,  // measure 22
0001
0100
0010
1000
,  // measure 23
0002
0000
0003
0000
,  // measure 24
2001
0000
3000
0000
,  // measure 25
0100
1000
0001
1000
,  // measure 26
0010
0010
0001
0100
,  // measure 27
0002
0000
0000
0000
0000
0000
0003
1000
,  // measure 28
0000
0000
0000
0001
0000
1000
0000
0000
,  // measure 29
0010
0000
1001
0000
,  // measure 30
0010
1000
0010
1000
,  // measure 31
0100
0000
0101
0000
,  // measure 32
0001
0000
1000
0010
,  // measure 33
1001
0000
0100
0000
,  // measure 34
0010
0100
0001
1000
,  // measure 35
0002
0000
1000
1003
,  // measure 36
2000
3010
0200
0301
,  // measure 37
0100
0000
1001
0000
,  // measure 38
0100
0001
0100
0001
,  // measure 39
0010
0000
1010
0000
,  // measure 40
1000
0000
0001
0100
,  // measure 41
1001
0000
0010
0000
,  // measure 42
0100
0010
1000
0001
,  // measure 43
2000
0000
0001
3001
,  // measure 44
0002
0103
0020
1030
,  // measure 45
0001
0100
0002
0003
,  // measure 46
1000
1000
0001
0001
,  // measure 47
0100
0010
0100
0010
,  // measure 48
2000
0000
0001
3001
,  // measure 49
0100
0010
2000
0000
,  // measure 50
3001
0001
1000
1000
,  // measure 51
0100
0000
0010
0000
,  // measure 52
1001
0000
1100
0000
,  // measure 53
0010
0000
0010
0000
,  // measure 54
0010
0010
0010
0000
,  // measure 55
0100
0100
0100
0000
,  // measure 56
0100
0100
0100
0000
,  // measure 57
0001
0001
0001
0000
,  // measure 58
1000
1000
1000
0000
,  // measure 59
0001
1000
1001
0000
,  // measure 60
1000
0001
1001
0000
,  // measure 61
0010
0100
1001
0000
,  // measure 62
1001
0000
0000
0000
;
