#TITLE:Crazy Information;
#SUBTITLE:;
#ARTIST:Paul Harris;
#TITLETRANSLIT:;
#SUBTITLETRANSLIT:;
#ARTISTTRANSLIT:;
#CREDIT:;
#BANNER:Crazy Information-bn0.png;
#BACKGROUND:Crazy Information-bg.png;
#LYRICSPATH:;
#CDTITLE:Super Eurobeat 232.png;
#MUSIC:Crazy Information.mp3;
#OFFSET:-6.736;
#SAMPLESTART:56.250;
#SAMPLELENGTH:12.000;
#SELECTABLE:YES;
#BPMS:0.000=155.010,224.000=77.505;
#STOPS:;
#BGCHANGES:;

//---------------dance-single - ----------------
#NOTES:
     dance-single:
     :
     Hard:
     8:
     0.610,0.799,0.267,0.506,0.152: // measure 1
1000
0010
1000
0010
2000
0000
3001
1000
,  // measure 2
0100
0000
0100
1000
0010
1000
0010
0000
,  // measure 3
0100
0001
0100
0010
0100
0001
0100
0010
,  // measure 4
0200
0302
2003
3100
,  // measure 5
0100
1000
0010
1000
0100
0000
0100
1000
,  // measure 6
0010
0100
0001
0010
0001
0000
0100
0000
,  // measure 7
0022
0033
2200
3300
,  // measure 8
0220
0330
2002
3003
,  // measure 9
0010
0000
1000
0100
0000
0000
1000
0000
0010
0000
0100
0010
0000
0000
0001
0000
,  // measure 10
1000
0000
0001
1000
0000
0000
0100
0000
1000
0000
0100
1000
0000
0000
0010
0000
,  // measure 11
0100
0000
0001
0100
0000
0000
0001
0000
0100
0000
0010
0100
0000
0000
0001
0000
,  // measure 12
2000
3020
0230
0302
,  // measure 13
1003
0000
0001
1000
0000
0000
0100
0000
1000
0000
0010
1000
0000
0000
0100
0000
,  // measure 14
1000
0000
0010
1000
0000
0000
0100
0000
1000
0000
0010
0100
0000
0000
0001
0000
,  // measure 15
0100
0000
0001
0100
0000
0000
0010
0000
0100
0000
0001
0100
0000
0000
0010
0000
,  // measure 16
1000
0000
0100
1000
0000
0000
0010
0000
0100
0000
0001
0000
1000
0000
0010
0000
,  // measure 17
2000
0000
0010
0000
0001
0000
3001
1000
,  // measure 18
0010
0100
0001
1000
0100
0010
0001
1000
,  // measure 19
0002
0000
0100
0000
1000
0000
1003
0010
,  // measure 20
0100
0001
0010
0100
1000
0001
1000
0010
,  // measure 21
2000
0000
3100
0000
1100
0000
0001
0100
,  // measure 22
0010
0000
0110
0000
0001
1000
0001
1000
,  // measure 23
0002
2003
3200
0320
,  // measure 24
0031
0010
0001
0010
0100
1000
0100
1000
,  // measure 25
0020
1000
0130
1010
,  // measure 26
0002
0100
1003
1001
,  // measure 27
0002
0013
0011
0100
,  // measure 28
1000
0000
0010
0100
0010
0100
0010
0000
,  // measure 29
0002
0010
0103
0110
,  // measure 30
0020
1000
0130
0110
,  // measure 31
0001
1000
0010
1000
0010
1000
0010
2000
,  // measure 32
0000
3002
0000
0203
0000
0320
0000
0030
,  // measure 33
0001
1000
0010
1000
0010
0000
0110
0000
,  // measure 34
0001
0100
0001
0100
0010
1000
0100
0010
,  // measure 35
0001
0100
0001
0000
0010
0100
0010
0000
,  // measure 36
0020
0130
0110
1001
,  // measure 37
0100
1000
0010
0100
0020
0000
0130
0000
,  // measure 38
0001
0100
0001
1000
0100
0010
0001
0000
,  // measure 39
0001
0100
0010
0100
0010
0100
0001
0100
,  // measure 40
0001
0100
0010
1000
0100
0010
0001
0000
,  // measure 41
1000
0001
0100
0001
0100
0000
0110
0000
,  // measure 42
1000
0010
1000
0010
0100
0001
0010
0100
,  // measure 43
1000
0010
1000
0000
0010
0100
0010
0000
,  // measure 44
0200
0310
0110
1001
,  // measure 45
0010
0001
0100
0010
0200
0000
0310
0000
,  // measure 46
1000
0010
1000
0001
0010
0100
1000
0000
,  // measure 47
1000
0000
0100
0020
0000
1030
0000
1010
,  // measure 48
0000
1010
0000
0101
0000
0101
0000
0001
,  // measure 49
1000
0000
0001
1000
0000
0000
0010
0000
1000
0000
0010
1000
0000
0000
0001
0000
,  // measure 50
1000
0000
0010
0100
0000
0000
0001
0000
0100
0000
0010
1000
0000
0000
0100
0000
,  // measure 51
1000
0000
0010
0100
0000
0000
0001
0000
0010
0000
0001
0010
0000
0000
0001
0000
,  // measure 52
0200
0000
0000
0000
0320
0000
0000
0000
2030
0000
0000
0000
0001
3000
0000
0000
,  // measure 53
0001
0000
1000
0100
0000
0000
1000
0000
0001
0000
0100
0001
0000
0000
1000
0000
,  // measure 54
0010
0000
0100
0010
0000
0000
1000
0000
0100
0000
0010
0100
0000
0000
1000
0000
,  // measure 55
0001
0000
0100
0010
0000
0000
0100
0000
0001
0000
1000
0010
0000
0000
1000
0000
,  // measure 56
0100
0000
1000
0010
0000
0000
0100
0000
0001
0000
1000
0010
0000
0000
0100
0000
,  // measure 57
0002
0000
2003
0000
3010
0000
1001
0000
0010
1000
0010
1000
0010
0000
1010
0000
,  // measure 58
0100
1000
0100
1000
0100
0000
1010
0000
0020
0000
0230
0000
0302
0000
0013
0000
,  // measure 59
0200
0000
2300
0000
3010
0000
1010
0000
0001
0100
0001
0100
0010
0000
0010
0000
,  // measure 60
0220
0330
2002
3003
0022
0033
2200
3300
;

//---------------dance-single - ----------------
#NOTES:
     dance-single:
     :
     Medium:
     6:
     0.423,0.412,0.276,0.285,0.000:
1000
0010
0100
0110
,
0001
0000
1000
0100
1000
0100
1000
0000
,
0001
0010
0100
1000
,
0002
0203
0320
2030
,
3010
0000
1000
0000
0001
0000
0010
0100
,
0010
0001
0010
0000
0100
0000
1000
0000
,
0020
0000
0200
0330
,
2002
3003
0220
0330
,
0010
0100
0010
0000
0001
1000
0001
0000
,
0100
0010
0100
0000
0100
0000
0011
0000
,
0001
1000
0001
0000
0010
1000
0010
0000
,
0002
2003
3200
0320
,
0031
0010
0001
0000
0001
0100
0001
0000
,
0100
0010
0100
0000
1010
0000
1100
0000
,
0001
1000
0001
0000
0010
0100
0010
0000
,
0001
1000
0001
0000
0100
0000
1000
0000
,
0020
0000
0000
0030
,
0010
0000
0100
0000
0001
0000
1000
0010
,
2000
0000
0000
3000
,
0001
0000
0100
0000
0010
0000
0010
1000
,
0100
0000
1010
0000
0101
0000
0001
1000
,
0100
0000
0010
0000
0100
0000
0001
0100
,
0001
0010
0100
1000
,
0010
1000
1001
0000
,
0001
1000
0010
1010
,
0100
0010
0001
0101
,
2002
3003
0020
0030
,
1000
0000
0000
0000
0010
1000
0010
0000
,
0200
1000
1300
1100
,
0002
0100
0103
0101
,
0010
0000
1000
0000
0100
0000
0010
1000
,
0000
0001
0000
0010
0000
0000
0000
0000
,
0001
1000
0010
1010
,
0100
1000
0100
0000
0010
0000
0100
0000
,
0001
1000
0100
0010
,
0011
0011
1100
1100
,
0010
0000
1000
0100
1000
0000
0010
0000
,
0001
1000
0100
1000
,
0010
0010
0100
0100
,
0010
0100
0010
0000
0100
0010
0100
0000
,
1000
0001
0100
0101
,
0010
0001
0010
0000
0100
0000
0010
0000
,
1000
0001
0010
0100
,
1100
1100
0011
0011
,
0100
0000
0001
0010
0001
0000
0100
0000
,
1000
0001
0010
0001
,
0001
0001
1000
1000
,
0001
1000
0001
0000
1000
0001
1000
0000
,
0001
1000
0001
0000
0100
0010
0100
0000
,
1000
0001
1000
0000
1000
0000
0101
0000
,
0100
0010
0100
0000
0001
0010
0001
0000
,
0200
0320
2030
3002
,
0103
0001
0100
0000
0100
1000
0100
0000
,
1000
0001
1000
0000
0011
0000
1010
0000
,
0100
0010
0100
0000
0001
1000
0001
0000
,
0100
0010
0100
0000
1000
0000
0010
0000
,
0002
0003
2000
3000
,
0020
0000
0030
0000
0010
0010
0010
0010
,
0200
0300
0002
0003
,
2001
3010
0110
1001
;

//---------------dance-single - ----------------
#NOTES:
     dance-single:
     :
     Easy:
     3:
     0.308,0.302,0.212,0.341,0.000:
1000
1000
1000
0000
,
0001
0001
0001
0000
,
0100
0100
0100
0000
,
0110
0000
1001
0000
,
0010
0010
0010
0000
,
0100
0100
0100
0000
,
2002
0000
3003
0000
,
0220
0000
0330
0000
,
0002
0003
2000
3000
,
0002
0000
1003
0001
,
2000
0000
3020
0000
,
0130
0010
0100
1001
,
0002
0003
2000
3000
,
0200
0300
0010
0001
,
1010
0000
0101
0000
,
1010
0000
0101
1000
,
0020
0000
0000
1030
,
0010
1000
0100
0010
,
0002
0000
0000
0003
,
1000
0010
0100
0001
,
0010
1001
0000
0100
,
0010
0101
0000
0100
,
1000
0001
0010
0100
,
0002
0000
0000
0003
,
2000
0000
3020
0000
,
0230
0000
0302
0003
,
1001
0000
0010
0000
,
1001
0000
0100
1000
,
0020
0000
0100
0130
,
0200
0000
0010
0310
,
0001
1000
0010
1000
,
0001
0000
0000
0000
,
1001
0001
1000
0001
,
1000
0010
0100
0000
,
0010
0100
0001
0010
,
0002
1003
2000
3001
,
0001
1000
0100
0110
,
0001
1000
0010
0000
,
0100
0100
0010
0010
,
1000
0001
1000
0001
,
0110
0100
0010
0100
,
0010
0001
1000
0000
,
0001
1000
0100
0001
,
0200
0310
0020
0130
,
0100
0010
1000
1001
,
0100
0010
0001
0000
,
1000
1000
0001
0001
,
0010
0100
0010
0100
,
0200
0300
0020
0030
,
0200
0000
0310
0100
,
0020
0000
2030
0000
,
3001
0001
1000
0110
,
0200
0300
0020
0030
,
2000
3000
0001
0100
,
0011
0000
1100
0000
,
0011
0000
1100
0010
,
0002
0000
1003
0000
,
0200
0000
0310
0010
,
0200
0000
0301
0000
,
0020
1000
0130
1001
;
