#TITLE:Crazy For Love;
#SUBTITLE:;
#ARTIST:Dusty;
#TITLETRANSLIT:;
#SUBTITLETRANSLIT:;
#ARTISTTRANSLIT:;
#CREDIT:;
#BANNER:Crazy For Love-bn.PNG;
#BACKGROUND:Crazy For Love-bg.PNG;
#LYRICSPATH:;
#CDTITLE:Euromach 6.png;
#MUSIC:Crazy For Love.mp3;
#OFFSET:-6.014;
#SAMPLESTART:41.564;
#SAMPLELENGTH:12.000;
#SELECTABLE:YES;
#BPMS:0.000=162.040,193.001=163.040,196.001=162.040;
#STOPS:93.500=0.741
,164.001=0.370
;
#BGCHANGES:;

//---------------dance-single - ----------------
#NOTES:
     dance-single:
     :
     Hard:
     9:
     0.674,0.611,0.522,0.311,0.169:
1000
0010
1000
0010
1000
0000
0001
0100
0001
0100
0002
0000
0003
0000
0000
0000
,
0010
0100
0001
0100
0010
1000
0001
0010
,
0001
0010
0001
0010
0001
0000
1000
0100
1000
0100
2000
0000
3000
0000
0000
0000
,
0010
1000
0001
0100
0010
1000
0001
0100
,
0010
0100
0010
0100
0010
0000
0100
0001
0100
0001
0200
0000
0300
0000
0000
0000
,
0001
1000
0100
0010
0100
1000
0001
0100
,
0010
0100
0010
0100
0010
0000
0100
0001
0100
0001
0200
0000
0300
0000
0000
0000
,
0001
0010
0100
1000
0010
1000
0010
0000
,
0001
0000
1000
0000
0010
0000
0100
0000
1010
0000
0000
0101
0000
0000
1001
0000
,
0000
0000
1000
0000
0010
0000
0100
0000
0101
0000
0000
1010
0000
0000
1001
0000
,
0000
0000
0010
0000
0100
0000
0001
0000
1000
0000
0000
0010
0000
0000
0100
0000
,
0000
0110
0000
1001
0000
0001
1001
0000
,
0001
0000
1000
0000
0010
0000
1000
0000
0010
0000
0000
1100
0000
0000
0011
0000
,
0000
0000
0010
0000
0001
0000
1000
0000
0100
0000
0000
0011
0000
0000
1100
0000
,
0000
0010
0100
0000
0001
0100
0101
0000
,
0001
1000
0000
1001
0000
1010
0000
0000
,
0002
0000
0010
0000
1003
0000
1000
0010
,
0200
0000
0001
0000
0310
0000
1000
0001
,
1001
0000
0010
1000
0100
0000
0010
0001
,
1000
0000
0010
0100
0001
0000
0101
0000
,
2000
0000
0010
0000
3001
0000
0001
1000
,
0010
0100
0001
1000
0100
0000
1000
0010
,
0101
0000
0001
0100
0010
1000
0001
0000
,
1000
0010
0100
1001
0001
1000
1001
0000
,
0010
1000
1010
0000
0010
0010
0100
0110
,
0000
0010
0101
0000
0100
0010
1000
0001
,
0010
0100
1000
0000
2000
0000
0010
0000
,
0001
0000
3010
0000
0010
1000
1010
0000
,
0001
0100
0101
0000
0001
0010
0100
0110
,
0000
0100
1001
0000
0100
1000
0001
1000
,
0010
0100
0001
0000
0200
0000
0001
0000
,
0010
0000
0301
0000
1000
0001
1001
0000
,
0100
0001
0101
0000
0100
0100
0010
0110
,
0000
0100
0110
0000
0010
0100
0001
1000
,
0100
0010
0001
0000
0002
0000
0100
0000
,
1000
0000
0103
0000
0100
0001
0101
0000
,
1000
0010
1010
0000
1000
0100
0010
0110
,
0000
0010
1001
0000
0010
0001
1000
0001
,
0100
0010
1000
0000
0020
0000
1000
0000
,
0100
0000
1030
0000
0002
0000
0000
2000
,
0003
3020
0200
0330
,
1001
0000
0000
0000
0001
0100
0001
0100
0001
0000
1000
0010
1000
0010
2000
0000
,
3000
0000
0100
0010
1000
0010
0100
0001
,
1000
0000
0100
0000
1000
0100
1000
0100
1000
0000
0001
0010
0001
0010
0002
0000
,
0003
0000
0100
0001
1000
0010
0100
0001
,
1000
0000
0010
0000
0100
0010
0100
0010
0100
0000
0010
1000
0010
1000
0020
0000
,
0030
0000
1000
0001
0010
0100
0010
0001
,
1000
0000
0010
0000
0100
0010
0100
0010
0100
0000
0010
1000
0010
1000
0020
0000
,
0030
0000
1000
0100
0010
0001
0100
0001
,
0100
0001
1000
0010
1010
0000
0001
0010
,
0011
0000
1000
0001
0100
1001
0000
0001
,
2000
0000
3002
0000
0203
0000
0310
1000
,
0002
0000
0203
0000
0320
0000
0130
0001
,
0010
0000
0100
1000
1100
0000
0001
0100
,
0101
0000
0010
0010
0100
1001
0000
0110
,
1001
0020
0100
0130
,
0100
0001
0020
0000
0001
0000
0031
0000
,
0001
1000
0010
0100
0101
0000
1000
0100
,
1100
0000
1000
0001
0100
0110
0000
1001
,
0110
0000
0100
0010
0100
0001
1000
0010
,
0100
0000
0002
0000
1003
0000
0010
0100
,
0110
0000
0010
1000
1010
0000
0001
0100
,
0101
0000
0001
1000
0100
1100
0000
0110
,
1001
0000
0001
0010
0100
1000
0001
0100
,
0010
2000
3001
0200
,
0310
0000
2000
0000
0000
3200
0000
0000
,
0320
0002
0033
1001
;

//---------------dance-single - ----------------
#NOTES:
     dance-single:
     :
     Medium:
     6:
     0.522,0.459,0.192,0.330,0.000: // measure 1
1000
1000
0001
1000
0001
0002
0000
0003
,  // measure 2
1000
0010
1000
0000
0001
0100
0001
0000
,  // measure 3
0100
0100
0010
0100
0010
0020
0000
0030
,  // measure 4
1000
0001
0100
0000
0010
1000
0001
0000
,  // measure 5
0001
0001
1000
0001
1000
2000
0000
3000
,  // measure 6
0001
1000
0010
0000
0100
0001
0100
0000
,  // measure 7
0001
0010
0010
0001
1000
2000
0000
3000
,  // measure 8
0010
0100
0001
0000
1000
0010
0100
0000
,  // measure 9
1000
0010
1000
0000
0101
0000
1010
0000
,  // measure 10
0001
0010
0001
0000
0011
0000
1100
0000
,  // measure 11
1000
0001
1000
0000
0010
0100
0010
0000
,  // measure 12
0020
0130
0002
1003
,  // measure 13
0001
1000
0001
0000
0011
0000
1100
0000
,  // measure 14
0001
1000
0001
0000
0101
0000
1010
0000
,  // measure 15
0010
0100
0010
0000
1000
0001
1000
0000
,  // measure 16
0001
1000
0000
1001
0000
1010
0000
0000
,  // measure 17
0020
0000
1000
0000
1030
0000
1000
0001
,  // measure 18
2000
0000
0001
0000
3001
0000
0100
0001
,  // measure 19
0010
0000
0001
0010
0001
0000
0010
0100
,  // measure 20
0010
0000
0001
0010
0001
0000
1000
0000
,  // measure 21
0020
0000
0100
0000
1030
0000
1000
0010
,  // measure 22
2000
0000
0001
0000
3010
0000
0001
0100
,  // measure 23
0010
1000
0001
0100
,  // measure 24
0010
0100
0010
0100
0010
0010
0010
0000
,  // measure 25
0100
0100
0100
0000
0010
0010
0100
1001
,  // measure 26
0000
0000
1000
0000
0001
1000
0010
0000
,  // measure 27
1000
0010
1000
0000
0020
0000
0100
0130
,  // measure 28
0000
0000
0000
0000
0001
0001
0001
0000
,  // measure 29
1000
1000
1000
0000
0001
0001
1000
1001
,  // measure 30
0000
0001
1000
0000
0001
0000
1000
0000
,  // measure 31
0010
0100
0200
0301
,  // measure 32
0002
0000
1003
0000
0100
0100
0100
0000
,  // measure 33
0010
0010
0010
0000
0100
0100
0010
1001
,  // measure 34
0000
0000
0001
0000
1000
0001
0100
0000
,  // measure 35
0001
0100
0001
0000
0200
0000
0010
0310
,  // measure 36
0000
0000
0000
0000
1000
1000
1000
0000
,  // measure 37
0001
0001
0001
0000
1000
1000
0001
1001
,  // measure 38
0000
1000
0001
0000
1000
0000
0001
0000
,  // measure 39
0100
0010
0020
1030
,  // measure 40
2000
0000
3001
0000
2001
0000
0000
3010
,  // measure 41
0000
0002
1003
0000
,  // measure 42
1001
0000
0010
0010
0100
0010
0100
0200
,  // measure 43
0000
0300
0001
0010
0001
0000
0100
0001
,  // measure 44
1000
0000
1000
1000
0001
1000
0001
0002
,  // measure 45
0000
0003
0010
0100
1000
0000
0001
0010
,  // measure 46
0100
0000
0100
0100
0010
0100
0010
0020
,  // measure 47
0000
0030
0100
0010
0001
0000
1000
0100
,  // measure 48
1000
0000
0100
1000
1000
0001
0010
0020
,  // measure 49
0000
0030
0001
1000
0100
0000
0010
0001
,  // measure 50
1000
0000
0001
0001
0001
0000
1000
1000
,  // measure 51
1000
0000
0001
0001
1000
0110
0000
0000
,  // measure 52
2000
3002
0203
0302
,  // measure 53
0023
0000
0032
0000
0000
1003
0000
0000
,  // measure 54
0000
0000
0100
0100
0100
0000
0010
0010
,  // measure 55
0010
0000
0100
0100
0010
0110
0000
0100
,  // measure 56
0010
0200
0010
0001
,  // measure 57
0310
0020
1000
0100
,  // measure 58
1030
0000
0001
0001
0001
0000
1000
1000
,  // measure 59
1000
0000
0100
0100
1000
0011
0000
0000
,  // measure 60
0010
0000
0001
0010
0100
0000
0010
0100
,  // measure 61
0010
0000
0200
0000
1000
1300
0000
0000
,  // measure 62
0000
0000
0001
0001
0001
0000
1000
1000
,  // measure 63
1000
0000
0001
0001
0010
0011
0000
0001
,  // measure 64
1000
0001
0010
0100
,  // measure 65
1000
2000
3001
0002
,  // measure 66
0013
0000
2000
0000
0000
3010
0000
0000
,  // measure 67
0200
0002
0303
1001
;

//---------------dance-single - ----------------
#NOTES:
     dance-single:
     :
     Easy:
     4:
     0.343,0.336,0.156,0.174,0.000: // measure 1
0001
0001
1000
1000
,  // measure 2
0010
0100
0001
0010
,  // measure 3
0001
1000
0010
1000
,  // measure 4
0001
0100
0001
1000
,  // measure 5
0001
0010
0001
0010
,  // measure 6
0100
1000
0001
1000
,  // measure 7
1000
0010
1000
0010
,  // measure 8
0100
0001
1000
0010
,  // measure 9
1000
0010
1001
0000
,  // measure 10
0001
0100
0101
0000
,  // measure 11
1000
1000
0001
0001
,  // measure 12
0020
0000
0031
0000
,  // measure 13
0001
1000
1010
0000
,  // measure 14
0001
0100
0101
0000
,  // measure 15
1000
0001
0010
0110
,  // measure 16
1000
0000
0001
0000
,  // measure 17
2000
0010
3001
0001
,  // measure 18
2000
0010
3100
0001
,  // measure 19
1000
0010
0100
1000
,  // measure 20
0010
1000
0100
0010
,  // measure 21
0002
0010
0103
1000
,  // measure 22
0002
0010
0103
1000
,  // measure 23
0001
1000
0010
1000
,  // measure 24
1001
0000
0000
1001
0001
0000
0001
0000
,  // measure 25
1000
1000
0001
1000
,  // measure 26
1001
0000
0010
0010
,  // measure 27
0100
0100
0020
0000
,  // measure 28
0130
0000
0001
0001
,  // measure 29
1000
1000
0010
0100
,  // measure 30
0110
0000
0001
0001
,  // measure 31
1000
0010
2000
0000
,  // measure 32
3001
0000
1000
1000
,  // measure 33
0001
0001
1000
0001
,  // measure 34
1001
0000
0010
0010
,  // measure 35
0001
0100
0010
0000
,  // measure 36
0100
0000
0010
0010
,  // measure 37
0100
0100
0001
1000
,  // measure 38
1001
0000
1000
0001
,  // measure 39
0010
0100
2000
0000
,  // measure 40
3002
0003
2000
0000
,  // measure 41
0000
0000
3001
0000
,  // measure 42
1001
1000
1000
0001
,  // measure 43
0001
0100
0010
1000
,  // measure 44
0100
1000
0001
0100
,  // measure 45
0001
1000
0010
1000
,  // measure 46
0001
1000
0100
1000
,  // measure 47
0100
0010
0001
1000
,  // measure 48
0001
0001
0100
0001
,  // measure 49
0100
0010
1000
0001
,  // measure 50
0100
0001
0001
1000
,  // measure 51
1000
0010
1000
1010
,  // measure 52
2000
0000
3002
0000
,  // measure 53
0103
0020
0000
0230
,  // measure 54
0300
0010
0010
0100
,  // measure 55
0100
0010
0100
0110
,  // measure 56
0001
0002
0000
1003
,  // measure 57
0000
0020
0000
0130
,  // measure 58
0000
0100
0010
1000
,  // measure 59
0001
0010
0100
1100
,  // measure 60
0000
1000
1000
0001
,  // measure 61
0001
2000
0000
3001
,  // measure 62
0000
0010
0001
0010
,  // measure 63
0100
1000
0010
1001
,  // measure 64
0000
0001
0001
1000
,  // measure 65
1000
0020
0000
0130
,  // measure 66
0000
2000
0000
0000
,  // measure 67
0000
3001
0000
1001
;
