#TITLE:Chemical Love;
#SUBTITLE:;
#ARTIST:Kevin & Cherry;
#TITLETRANSLIT:;
#SUBTITLETRANSLIT:;
#ARTISTTRANSLIT:;
#CREDIT:;
#BANNER:Chemical Love-bn.png;
#BACKGROUND:Chemical Love-bg.png;
#LYRICSPATH:;
#CDTITLE:cdtitle.png;
#MUSIC:Chemical Love.ogg;
#OFFSET:-9.291;
#SAMPLESTART:73.250;
#SAMPLELENGTH:12.000;
#SELECTABLE:YES;
#BPMS:0.000=165.020;
#STOPS:;
#BGCHANGES:;

//---------------dance-single - ----------------
#NOTES:
     dance-single:
     :
     Hard:
     8:
     0.588,0.518,0.375,0.294,0.013: // measure 1
2000
3010
0200
0301
,  // measure 2
1000
0001
1000
0010
1000
0001
1000
0000
,  // measure 3
0002
0103
0020
0130
,  // measure 4
0001
0100
0001
1000
0001
0100
0001
0000
,  // measure 5
1001
0000
0001
0100
0001
0000
1000
0010
,  // measure 6
1000
0000
0001
0100
0010
0000
0010
0100
,  // measure 7
0001
0000
1000
0010
0100
0000
1001
0000
,  // measure 8
0010
1000
0010
1000
0001
0100
0010
0000
,  // measure 9
1001
0000
0001
1000
0002
0000
0103
0010
,  // measure 10
0200
0000
0301
1000
0020
0000
0130
0001
,  // measure 11
1000
1001
0100
1001
,  // measure 12
2000
0000
0000
0000
3000
0010
0100
0010
,  // measure 13
1001
0000
0100
1000
0100
0010
0001
1000
,  // measure 14
0100
0010
0000
1001
0000
0100
0010
1000
,  // measure 15
0002
0000
0103
0001
0100
0010
1000
0001
,  // measure 16
0010
0001
0000
1001
0000
0100
0010
0100
,  // measure 17
1001
0000
0001
0100
0010
1000
0010
0100
,  // measure 18
0001
0100
0000
0101
0000
0001
0010
0100
,  // measure 19
2000
0000
3001
0010
0100
1000
0001
1000
,  // measure 20
0001
0010
0000
1001
0000
0010
0100
0001
,  // measure 21
1000
0010
1000
1002
,  // measure 22
0103
0000
1000
0001
1000
0100
0010
0100
,  // measure 23
0020
0000
0031
0000
0010
0000
0100
1000
,  // measure 24
0100
0000
1001
0000
0001
0010
0100
1000
,  // measure 25
0100
0000
1000
0000
0020
0000
0130
0010
,  // measure 26
0100
0000
0110
0000
0001
1000
0001
1000
,  // measure 27
0000
0020
0000
0130
0000
0001
0100
0010
,  // measure 28
1000
0000
1000
0010
0100
0000
1001
0000
,  // measure 29
0010
0000
0000
1000
0000
0000
0001
0000
1000
0000
0000
0000
0002
0000
0000
0000
,  // measure 30
2003
0000
3100
0010
0100
1000
0001
1000
,  // measure 31
0001
0000
0000
0100
0000
0000
0010
0000
2000
0000
0000
0000
3001
0000
0000
0000
,  // measure 32
1000
0000
0001
0100
0010
0100
0001
1000
,  // measure 33
0001
0000
0000
0010
0000
0000
0100
0000
1000
0000
0000
0000
0001
0000
0100
0000
,  // measure 34
0010
0000
0100
0001
1000
0001
0010
0001
,  // measure 35
0000
0101
0000
0001
1000
0000
0001
0010
,  // measure 36
0100
0000
0010
0001
0010
0000
0001
0100
,  // measure 37
0000
0010
1000
0000
0001
1000
0010
0100
,  // measure 38
0010
1000
0000
1010
0000
1001
0000
0102
,  // measure 39
0000
1000
1000
1003
,  // measure 40
1000
0010
0100
0000
0001
0100
0001
1000
,  // measure 41
0000
0001
0010
0000
0100
1000
0000
1001
,  // measure 42
0000
1000
0001
0100
0000
0001
0100
0020
,  // measure 43
0000
0000
1030
0002
0000
1000
0000
2003
,  // measure 44
0000
0100
0100
3100
,  // measure 45
1001
0000
0100
1001
0000
0110
0000
0100
,  // measure 46
0000
0001
0200
0000
0301
0000
0101
0000
,  // measure 47
1010
0000
0100
1001
0000
0100
0000
2000
,  // measure 48
0000
3001
0010
0100
0000
1000
0100
0010
,  // measure 49
0001
0000
1000
0001
0000
0100
0000
0110
,  // measure 50
0000
1000
0001
0000
2000
0000
3001
0100
,  // measure 51
0001
0100
0001
1000
0001
1000
0100
0000
,  // measure 52
0010
1000
0001
1000
0000
1001
0000
0001
,  // measure 53
1001
0000
0010
1001
0000
0110
0000
0010
,  // measure 54
0000
1000
0020
0000
1030
0000
1010
0000
,  // measure 55
0101
0000
0010
1001
0000
0010
0000
0002
,  // measure 56
0000
1003
0100
0010
0000
0001
0010
0100
,  // measure 57
1000
0000
0001
1000
0000
0010
0000
0110
,  // measure 58
0000
0001
1000
0000
0002
0000
1003
0020
,  // measure 59
0000
0130
0001
1000
0000
0010
0100
0002
,  // measure 60
0000
1003
0100
0010
0000
0001
0100
0010
,  // measure 61
1001
0000
0010
0001
0010
0100
1000
0001
,  // measure 62
0010
0100
0000
1001
0000
0010
0100
0001
,  // measure 63
2000
0000
3010
1000
0010
0100
0001
1000
,  // measure 64
0100
1000
0000
1001
0000
0010
0100
0010
,  // measure 65
1001
0000
1000
0010
0100
0001
0100
0010
,  // measure 66
1000
0010
0000
1010
0000
1000
0100
0010
,  // measure 67
0002
0000
1003
0100
0010
0001
1000
0001
,  // measure 68
1000
0100
0000
1001
0000
0100
0010
1000
,  // measure 69
2002
3003
0000
0000
;

//---------------dance-single - ----------------
#NOTES:
     dance-single:
     :
     Medium:
     5:
     0.439,0.457,0.143,0.312,0.000:
2000
3001
0002
1003
,
0001
1000
0001
1000
,
0020
0130
0200
0310
,
2002
0000
0000
3003
,
0001
0001
0001
0001
,
1000
0010
1000
0000
0001
0100
0001
0000
,
0100
0100
0100
0100
,
0200
0310
0020
0130
,
0100
0010
0100
0010
,
0100
0010
0100
0000
0001
1000
0001
0000
,
1000
0001
1000
0001
,
2000
0000
0000
3000
,
1010
0000
1000
0010
1000
0010
0001
0000
,
0002
0000
1000
0003
2000
0000
3010
0000
,
0110
0000
0010
0100
0010
0100
0010
0000
,
0010
0000
0010
0000
0001
1000
0001
0000
,
1001
0000
0001
0100
0001
0010
0100
0000
,
0020
0130
0200
0310
,
1001
0000
0001
0010
0100
0010
0001
0000
,
0002
1003
2000
3010
,
2010
0010
3001
0100
,
0200
0000
0310
0000
0010
1000
0010
0000
,
0002
0013
0100
1000
,
0020
0000
1030
0000
0100
1000
0100
0000
,
0002
0103
0200
0310
,
0020
1030
0010
1000
,
0010
0100
0001
0010
,
0100
0010
0100
0000
1001
0000
0110
0000
,
1010
0000
0001
1000
0001
0000
0010
0000
,
0100
0000
0001
0000
0100
0001
0100
0000
,
0010
0100
0010
0001
,
0002
0000
1003
0000
0100
1000
0100
0000
,
0100
0000
0010
0000
0001
0000
0010
0100
,
0010
0010
0001
1000
,
2000
0000
3002
0000
,
1003
0000
0001
1000
0001
0000
0001
0100
,
0010
0010
0010
0010
,
0100
0100
0100
0100
,
0002
1003
2000
3001
,
1001
0000
0000
0000
1000
0001
1000
0000
,
0010
1000
0100
0010
,
0100
0000
0001
0100
1000
0000
0001
0010
,
0000
0000
0000
0010
0000
0000
0000
1000
,
0000
0000
0000
0001
0000
0000
0000
0000
,
1001
0000
0100
1000
0000
0001
0000
0100
,
0000
0001
0100
0000
0010
0000
0000
0000
,
0100
0000
1000
0100
0000
1000
0000
0001
,
0000
0100
0010
0100
0000
0001
0000
0000
,
1000
0000
0001
0010
0000
0100
0000
1000
,
0000
0010
0100
0000
0010
0000
0000
0000
,
0001
0001
0001
1000
,
1000
1000
0001
0100
,
0010
0000
0100
0010
0000
0100
0000
0010
,
0000
0100
0010
0000
0100
0000
0001
0000
,
0001
0000
1000
0100
0000
1000
0000
0100
,
0000
1000
0010
1000
0000
0001
0000
0000
,
0100
0000
0010
0100
0000
0001
0000
1000
,
0000
0100
1000
0000
0001
0000
1000
0000
,
0100
0100
0100
0000
,
0010
0010
0010
0000
,
0110
0000
0010
0100
0010
0100
1000
0000
,
2000
0000
0010
3000
0020
0000
0130
0000
,
0101
0000
0100
0001
0100
0001
0100
0000
,
0100
0000
0100
0000
1000
0010
1000
0000
,
1010
0000
1000
0001
1000
0100
0001
0000
,
0200
0301
0002
0103
,
1010
0000
1000
0100
0001
0100
1000
0000
,
2000
0000
0002
3003
,
2002
3003
0000
0000
;

//---------------dance-single - ----------------
#NOTES:
     dance-single:
     :
     Easy:
     3:
     0.251,0.244,0.071,0.116,0.000:
1000
0000
0001
0000
,
1000
0000
0001
0000
,
0010
0000
0100
0000
,
0110
0000
0000
0000
,
0001
0001
0001
0000
,
1000
1000
1000
0000
,
0100
0100
0100
0000
,
0010
0010
0010
0000
,
0001
1000
0001
1000
,
0001
0000
1000
0000
,
0010
0100
0010
0100
,
0010
0000
0000
0100
,
0110
0010
0100
0010
,
0001
0000
1000
0000
,
0001
1000
0010
0100
,
1000
0000
0001
0000
,
0100
0010
0001
1000
,
0001
0000
0010
0000
,
0100
0001
0010
0100
,
1000
0000
0001
0000
,
1000
0010
0100
0000
,
0000
0000
0001
0100
,
1000
0001
1000
0000
,
0000
0000
0010
0100
,
0001
1000
0010
0000
,
0000
0000
0001
0100
,
0010
0000
0100
0000
,
0010
0000
0110
0000
,
0001
1000
0010
0000
,
0000
0000
0001
0010
,
0100
1000
0010
0000
,
0000
0000
1000
0100
,
0010
0100
0001
1000
,
0010
0000
1000
0000
,
1001
0000
0100
0000
,
0010
0000
0100
0100
,
0100
0000
0010
0010
,
0010
0000
0100
0000
,
0110
0000
0001
0000
,
1000
0000
0001
1000
,
0001
0000
1000
0000
,
0001
0000
1000
0000
,
0020
0000
0000
0030
,
0200
0000
0000
0300
,
0110
0000
0010
0000
,
0100
0100
0200
0300
,
0001
0000
1000
0000
,
0001
1000
0002
0003
,
1000
0000
0010
0000
,
0100
1000
0020
0030
,
1000
0000
0001
0000
,
2000
0000
3002
0000
,
1003
0000
0001
0000
,
0100
0010
0200
0300
,
0001
0000
1000
0000
,
0001
0010
2000
3000
,
0001
0100
1000
0000
,
0001
0010
0100
0001
,
2000
0000
3010
0000
,
0200
0000
0310
0000
,
0110
0100
0010
0100
,
1000
0000
0001
0000
,
1000
0001
0100
0010
,
0001
0000
1000
0000
,
0010
0100
1000
0001
,
1000
0000
0100
0000
,
0010
1000
0100
0010
,
0001
0000
1000
0000
,
2002
3003
0000
0000
;

//---------------dance-single - ----------------
#NOTES:
     dance-single:
     :
     Beginner:
     1:
     0.133,0.213,0.036,0.152,0.000:
0010
0000
0000
0000
,
0000
0000
0000
0000
,
0100
0000
0000
0000
,
0000
0000
0000
0000
,
0001
0000
0000
0000
,
1000
0000
0000
0000
,
0001
0000
0000
0000
,
1000
0000
0000
0000
,
0010
0000
0000
0000
,
0100
0000
0000
0000
,
0010
0000
0000
0000
,
0000
0000
0000
0000
,
1001
0000
0000
0000
,
0100
0000
0000
0000
,
0010
0000
0000
0000
,
1000
0000
0001
0000
,
1000
0000
0000
0000
,
0100
0000
0000
0000
,
0010
0000
0000
0000
,
0001
0000
1000
0000
,
0200
0000
0300
0000
,
0000
0000
0000
0000
,
0020
0000
0030
0000
,
0000
0000
0000
0000
,
0200
0000
0300
0000
,
0000
0000
0020
0000
,
0030
0000
0000
0000
,
0000
0000
1000
0001
,
2000
0000
3000
0000
,
0000
0000
0000
0000
,
0002
0000
0003
0000
,
0000
0000
0000
0000
,
2000
0000
3000
0000
,
0000
0000
0000
0000
,
0002
0000
0003
0000
,
1000
0000
0001
0000
,
1000
0000
0000
0000
,
0001
0000
0000
0000
,
0100
0000
0010
0000
,
0100
0100
0100
0000
,
1000
0000
0000
0000
,
0001
0000
0000
0000
,
0010
0000
0100
0000
,
0010
0010
0010
0000
,
1001
0000
0000
0000
,
0100
0100
0100
0000
,
0010
0000
0100
0000
,
0010
0000
2000
0000
,
3001
0000
0002
0000
,
1003
0000
0200
0000
,
0310
0000
0020
0000
,
0130
0000
0001
0000
,
1001
0000
0000
0000
,
0100
0100
0100
0000
,
0010
0000
0000
0000
,
0001
0000
1000
0000
,
0200
0000
0000
0300
,
0020
0000
0000
0030
,
2000
0000
0000
3000
,
0002
0000
0000
0003
,
1001
0000
0000
0000
,
0010
0000
0000
0000
,
0100
0000
0000
0000
,
0001
0000
1000
0000
,
0001
0000
0000
0000
,
0010
0000
0000
0000
,
0100
0000
0000
0000
,
1000
0000
0001
0000
,
2000
3000
0000
0000
;
