#TITLE:Cat's Eye;
#SUBTITLE:;
#ARTIST:杏里;
#TITLETRANSLIT:;
#SUBTITLETRANSLIT:;
#ARTISTTRANSLIT:Anri;
#CREDIT:;
#BANNER:Cat's Eye-bn.png;
#BACKGROUND:Cat's Eye-bg.png;
#LYRICSPATH:;
#CDTITLE:cd.png;
#MUSIC:Cat's Eye.mp3;
#OFFSET:-8.883;
#SAMPLESTART:48.330;
#SAMPLELENGTH:12.000;
#SELECTABLE:YES;
#BPMS:0.000=145.060;
#STOPS:187.000=0.015
;
#BGCHANGES:;

//---------------dance-single - ----------------
#NOTES:
     dance-single:
     :
     Hard:
     7:
     0.492,0.504,0.238,0.348,0.032:
0002
1000
0100
1003
,
2000
0001
0010
3001
,
1000
0010
0100
0002
0000
0000
0103
0000
,
0010
1000
0001
0020
0000
0000
0130
0000
,
1000
0010
0100
0002
0000
0000
0013
0000
,
0100
0010
0001
0200
0000
0000
0310
0000
,
2000
0001
0010
3001
,
0001
1000
0010
0100
0001
0010
0100
1000
,
0020
1000
0100
1030
,
1000
0010
0100
0001
1000
0100
0010
0000
,
0002
0100
0100
0103
,
0010
0100
0001
1000
0010
0100
0001
0000
,
2000
0001
0001
3001
,
1000
0001
1000
0000
0100
0010
0100
0000
,
1001
0000
0110
0000
1000
0001
1001
0000
,
0010
0000
0010
0020
0000
0100
0130
0000
,
0001
0000
1000
2000
0000
0001
3001
1000
,
0010
0000
1000
2000
0000
3010
0100
0001
,
2000
0000
3010
0000
0100
0001
1001
0000
,
1000
0000
0100
0200
0000
1000
1300
0000
,
1000
0000
0001
0002
0000
0100
0103
0000
,
0010
0100
0010
0000
1000
0001
1000
0000
,
0001
0100
0010
0100
0001
0100
0010
1000
,
0010
0000
0000
1001
0000
0000
0100
0000
2002
0000
0000
0000
3003
0000
0001
0000
,
1000
0010
1000
0100
0010
1001
0000
0001
,
1000
0100
0010
0001
1000
1001
0000
0010
,
1000
0001
0100
0010
1000
0001
0100
0010
,
2000
0000
0100
0000
3010
1000
1010
0000
,
0010
0100
0001
1000
0010
1010
0000
0010
,
1000
0100
0010
0001
0010
0011
0000
0001
,
0010
0100
1000
0001
0100
0010
1000
0001
,
2000
3001
1000
0010
,
2002
0000
0000
0000
0000
3003
0000
0000
,
1001
0000
0001
0001
,
1000
0001
1000
0001
0000
1000
0010
1000
,
0001
0100
0010
1000
0000
0010
0100
0001
,
2000
0000
0000
0000
,
3002
0000
0000
0000
,
2003
0000
0000
3000
,
1001
0110
1001
0110
,
1002
0000
1003
0000
1000
0001
1000
0001
,
2000
0000
3010
0000
0100
0001
1000
0000
,
0001
0000
0010
0001
0010
0000
0002
0000
0000
0000
1003
0000
0001
0000
1000
0000
,
0001
0000
1000
0100
1000
0000
0020
0000
0000
0000
1030
0000
0001
0000
0100
0000
,
0010
0000
1000
0001
1000
0000
0200
0000
0000
0000
0310
0000
0100
0000
0001
0000
,
1000
0000
0001
0010
0001
0000
0200
0000
0000
0000
0301
0000
1000
0000
0010
0000
,
0100
0000
0000
0100
0000
0000
0100
0010
0200
0000
0000
0000
0300
0000
0000
0000
,
0001
0100
0001
0010
0100
1001
0000
1000
,
0001
0010
0100
1000
0001
1001
0000
0100
,
0001
1000
0010
0100
0001
1000
0010
0100
,
0002
0000
0010
0000
0103
0001
0101
0000
,
0100
0010
1000
0001
0100
0101
0000
0100
,
0001
0010
0100
1000
0100
1100
0000
1000
,
0100
0010
0001
1000
0010
0100
0001
1000
,
0002
1003
0001
0100
,
2002
0000
0000
0000
0000
3003
0000
0000
,
1001
0000
0001
0001
,
2002
0000
0000
0000
,
3003
0000
0000
0000
;

//---------------dance-single - ----------------
#NOTES:
     dance-single:
     :
     Easy:
     3:
     0.229,0.292,0.082,0.192,0.000: // measure 1
1000
0000
0002
0003
,  // measure 2
2000
0000
3020
0030
,  // measure 3
0200
0000
0302
0000
,  // measure 4
2003
0000
3020
0000
,  // measure 5
0230
0000
0302
0000
,  // measure 6
0023
0030
0200
0000
,  // measure 7
1300
0000
0001
0000
,  // measure 8
1000
0010
0100
0000
,  // measure 9
0001
0000
0020
0030
,  // measure 10
0100
1000
0010
0000
,  // measure 11
0100
0000
0010
0000
,  // measure 12
0100
0010
0100
0000
,  // measure 13
0001
0000
1000
0000
,  // measure 14
0001
1000
0001
0000
,  // measure 15
1000
1010
0000
0000
,  // measure 16
0100
0000
0100
0000
,  // measure 17
0010
0000
0010
0000
,  // measure 18
0100
0000
0100
0000
,  // measure 19
0001
1000
0001
0000
,  // measure 20
0010
0000
0010
0000
,  // measure 21
0001
0000
0001
0000
,  // measure 22
1000
0001
1000
0001
,  // measure 23
1000
0000
0010
0000
,  // measure 24
1001
0000
0000
0000
,  // measure 25
1000
1000
1000
0000
,  // measure 26
0001
0001
0001
0000
,  // measure 27
0100
0100
0010
0010
,  // measure 28
0200
0000
0310
0000
,  // measure 29
1000
0001
1000
0000
,  // measure 30
0001
1000
0001
0000
,  // measure 31
0010
0010
0100
0100
,  // measure 32
2000
3001
0001
1000
,  // measure 33
1001
0000
0000
0000
,  // measure 34
1001
0000
0000
0000
,  // measure 35
1000
0010
1000
0000
,  // measure 36
0001
0100
0001
0000
,  // measure 37
2002
0000
3003
0000
,  // measure 38
0020
0000
0000
0030
,  // measure 39
0200
0000
0000
0000
,  // measure 40
0010
0010
0010
0310
,  // measure 41
0010
0100
0010
0000
,  // measure 42
0100
0001
0100
0000
,  // measure 43
0010
1000
0010
0000
,  // measure 44
0100
0001
0100
0000
,  // measure 45
0010
1000
0100
0000
,  // measure 46
0010
0001
0100
0000
,  // measure 47
0010
0000
1001
0000
,  // measure 48
1000
0001
1000
0000
,  // measure 49
0010
0100
0001
0000
,  // measure 50
1000
0001
0010
0100
,  // measure 51
2000
0000
3001
0000
,  // measure 52
0001
1000
0010
0000
,  // measure 53
0010
1000
0100
0000
,  // measure 54
0100
0010
0001
0010
,  // measure 55
0100
1000
0010
0100
,  // measure 56
1001
0000
0000
0000
,  // measure 57
1001
0000
0001
0000
,  // measure 58
2002
0000
0000
0000
,  // measure 59
3003
0000
0000
0000
;

//---------------dance-single - ----------------
#NOTES:
     dance-single:
     :
     Medium:
     5:
     0.341,0.345,0.092,0.275,0.000:
2000
3010
0200
0301
,
0020
1030
0200
0301
,
2000
0001
0010
3001
,
0002
1000
0100
1003
,
1000
0010
1000
0000
0010
0000
1000
0000
,
0001
0100
0001
0000
0100
0000
0010
0000
,
1000
0001
0020
0000
0001
0000
0031
0000
,
0001
0010
0001
0000
1000
0010
1000
0000
,
0200
0000
1000
0000
1300
0000
1000
0100
,
1000
0000
0001
0100
0001
0000
0011
0000
,
0100
0010
2000
0000
0010
0000
3010
0000
,
0010
1000
0010
0000
0100
1000
0100
0000
,
0002
0000
0100
0000
0103
0000
0100
0001
,
0100
0000
0010
0001
0010
0000
1010
0000
,
0002
2000
3003
0000
,
1000
1000
2000
3000
,
0001
0001
0002
0003
,
0100
0100
0200
0300
,
0010
0010
0020
0030
,
0010
0000
1000
0010
0000
0000
0100
0000
,
0001
0000
0100
0001
0000
0000
1000
0000
,
0001
1000
0010
0100
,
0010
1000
0010
0000
0100
0001
0100
0000
,
0001
1000
1001
0000
,
0001
0000
1000
0000
0010
1000
0000
0100
,
0000
0000
0001
0000
0100
0001
0000
0000
,
1000
0010
0100
0001
,
2000
0001
0001
3001
,
0001
0000
1000
0000
0010
1000
0000
0010
,
0000
0000
0100
0000
0010
0100
0000
0000
,
0001
0000
0100
0000
0010
0000
1000
0010
,
1000
0100
0010
0100
,
2002
0000
0000
3003
,
1001
0000
0001
0001
,
1000
0000
0000
0010
0000
0000
1000
0000
,
0010
0000
0000
0100
0000
0000
0010
0000
,
0200
0000
0000
0300
,
0020
0000
0000
0030
,
2000
0000
0000
3000
,
0001
0001
0001
1001
,
2000
3001
0001
1000
,
2000
3010
0200
0310
,
0001
1000
0001
1000
0000
0000
0001
0000
,
1000
0001
1000
0001
0000
0000
1000
0000
,
0010
0100
0010
0100
0000
0000
0010
0000
,
0100
0010
0100
0010
0000
0000
0100
0000
,
0010
0000
1001
0000
,
1000
0000
0001
0000
0100
0001
0000
0010
,
0000
0000
1000
0000
0010
1000
0000
0000
,
0001
0100
0010
1000
,
0002
1000
1000
1003
,
1000
0000
0001
0000
0100
0001
0000
0100
,
0000
0000
0010
0000
0100
0010
0000
0000
,
1000
0000
0010
0000
0100
0000
0001
0100
,
0001
0010
0100
0010
,
2002
0000
0000
3003
,
1001
0000
1000
1000
,
2002
0000
0000
0000
,
3003
0000
0000
0000
;
