#TITLE:CANDY☆;
#SUBTITLE:(From Nonstop Megamix);
#ARTIST:Luv UNLIMITED;
#TITLETRANSLIT:Candy;
#SUBTITLETRANSLIT:;
#ARTISTTRANSLIT:;
#CREDIT:;
#BANNER:CANDY (From Nonstop Megamix)-bn.png;
#BACKGROUND:CANDY (From Nonstop Megamix)-bg.png;
#LYRICSPATH:;
#CDTITLE:Dance Dance Revolution Max.png;
#MUSIC:Candy (From Nonstop Megamix).mp3;
#OFFSET:-7.400;
#SAMPLESTART:68.819;
#SAMPLELENGTH:12.000;
#SELECTABLE:YES;
#BPMS:0.000=195.300;
#STOPS:32.000=0.922
;
#BGCHANGES:;

//---------------dance-single - ----------------
#NOTES:
     dance-single:
     :
     Challenge:
     9:
     0.697,0.692,0.472,0.140,0.000: // measure 1
1001
0000
0001
1000
0010
0000
0100
0001
,  // measure 2
0010
0000
0100
1000
0010
0000
0100
0001
,  // measure 3
0010
0000
0100
1000
0010
0000
0100
0001
,  // measure 4
0010
1001
1001
0110
,  // measure 5
1001
0000
0010
1000
0010
0000
0100
0001
,  // measure 6
0100
0000
0010
1000
0010
0000
0100
0001
,  // measure 7
0100
0000
0001
0010
0001
0000
0010
0100
,  // measure 8
1000
1001
0110
1001
,  // measure 9
2000
0001
0010
0001
,  // measure 10
3100
0000
1000
0000
0001
1000
0010
1000
,  // measure 11
0100
1000
0000
0100
1000
0001
1000
0010
,  // measure 12
0100
0010
0100
0001
1000
0000
0001
1000
,  // measure 13
0010
1000
0000
0010
1000
0100
1000
0001
,  // measure 14
0100
0001
0100
0010
0100
0010
0100
0010
,  // measure 15
1000
0010
0000
0010
0100
0001
1000
0001
,  // measure 16
0100
0010
1000
0010
0100
0010
0100
0010
,  // measure 17
1000
0001
0000
0100
0001
1000
0010
1000
,  // measure 18
0001
0000
0001
0100
0001
0000
1000
0010
,  // measure 19
0100
0001
0000
1000
0100
1000
0001
0010
,  // measure 20
0001
1000
0001
0010
0100
0000
1000
0010
,  // measure 21
0100
0001
0000
1000
0001
0100
0010
1000
,  // measure 22
0001
0000
0100
0010
1000
0000
1000
0001
,  // measure 23
0010
0100
0000
1000
0001
1000
0001
1000
,  // measure 24
0001
0100
0010
1000
0001
0000
1000
0100
,  // measure 25
0010
0001
0000
1000
0001
0100
0010
1000
,  // measure 26
0001
1001
0110
1001
,  // measure 27
0001
1000
0000
0001
0010
0001
0010
0100
,  // measure 28
1000
0001
2000
0000
3020
0000
0130
0000
,  // measure 29
0001
0010
0000
0001
0010
0100
1000
0001
,  // measure 30
0100
0000
0010
0100
0001
0100
0010
0100
,  // measure 31
0001
0100
0010
0000
2000
0000
3200
0000
,  // measure 32
0310
0000
0001
0010
0001
0010
0001
0000
,  // measure 33
0010
0100
0000
1000
0010
0000
0110
0000
,  // measure 34
1001
1001
0110
1001
,  // measure 35
1000
0001
0000
1000
0100
1000
0100
0010
,  // measure 36
0001
1000
0002
0000
0203
0000
0310
0000
,  // measure 37
1000
0100
0000
1000
0100
0010
0001
1000
,  // measure 38
0010
0000
0100
0010
1000
0010
0100
0010
,  // measure 39
1000
0010
0100
0000
0002
0000
0023
0000
,  // measure 40
0130
0000
1000
0100
1000
0100
1000
0000
,  // measure 41
0100
0010
0000
0001
0100
0000
0110
0000
,  // measure 42
1001
0000
0101
0000
0100
0002
0000
1003
,  // measure 43
0010
1000
0010
0000
0100
0020
0000
1030
,  // measure 44
0001
1000
0002
0000
1003
0100
0000
1000
,  // measure 45
0100
0000
1100
0000
0000
0011
0000
0000
,  // measure 46
0101
0000
1000
0000
0001
0100
0001
0100
,  // measure 47
0010
0100
1001
0000
1000
0100
0010
0100
,  // measure 48
1000
0100
1100
0000
0011
0011
0000
1001
,  // measure 49
1001
0000
0110
1000
0100
0010
1001
0000
,  // measure 50
0110
1100
0110
0011
,  // measure 51
1000
0010
0000
0100
0001
1000
0010
0100
,  // measure 52
0001
1000
1001
0000
0110
0000
1001
0000
,  // measure 53
0001
0100
0000
0001
0010
0001
0010
0001
,  // measure 54
1000
0001
0100
0001
0100
0010
0100
0010
,  // measure 55
0100
0010
0100
0000
0101
0000
0110
0000
,  // measure 56
1010
0000
0100
1000
0010
0100
0010
0100
,  // measure 57
0001
0100
0000
0010
0100
0010
0100
0010
,  // measure 58
1000
0010
1010
0000
1100
0000
1010
0000
,  // measure 59
0100
1000
0000
0001
1000
0010
0100
0010
,  // measure 60
0100
0001
0100
0010
1000
0010
0100
0000
,  // measure 61
0010
1000
0000
0010
0100
0001
1000
0010
,  // measure 62
0100
0010
1000
0010
0100
0001
1000
0010
,  // measure 63
0100
0001
1000
0010
1100
0000
0110
0000
,  // measure 64
0011
0000
0001
0100
0010
1000
0010
0000
,  // measure 65
0010
0100
0000
0001
1000
0010
0100
0010
,  // measure 66
1000
0000
0100
0010
0100
1000
0001
1000
,  // measure 67
0100
0010
0001
1000
0100
1000
0001
0010
,  // measure 68
0100
0010
0100
1000
0001
1000
0100
0010
,  // measure 69
0001
0100
2002
0000
0000
0000
0000
0000
,  // measure 70
3003
0000
0000
0000
;
