#TITLE:Can't Stop Fallin' In Love;
#SUBTITLE:(From Nonstop Megamix);
#ARTIST:Naoki;
#TITLETRANSLIT:;
#SUBTITLETRANSLIT:;
#ARTISTTRANSLIT:;
#CREDIT:;
#BANNER:CAN'T STOP FALLIN' IN LOVE-bn.png;
#BACKGROUND:CAN'T STOP FALLIN' IN LOVE-bg.png;
#LYRICSPATH:;
#CDTITLE:DDR Solo 2000.png;
#MUSIC:Can't Stop Fallin' In Love (From Nonstop Megamix).mp3;
#OFFSET:-6.226;
#SAMPLESTART:37.130;
#SAMPLELENGTH:12.000;
#SELECTABLE:YES;
#BPMS:0.000=155.000;
#STOPS:;
#BGCHANGES:;

//---------------dance-single - ----------------
#NOTES:
     dance-single:
     :
     Hard:
     9:
     0.630,0.631,0.278,0.130,0.162: // measure 1
0001
1000
0000
0000
0010
0100
0000
0000
0001
0000
1000
0000
0010
0000
0100
0000
,  // measure 2
0001
0100
0000
0000
0001
1000
0000
0000
0100
0000
1000
0000
0010
0000
0100
0000
,  // measure 3
0001
0100
0000
0000
1000
0010
0000
0000
0100
0000
0001
0000
1000
0000
0010
0000
,  // measure 4
1000
0010
0000
1000
0010
0000
0100
0001
0000
0000
0000
0000
1000
0000
1000
0000
,  // measure 5
2001
0000
3010
0000
0100
0000
0001
0100
,  // measure 6
0010
1000
0100
0010
0001
0100
0001
0010
,  // measure 7
0100
1000
0010
0100
0001
0010
0100
1000
,  // measure 8
0010
1000
1010
0000
0001
0100
0001
0100
,  // measure 9
1002
0000
1003
1000
1000
0000
0110
0000
,  // measure 10
0001
1000
0100
0001
0100
1000
0100
0010
,  // measure 11
0100
0100
1000
1000
0001
0100
0001
0010
,  // measure 12
0100
1000
1010
0000
0001
0100
0010
0100
,  // measure 13
1001
0000
0110
0000
1001
0000
0001
1000
,  // measure 14
0010
0100
0001
1000
0001
1000
0010
1000
,  // measure 15
0002
0000
0203
0000
0320
0000
0130
0010
,  // measure 16
0100
0010
1000
0001
1000
0001
1000
0010
,  // measure 17
1010
0000
0101
0000
1010
0000
0010
1000
,  // measure 18
0010
0100
0001
0100
0010
1000
0001
0000
,  // measure 19
1000
0100
1000
0001
0100
0010
1000
0010
,  // measure 20
0100
0001
0010
0100
0000
1000
1000
0000
,  // measure 21
1001
0000
0001
0100
0001
0010
0100
0000
,  // measure 22
1100
0000
1000
0010
0100
0001
0010
0000
,  // measure 23
1001
0000
0010
0001
1000
0100
0010
0000
,  // measure 24
1100
0000
0010
1000
0010
0100
0001
0100
,  // measure 25
0001
0000
0001
0100
0010
0000
1000
0100
,  // measure 26
1000
0000
0010
0001
0100
0010
1000
0001
,  // measure 27
1000
0100
0100
0100
0100
0100
0100
0100
,  // measure 28
1000
0001
0001
0001
0001
0001
0001
0001
,  // measure 29
1001
0000
0010
0100
0110
0000
0001
0100
,  // measure 30
0101
0000
0100
0010
1000
0010
1000
0000
,  // measure 31
1001
0000
0010
0100
0110
0000
0001
0010
,  // measure 32
0011
0000
1000
0100
1000
0001
0010
0100
,  // measure 33
2000
3020
0230
0302
,  // measure 34
0023
0032
2003
3020
,  // measure 35
0230
0000
0000
0010
0310
0000
0000
0000
,  // measure 36
0100
0010
0100
0010
1000
0001
1000
0001
,  // measure 37
1010
0000
1000
0001
1000
0100
1000
0000
,  // measure 38
0110
0000
1000
0001
0010
0001
1000
0000
,  // measure 39
1001
0000
0001
0010
0100
1000
0001
0000
,  // measure 40
1100
0000
0001
1000
0001
0010
0100
0010
,  // measure 41
0100
0000
0010
0100
1000
0000
0100
1000
,  // measure 42
0100
0000
1000
0100
0010
0001
1000
0010
,  // measure 43
1000
0100
0100
0100
0100
0100
0100
0100
,  // measure 44
1000
0010
0010
0010
0010
0010
0010
0010
,  // measure 45
1010
0000
1000
0010
1000
0100
0010
0000
,  // measure 46
1100
0000
1000
0010
1000
0001
0100
0000
,  // measure 47
1010
0000
0010
0100
0001
0100
0010
0000
,  // measure 48
1100
0000
0010
1000
0010
0001
0010
1000
,  // measure 49
0010
0000
0100
0001
0010
0000
0100
1000
,  // measure 50
0100
0000
0100
1000
0010
0100
0001
1000
,  // measure 51
0001
1000
0001
1000
0001
1000
0001
1000
,  // measure 52
0010
0100
0010
0100
0010
0100
0010
0100
,  // measure 53
0001
0100
0000
0000
0010
1000
0000
0000
0001
0000
0100
0000
0010
0000
1000
0000
,  // measure 54
0001
1000
0000
0000
0001
0100
0000
0000
0010
0000
1000
0000
0100
0000
1000
0000
,  // measure 55
0001
1000
0000
0000
0100
0010
0000
0000
1000
0000
0001
0000
0100
0000
0010
0000
,  // measure 56
0100
0001
0000
0000
1000
0010
0000
0000
0100
0000
0010
0000
1000
0000
0001
0000
,  // measure 57
0100
0001
0000
0000
1000
0010
0000
0000
1000
0000
0001
0000
0100
0000
0010
0000
,  // measure 58
1000
0010
0000
0000
1000
0001
0000
0000
0010
0000
0100
0000
1000
0000
0010
0000
,  // measure 59
1000
0010
0000
0000
0001
0100
0000
0000
0010
0000
1000
0000
0001
0000
0100
0000
,  // measure 60
0001
1000
0000
0001
1000
0000
0001
1000
0000
0001
1000
0000
0001
0000
0100
0000
,  // measure 61
0010
1000
0000
0010
1000
0000
0010
1000
0000
0010
1000
0000
0010
0000
0100
0000
,  // measure 62
0001
0100
0000
0001
0100
0000
0001
0100
0000
0001
0100
0000
0010
0000
1000
0000
,  // measure 63
1001
0000
0000
0000
;

//---------------dance-single - ----------------
#NOTES:
     dance-single:
     :
     Medium:
     7:
     0.505,0.459,0.231,0.324,0.037:
2000
0000
3010
0000
0100
0001
0100
0001
,
0200
0000
0310
0000
0100
0001
0100
0010
,
2000
0000
3010
0000
0100
0001
0100
0010
,
1000
0000
0000
0001
0000
0000
1000
0000
0000
0001
0000
0000
1000
0000
0001
0000
,
2000
0000
3020
0000
0230
0000
0301
1000
,
0001
0100
0010
0000
0010
0100
0001
1000
,
0010
0010
0010
0010
,
0100
0001
0100
0000
0010
1000
0010
1000
,
0100
0000
1000
0010
1000
0000
1001
0000
,
0010
0000
0010
0100
0001
0000
1001
0000
,
0001
0010
0100
0000
0001
0100
1000
0000
,
0001
0010
1000
0001
0100
1000
0001
0000
,
0002
0000
2003
0000
3010
0000
0010
1000
,
0010
0000
0010
0100
0001
0000
0010
0001
,
0100
0000
1000
0000
0010
0000
0010
1000
,
0010
0000
0010
0000
0001
1000
0001
1000
,
0020
0000
0230
0000
0301
0000
0010
0001
,
0010
1010
0001
0110
,
0001
0000
1000
0000
0010
1000
0010
0000
,
0010
1000
0010
1000
0000
0001
0001
0000
,
1001
0000
0010
1000
0010
1000
0020
0000
,
1000
1000
1000
1030
,
1010
0000
0100
0001
0100
0001
0200
0000
,
0001
0001
0001
0301
,
0110
0000
0010
0100
0010
0000
0010
1000
,
0001
0000
0001
0100
1000
0000
0001
0100
,
1000
0010
2000
0000
0000
0000
3000
0000
,
0001
0100
0002
0000
0000
0000
0003
0000
,
1001
0000
0000
0110
0000
0000
1001
0000
,
0000
0011
0000
0000
1100
0000
1100
0000
,
1001
0000
0000
0011
0000
0000
0110
0000
,
0000
1010
0000
0000
0101
0000
0001
0010
,
1000
0000
0001
0000
0100
0000
1000
0001
,
1000
0020
0230
0301
,
2000
0000
3010
1000
0010
0000
1010
0000
,
0001
1000
0001
1000
0001
1000
0001
1000
,
0100
0000
0001
0010
0001
0010
0002
0000
,
0010
0010
0010
0013
,
0011
0000
1000
0100
1000
0100
2000
0000
,
0100
0100
0100
3100
,
1001
0000
0001
1000
0001
0000
0001
0010
,
0100
0000
0100
1000
0010
0000
0100
1000
,
0010
0001
0020
0000
0000
0000
0030
0000
,
0100
1000
0200
0000
0000
0000
0300
0000
,
0110
0000
0100
0001
0100
0001
0200
0000
,
0001
0001
0001
0301
,
0101
0000
0010
1000
0010
1000
0020
0000
,
1000
1000
1000
1030
,
0110
0000
0100
0010
0100
0000
0100
0001
,
1000
0000
1000
0010
0001
0000
1000
0010
,
0001
0100
0002
0000
0000
0000
0003
0000
,
1000
0010
2000
0000
0000
0000
3000
0000
,
0020
0000
0031
0000
1000
0100
1000
0100
,
2000
0000
3001
0000
1000
0100
1000
0001
,
0020
0000
0031
0000
1000
0100
1000
0001
,
0002
0000
0103
0000
0010
1000
0010
1000
,
0020
0000
0130
0000
0010
1000
0010
0100
,
0002
0000
0103
0000
0010
1000
0010
0100
,
0200
0000
1300
0000
0001
0010
0001
0010
,
0002
0000
0000
1000
0000
0000
1000
0000
0000
1000
0000
0000
1003
0000
1000
0000
,
2000
0000
0000
0001
0000
0000
0001
0000
0000
0001
0000
0000
0001
0000
0001
0000
,
3002
0000
0000
0100
0000
0000
0100
0000
0000
0100
0000
0000
0103
0000
0010
0000
,
1001
0000
0000
0000
;

//---------------dance-single - ----------------
#NOTES:
     dance-single:
     :
     Easy:
     4:
     0.377,0.430,0.379,0.268,0.000:
0020
1030
0001
1000
,
0001
0010
0101
0100
,
1000
0001
0010
1000
,
0001
0000
0000
0000
,
0000
0010
1001
0000
,
0100
1000
0001
0010
,
0001
0100
1000
0001
,
1001
0000
0100
0000
,
0001
1000
1001
0000
,
0010
0010
1000
1000
,
0001
0100
0010
1000
,
0011
0100
1100
0010
,
0010
1001
0100
0001
,
0100
1000
0001
0010
,
2000
0001
0010
0100
,
3002
0010
0100
1003
,
0001
0010
0011
0100
,
1010
0001
0110
1001
,
0100
1000
0010
1000
,
0002
0000
0000
0003
,
1001
0010
0100
0001
,
0020
0000
1000
1030
,
1000
0001
0100
0010
,
0200
0000
0010
0310
,
0001
1000
0001
0010
,
1001
0100
1001
0100
,
0200
0010
0010
0310
,
0020
0100
0100
0130
,
1001
0000
0000
0110
0000
0000
1001
0000
,
0000
0010
0000
0000
0010
0000
0010
0000
,
0010
0000
0000
1001
0000
0000
0100
0000
,
0000
0010
0000
0000
0011
0000
0011
0000
,
1100
0000
0001
0000
,
1000
0010
0100
0010
,
1001
0000
1001
0000
,
0010
0010
0010
0010
,
1001
0100
0010
1000
,
0200
0000
0001
0301
,
0001
1000
0010
0100
,
0020
0000
0100
0130
,
1000
0001
1000
0100
,
1001
0010
1001
0010
,
0020
0100
0100
0130
,
0200
0010
0010
0310
,
1100
0010
0001
0100
,
0020
0000
1000
1030
,
1000
0100
0001
0010
,
0002
0000
0010
0013
,
0100
1000
0100
0010
,
1100
0001
1100
0001
,
0002
0010
0010
0013
,
0020
0001
0001
0031
,
2000
3001
1001
1001
,
0200
0310
0110
0110
,
0020
1030
1010
1010
,
2000
3001
1001
1001
,
0002
0100
1000
0103
,
2000
0010
0001
3100
,
0020
0100
1000
0031
,
2002
0000
0000
3003
,
0220
0000
0000
0330
,
2002
0000
0000
3003
,
1001
0000
0000
0000
;
