#TITLE:Can't Get You Out Of My Heart;
#SUBTITLE:;
#ARTIST:Paul Harris;
#TITLETRANSLIT:;
#SUBTITLETRANSLIT:;
#ARTISTTRANSLIT:;
#CREDIT:;
#BANNER:Can't Get You Out Of My Heart-bn.PNG;
#BACKGROUND:Can't Get You Out Of My Heart-bg.PNG;
#LYRICSPATH:Can't Get Out Of My Heart.lrc;
#CDTITLE:Super Eurobeat 138.png;
#MUSIC:Can't Get You Out Of My Heart.ogg;
#OFFSET:-6.020;
#SAMPLESTART:47.430;
#SAMPLELENGTH:12.500;
#SELECTABLE:YES;
#BPMS:0.000=160.000;
#STOPS:208.000=0.188
,208.500=0.188
,209.000=0.188
,209.500=0.188
;
#BGCHANGES:0.000=-random-=1.000=0=0=1,
208.000=-random-=1.000=0=0=1,
208.500=-random-=1.000=0=0=1,
209.000=-random-=1.000=0=0=1,
209.500=-random-=1.000=0=0=1,
210.000=-random-=1.000=0=0=1,
226.000=-random-=1.000=0=0=1,
242.000=Can't Get You Out Of My Heart-bg.PNG=1.000=1=0=1,
99999=-nosongbg-=1.000=0=0=0 // don't automatically add -songbackground-
;

//---------------dance-single - ----------------
#NOTES:
     dance-single:
     :
     Hard:
     8:
     0.587,0.525,0.190,0.256,0.052: // measure 1
2000
0000
3001
0000
1010
0000
0100
0001
,  // measure 2
0100
0000
0010
0000
1000
0100
1000
0100
,  // measure 3
2000
0000
3001
0000
0110
0000
0100
0001
,  // measure 4
0100
0000
0000
0100
1000
0000
0010
0000
2002
0000
0000
0000
3003
0000
0000
0000
,  // measure 5
0001
0100
1000
0010
0000
0001
0010
0100
,  // measure 6
1000
0001
1000
0010
0000
0010
0100
0001
,  // measure 7
0010
0100
1000
0100
0000
0100
1000
0020
,  // measure 8
0000
0000
2030
0000
0000
0000
3200
0000
0000
0000
0301
0000
1000
0100
1000
0100
,  // measure 9
1000
0001
0010
0100
0000
0001
0010
1000
,  // measure 10
0100
0001
0100
1000
0000
0001
0010
0100
,  // measure 11
0001
0100
1000
0010
0000
0010
0100
0001
,  // measure 12
0000
0100
1000
0001
0010
0100
0001
0100
,  // measure 13
1000
0000
1001
0000
0001
0010
0100
0001
,  // measure 14
0100
0002
0000
0000
0013
0100
0010
0001
,  // measure 15
0100
0000
0001
0100
1000
0000
0001
0010
,  // measure 16
0100
0000
0001
0100
1000
0000
0010
0000
,  // measure 17
2010
0000
3100
0000
1000
0100
1000
0001
,  // measure 18
1000
0020
0000
0000
0130
0000
0001
0100
,  // measure 19
1000
0000
0001
0010
0000
0100
0001
0000
,  // measure 20
0200
1000
0010
0301
,  // measure 21
0001
0100
1000
0001
0000
0001
0010
0100
,  // measure 22
0000
0001
0100
2000
0000
3010
0000
0010
,  // measure 23
1000
0100
1000
0100
0000
0001
0100
1000
,  // measure 24
0000
1010
0000
1001
0100
1000
0001
0010
,  // measure 25
0100
0000
0001
0100
1000
0000
0001
0010
,  // measure 26
0100
0010
0100
0000
0001
0100
1000
0000
,  // measure 27
0001
0010
0100
0001
0000
0001
0100
1000
,  // measure 28
0010
0100
0001
0100
1000
0010
0100
0010
,  // measure 29
0001
0000
0100
1000
0001
0010
0100
0010
,  // measure 30
0000
0000
1000
0100
1000
0000
0100
0000
0010
0000
0001
0000
0010
0000
0100
0000
,  // measure 31
0010
0000
2000
0000
3001
0001
0000
1000
,  // measure 32
0001
0100
1000
0010
0000
0100
0000
0001
,  // measure 33
0010
0100
0000
0001
1000
0100
0000
1010
,  // measure 34
0000
1100
0000
1002
0000
1003
0000
0100
,  // measure 35
1000
0010
0100
0001
0010
1000
0000
1001
,  // measure 36
0000
0201
0000
1300
1000
0001
0010
0100
,  // measure 37
0010
0000
0001
0100
1000
0001
0010
0200
,  // measure 38
0000
0301
0000
0101
0000
1000
0001
0010
,  // measure 39
0100
0000
0010
0000
1001
0100
1000
0000
,  // measure 40
0001
0000
0010
0000
0100
0000
0001
0000
0000
0000
0001
0000
0100
1000
0010
1000
,  // measure 41
0100
2000
0000
3001
0010
0200
0000
0302
,  // measure 42
0000
0103
0000
0110
0000
2001
0000
3001
,  // measure 43
0010
0100
0001
0100
1000
0001
0000
0100
,  // measure 44
0000
0000
1000
0100
1000
0000
0100
0000
0000
0000
0001
0000
0011
0000
0000
0000
,  // measure 45
0100
0001
0100
0001
0000
0001
0010
0100
,  // measure 46
0001
0100
1000
0100
0000
0100
1000
0100
,  // measure 47
1000
0010
0100
0001
0000
0001
0100
1000
,  // measure 48
0000
0000
0002
0000
0000
0000
0023
0000
0000
0000
0130
0000
1000
0010
1000
0010
,  // measure 49
0100
0001
1000
0010
0000
0010
0100
0001
,  // measure 50
0100
0010
0100
0001
0000
0100
1000
0010
,  // measure 51
0100
0001
0010
0001
0000
0100
0010
1000
,  // measure 52
0000
0100
1000
0001
0100
0010
1000
0001
,  // measure 53
0010
0100
1001
0110
0001
0100
1000
0001
,  // measure 54
0000
0001
0010
0100
0001
0100
0010
0100
,  // measure 55
0000
0001
0100
1000
0001
0010
0100
0001
,  // measure 56
0000
0001
0100
2000
0000
3002
0000
0203
,  // measure 57
0000
0000
0310
0000
0100
0001
0100
0001
0100
0000
0001
0000
1000
0000
0010
0000
,  // measure 58
0000
0100
0001
0100
1000
0001
0010
0100
,  // measure 59
0000
0001
0010
0001
0100
0010
1000
0010
,  // measure 60
0000
0001
1000
0100
0000
1000
0001
0010
,  // measure 61
0100
0001
0100
0000
2002
0000
0000
0000
,  // measure 62
0000
0000
3003
0000
;

//---------------dance-single - ----------------
#NOTES:
     dance-single:
     :
     Medium:
     6:
     0.424,0.438,0.095,0.066,0.000:
2000
0001
0001
3001
,
0002
0000
0100
0000
0100
0000
0100
0003
,
0020
0000
0100
0000
0100
0000
0100
0030
,
0200
0310
1001
0000
,
0001
1000
0000
0001
0000
0010
0000
0001
,
0100
0001
0000
0100
0000
1000
0000
0001
,
0000
0010
0000
0100
0000
0001
0000
0100
,
0000
1000
0000
0001
0000
0010
0100
0001
,
0000
0100
0000
1000
0000
0001
0000
0010
,
0000
0001
0000
1001
0000
0100
0000
1000
,
0000
0001
0000
0010
0000
0100
0001
0100
,
0000
0001
0100
1000
0000
0001
0010
0000
,
0100
0000
0001
0000
0100
0001
0100
0000
,
0010
0000
1000
0000
0100
1000
0001
1000
,
0001
0000
0001
0100
0001
0000
0010
0000
,
1000
0000
0100
0000
0001
1000
0001
0000
,
0010
0000
0101
0000
0001
0000
0010
1000
,
0010
0100
1000
0001
,
0010
0000
0000
0200
0300
0000
0001
0000
,
0001
0000
0000
0101
0000
0000
1000
0000
,
0010
1000
0010
0000
0001
0100
0001
0000
,
0010
0100
0010
0000
0001
1000
0001
0000
,
0100
1000
0010
0001
,
0101
0000
0001
0001
,
1000
0000
0010
1000
0000
0010
0000
1000
,
0000
0001
1000
0000
0010
0000
0100
0000
,
0001
0100
0001
0000
0010
1000
0010
0000
,
0100
1000
0010
0000
0010
1000
0001
0100
,
0001
0000
0001
0100
0001
0000
0010
0000
,
0100
0000
0110
0000
0001
0000
1000
0100
,
1000
0000
0010
0000
1000
0000
0000
0001
,
0000
0000
0000
1000
0000
0001
0000
0010
,
0100
0001
0000
0001
0100
0001
0000
0010
,
0000
1000
0000
0100
0000
1000
0000
0001
,
0010
0001
0100
0010
1000
0100
0000
0001
,
0000
0100
0000
0001
0000
0001
0010
0000
,
0001
0000
0100
0001
1000
0000
0001
1000
,
0010
0000
0100
0000
0101
0000
0001
1000
,
0001
0000
0001
0000
0001
1000
0000
0001
,
0000
0010
0100
0001
0000
0100
0000
0001
,
0100
0001
0000
0010
1000
0010
0000
0100
,
0000
1000
0000
0010
0000
1010
0000
0001
,
0100
0001
0000
0001
0100
0001
0000
0001
,
0100
0010
1000
0010
0000
0100
0000
0000
,
1000
0001
0000
0010
0000
0100
0000
0001
,
0100
0001
0000
0010
0000
0100
0000
0100
,
1000
0010
0000
0001
0000
0100
0000
0001
,
0000
1000
0000
0010
0000
0100
0000
0001
,
0100
0001
0000
0010
0000
1000
0000
0010
,
0000
0100
0000
0001
0000
1000
0000
0010
,
0000
0001
0000
0010
0000
0001
0010
0001
,
0000
0001
0100
0001
0000
0001
0100
0000
,
0100
0010
0001
1001
0001
1000
0001
1000
,
0000
0010
1000
0000
0001
0100
0001
0100
,
0000
0010
0100
0000
0001
1000
0001
1000
,
0000
0010
0000
0001
0000
1000
0000
0001
,
0000
0010
0000
0100
0001
0100
0001
0100
,
0000
0001
0010
0000
0001
0100
0010
1000
,
0000
0010
1000
0000
0010
1000
0010
1000
,
0000
0001
0000
1000
0000
0001
0000
0010
,
0000
0100
0000
0100
2002
0000
0000
0000
,
0000
0000
0000
0000
0000
0000
0000
0000
0000
0000
0000
0000
0000
0000
0000
0000
0000
0000
0000
0000
0000
0000
0000
0000
0000
0000
0000
0000
0000
0000
0000
0000
0000
0000
0000
0000
0000
0000
0000
0000
0000
0000
0000
0000
0000
0000
0000
0000
0000
0000
0000
0000
0000
0000
0000
0000
0000
0000
0000
0000
0000
0000
0000
0000
0000
0000
0000
0000
0000
0000
0000
0000
0000
0000
0000
0000
0000
0000
0000
0000
0000
0000
0000
0000
0000
0000
0000
0000
0000
0000
0000
0000
0000
0000
0000
0000
0000
3003
0000
0000
0000
0000
0000
0000
0000
0000
0000
0000
0000
0000
0000
0000
0000
0000
0000
0000
0000
0000
0000
0000
0000
0000
0000
0000
0000
0000
0000
0000
0000
0000
0000
0000
0000
0000
0000
0000
0000
0000
0000
0000
0000
0000
0000
0000
0000
0000
0000
0000
0000
0000
0000
0000
0000
0000
0000
0000
0000
0000
0000
0000
0000
0000
0000
0000
0000
0000
0000
0000
0000
0000
0000
0000
0000
0000
0000
0000
0000
0000
0000
0000
0000
0000
0000
0000
0000
0000
0000
0000
0000
0000
0000
0000
;

//---------------dance-single - ----------------
#NOTES:
     dance-single:
     :
     Easy:
     4:
     0.359,0.379,0.180,0.256,0.000:
2000
0001
0001
3001
,
0020
0100
0100
0100
,
0230
0010
0010
0010
,
0302
1003
1001
0000
,
0001
1000
0010
0100
,
0001
0100
1000
0001
,
0010
0100
0001
0100
,
2000
0000
3020
0000
,
0130
0001
0100
1000
,
0001
0010
0100
0001
,
0100
1000
0010
0100
,
0002
0000
2003
0000
,
3020
0000
1030
0001
,
0100
1000
0001
0010
,
0200
0000
0000
0300
,
0020
1000
1000
1030
,
1001
0000
0001
0100
,
1000
0001
0010
0100
,
0001
0000
0001
0000
,
0001
0100
1000
0000
,
0010
0100
0001
0100
,
1000
0001
0010
0100
,
0002
0100
0100
0103
,
2000
0001
3001
0010
,
0101
0000
1100
0000
,
1001
0010
0100
0001
,
1001
0000
1100
0000
,
0010
0100
0001
0100
,
2000
0001
0001
3001
,
0002
0010
0100
1003
,
1100
0001
0010
0100
,
0001
0100
1000
0001
,
1001
0000
1100
0000
,
0001
0010
0100
0001
,
0101
0001
0010
1000
,
0100
0001
0010
0100
,
0020
0100
0100
0130
,
2000
0001
0010
3100
,
1001
0000
1100
0000
,
0001
0010
0100
0001
,
0200
1000
1000
1300
,
2000
0001
0001
3001
,
0002
0010
0010
0013
,
0200
0010
0010
0310
,
0001
0100
1000
0001
,
0010
0100
0001
0100
,
1000
0001
0010
0100
,
0200
0000
0320
0000
,
1030
0001
0100
1000
,
0001
0010
0100
0001
,
0100
1000
0001
0010
,
0002
0000
2003
3000
,
0100
0101
0100
0101
0100
0000
0001
0000
,
1000
0001
0100
0001
,
1000
0010
0100
1000
,
0001
0010
1001
0100
,
1000
0010
0001
0100
,
1000
0010
0100
0001
,
0010
0100
0010
1000
,
0100
1000
1100
0001
,
1001
0000
2002
0000
,
0000
0000
3003
0000
;

//---------------dance-single - ----------------
#NOTES:
     dance-single:
     :
     Beginner:
     2:
     0.258,0.263,0.095,0.323,0.000:
2000
0000
0001
3001
,
0020
0000
0100
0100
,
0230
0000
0010
0010
,
0302
0003
1001
0000
,
1000
0000
0001
0010
,
0100
0000
0010
0000
,
1000
0000
0001
0100
,
2000
0000
3002
0000
,
1003
0000
0010
0100
,
0100
0000
0010
0000
,
1000
0000
0001
0010
,
0002
0000
2003
0000
,
3020
0000
1030
1000
,
1000
0000
0000
0010
,
0200
0000
0000
0300
,
0020
0000
1000
1030
,
1001
0000
0001
0001
,
0001
0000
0000
0100
,
0001
0000
0001
0000
,
0001
0000
1000
0000
,
0010
0000
0001
0000
,
1000
0001
0010
0000
,
0002
0000
0100
0103
,
2000
0000
3010
0010
,
0100
0000
0100
0000
,
1000
0010
0100
0001
,
1000
0000
0100
0000
,
0010
0100
0001
0000
,
2000
0000
0001
3000
,
0002
0000
0100
0003
,
1100
0000
0000
0000
,
1001
0000
0000
0000
,
2000
3000
0002
0003
,
0100
0100
0100
0000
,
0102
0000
0100
0003
,
0201
0000
0001
0300
,
0002
0000
0100
0003
,
0200
0000
1000
0300
,
1001
0000
0000
0000
,
0101
0000
0000
0000
,
0002
0003
0200
0300
,
1000
1000
1000
0000
,
1200
0000
1000
0300
,
2100
0000
0100
3000
,
0001
0000
0100
0010
,
1000
0000
0010
0000
,
0001
0000
0100
1000
,
0002
0000
0203
0000
,
0301
0000
0010
1000
,
1000
0000
0010
0000
,
0100
0000
0100
0010
,
0200
0000
0302
0000
,
0103
0100
0100
0100
1000
0000
0000
0000
,
0100
0010
1000
0000
,
1000
0000
0010
0000
,
0001
0001
0200
0000
,
2300
0000
3010
0000
,
1000
0001
0010
0000
,
0001
0000
1000
0000
,
0100
0100
2000
0000
,
3020
0000
0230
0000
,
0000
0000
0300
0000
;

//---------------para-single - ----------------
#NOTES:
     para-single:
     :
     Hard:
     1:
     0.000,0.000,0.000,0.000,0.000:
00000
00000
00000
00000
;
