#TITLE:Bye Bye Baby;
#SUBTITLE:;
#ARTIST:Maio & Co.;
#TITLETRANSLIT:;
#SUBTITLETRANSLIT:;
#ARTISTTRANSLIT:;
#CREDIT:;
#BANNER:Bye Bye Baby-bn.png;
#BACKGROUND:Bye Bye Baby-bg.png;
#LYRICSPATH:;
#CDTITLE:cd.png;
#MUSIC:Bye Bye Baby.ogg;
#OFFSET:-6.521;
#SAMPLESTART:60.370;
#SAMPLELENGTH:12.000;
#SELECTABLE:YES;
#BPMS:0.000=147.000;
#STOPS:;
#BGCHANGES:;

//---------------dance-single - ----------------
#NOTES:
     dance-single:
     :
     Hard:
     8:
     0.613,0.555,0.265,0.189,0.379:
1000
0100
0000
1000
0001
0000
0000
0001
0000
0000
1000
0000
0000
0010
0000
0000
,
0010
1000
0000
0010
1000
0000
0000
0100
0000
0000
0010
0000
0000
0001
0000
0000
,
1000
0010
0000
1000
0010
0000
0000
0100
0000
0000
0010
0000
0000
1000
0000
0000
,
0010
1000
0000
0010
1000
0000
0010
0100
0000
0010
0100
0000
0000
0010
0000
0000
,
0100
0001
0100
0001
0000
0000
1000
0000
0100
0000
0010
0000
0001
0000
0100
0000
,
0010
0100
0010
0100
0000
0000
0100
0000
0010
0000
1000
0000
0100
0000
0010
0000
,
0001
0000
1000
0000
0100
0000
0010
0100
0000
0000
0010
0000
1000
0000
0001
1000
,
0000
0000
0100
0000
0010
0000
1000
0100
0000
0000
0010
0000
0001
0000
1000
0000
,
0100
1000
0000
0100
0001
0000
0000
0001
0000
0000
0100
0000
0000
0010
0000
0000
,
0010
0100
0000
0010
0100
0000
0000
1000
0000
0000
0010
0000
0000
0001
0000
0000
,
0100
0010
0000
0100
0010
0000
0000
1000
0000
0000
0010
0000
0000
0100
0000
0000
,
0010
0100
0000
0010
0100
0000
0010
1000
0000
0010
1000
0000
0000
0010
0000
0000
,
1000
0001
1000
0001
0000
0000
0100
0000
1000
0000
0010
0000
0001
0000
1000
0000
,
0010
1000
0010
1000
0000
0000
1000
0000
0010
0000
0100
0000
1000
0000
0010
0000
,
0001
0000
0100
0000
1000
0000
0010
1000
0000
0000
0010
0000
0100
0000
0001
0100
,
0000
0000
1000
0000
0010
0000
0100
1000
0000
0000
0010
0000
0001
0000
0100
0000
,
1000
0100
0000
1000
0100
0000
1000
0100
0000
1000
0100
0000
0010
0000
0100
0000
,
2001
0000
3001
0010
0200
0000
0301
1000
,
0010
0100
1000
0010
0000
0100
2000
3010
,
0100
1000
0001
0010
0100
0100
0000
1001
,
0000
1001
0000
1001
0100
0010
0100
1000
,
1002
0000
1003
0010
0200
0000
1300
1000
,
0001
0010
0100
2000
0000
3001
0010
0100
,
1000
0001
0010
0100
0001
1000
0010
0100
,
0000
0100
0000
0001
0000
0010
0000
0100
,
1000
1000
1000
0001
0100
0010
1000
1001
,
0000
0100
0010
1000
0010
0001
0100
0010
,
0000
1010
0000
0100
0010
1000
0010
0000
,
0002
0203
0320
2030
,
3001
0100
0010
1000
0010
0001
0100
0101
,
0000
1000
0010
0100
0010
0001
0100
0010
,
0000
1100
0000
0110
0000
1001
0000
0010
,
0000
0020
0000
0130
0000
0200
0000
0300
,
1001
0000
1001
0000
0002
2000
0000
0000
,
3003
0010
0100
1000
0010
0100
0000
0100
,
0001
1000
0100
0010
1000
0010
0001
0100
,
0010
0100
0000
0120
0000
1030
0000
1000
,
0002
0000
0203
0000
0310
2000
0000
0000
,
3100
0001
1000
0010
0001
0100
0000
0100
,
0001
0010
0001
1000
0100
0010
0000
1100
,
0000
1001
0000
0011
0000
0010
0010
0010
,
0101
0000
0101
0000
1001
0101
0000
1000
,
0010
0001
1000
0100
0010
0110
0000
1000
,
0010
0001
1000
0010
0100
0010
0010
0001
,
0100
0010
0000
1010
0000
1000
0100
0001
,
1001
0000
0110
0000
1001
1100
0000
1000
,
0010
0001
1000
0100
0010
0100
0000
0011
,
1000
0100
0010
1000
0010
0001
0000
0100
,
0000
0100
0000
0001
0000
0002
0000
1003
,
0010
0001
0000
0010
1000
0000
0000
1000
0000
0000
0010
0000
0000
0100
0000
0000
,
0100
0010
0000
0100
0010
0000
0000
0001
0000
0000
0100
0000
0000
1000
0000
0000
,
0010
0100
0000
0010
0100
0000
0000
0001
0000
0000
0100
0000
0000
0010
0000
0000
,
0100
0010
0000
0100
0010
0000
0100
0001
0000
0100
0001
0000
0000
0100
0000
0000
,
0001
1000
0001
1000
0000
0000
0010
0000
0001
0000
0100
0000
1000
0000
0001
0000
,
0100
0001
0100
0001
0000
0000
0001
0000
0100
0000
0010
0000
0001
0000
0100
0000
,
1000
0000
0010
0000
0001
0000
0100
0001
0000
0000
0100
0000
0010
0000
1000
0010
,
0000
0000
0001
0000
0100
0000
0010
0001
0000
0000
0100
0000
1000
0000
0010
0000
,
0001
1000
0000
0001
1000
0000
0001
1000
0000
0001
1000
0000
0001
0000
0100
0000
,
0020
0000
0000
0000
0000
0030
0000
0000
;

//---------------dance-single - ----------------
#NOTES:
     dance-single:
     :
     Medium:
     6:
     0.463,0.472,0.246,0.294,0.152: // measure 1
0100
0000
0000
0100
0000
0000
0100
0000
0000
0100
0000
0000
0100
0000
0000
0000
,  // measure 2
0010
0000
0000
0010
0000
0000
0010
0000
0000
0010
0000
0000
0010
0000
0000
0000
,  // measure 3
0001
0000
0000
1000
0000
0000
0001
0000
0000
1000
0000
0000
0001
0000
0000
0000
,  // measure 4
1000
0000
0000
0100
0000
0000
1000
0000
0000
0100
0000
0000
1000
0000
0000
0000
,  // measure 5
0010
1000
0010
0000
0100
0000
1000
0000
,  // measure 6
0001
0100
0001
0000
0010
0000
0100
0000
,  // measure 7
0001
1000
0001
0000
2001
0000
3001
0000
,  // measure 8
1020
1030
1010
1010
,  // measure 9
1001
0000
0000
0001
0000
0000
0010
0000
0000
0100
0000
0000
0010
0000
0000
0000
,  // measure 10
1000
0000
0000
0001
0000
0000
1000
0000
0000
0100
0000
0000
0010
0000
0000
0000
,  // measure 11
1000
0000
0000
0001
0000
0000
0100
0000
0000
0001
0000
0000
0001
0000
0000
0000
,  // measure 12
0100
0000
0000
1000
0000
0000
0100
0000
0000
1000
0000
0000
0100
0000
0000
0000
,  // measure 13
1000
0010
1000
0000
2010
0000
3010
0000
,  // measure 14
0010
0100
0001
0000
0201
0000
0301
0000
,  // measure 15
0001
1000
0001
0000
0100
0010
0100
0000
,  // measure 16
1000
0010
1000
0000
0010
0100
0010
0000
,  // measure 17
0010
0000
0000
0100
0000
0000
0010
0000
0000
0100
0000
0000
0010
0000
0100
0000
,  // measure 18
0010
0000
0002
0000
1003
0000
0100
1000
,  // measure 19
0100
0000
0010
0000
0110
0000
0001
0010
,  // measure 20
0001
0000
0001
0010
0100
0000
0100
0000
,  // measure 21
0010
0000
0010
0000
0010
0100
0010
0100
,  // measure 22
0001
1001
0001
1100
,  // measure 23
0010
1000
0010
0000
0010
0100
0010
0000
,  // measure 24
0001
0000
0100
0000
0010
0000
0000
1000
,  // measure 25
0000
1000
0000
1000
0000
0000
0000
0001
,  // measure 26
1000
0000
0100
1000
0100
0000
0010
0100
,  // measure 27
0010
0000
0001
0010
0001
0000
0001
0000
,  // measure 28
0202
0303
2020
3030
,  // measure 29
0020
0130
0200
0310
,  // measure 30
0010
0000
0000
0010
0000
0000
0010
0000
0000
0010
0000
0000
0010
0000
0000
0000
,  // measure 31
0100
0000
0000
0100
0000
0000
0100
0000
0000
0100
0000
0000
0100
0000
0000
0000
,  // measure 32
1002
0000
0000
0000
1000
0000
0000
0000
1000
0000
0000
0000
2000
0003
0000
0000
,  // measure 33
3200
0320
0032
1003
,  // measure 34
1010
1010
0202
0000
,  // measure 35
0303
0100
0001
0100
0001
0100
0000
0001
,  // measure 36
0100
0010
1000
0000
0010
0100
0010
0000
,  // measure 37
0001
0010
0100
1000
0010
0100
0010
0000
,  // measure 38
0110
0110
2002
0000
,  // measure 39
3003
0001
1000
0001
1000
0001
0000
1000
,  // measure 40
0001
0010
0002
0000
0013
1000
0020
0000
,  // measure 41
1030
0000
0010
0000
0001
0001
0001
0001
,  // measure 42
0002
1003
0220
0000
,  // measure 43
0330
0010
1000
0010
1000
0010
0000
0000
,  // measure 44
0100
0010
1000
0001
0000
0001
1000
0001
,  // measure 45
0020
0001
0001
0130
,  // measure 46
0100
1100
2200
0000
,  // measure 47
3300
0000
0010
0100
0010
0100
0000
0000
,  // measure 48
0001
0010
0001
0000
0010
0001
0000
0100
,  // measure 49
0000
0010
0000
1000
0000
0001
0000
1000
,  // measure 50
0001
0000
0000
0001
0000
0000
0001
0000
0000
0001
0000
0000
0001
0000
0000
0000
,  // measure 51
0100
0000
0000
0100
0000
0000
0100
0000
0000
0100
0000
0000
0100
0000
0000
0000
,  // measure 52
0010
0000
0000
1000
0000
0000
0010
0000
0000
1000
0000
0000
0010
0000
0000
0000
,  // measure 53
1000
0000
0000
0001
0000
0000
1000
0000
0000
0001
0000
0000
1000
0000
0000
0000
,  // measure 54
0100
1000
0100
0000
0001
0000
1000
0000
,  // measure 55
0010
0001
0010
0000
0100
0000
0001
0000
,  // measure 56
0010
1000
0010
0000
2010
0000
3010
0000
,  // measure 57
1200
1300
1100
1100
,  // measure 58
0010
0000
0000
0010
0000
0000
0010
0000
0000
0010
0000
0000
0010
0000
0100
0000
,  // measure 59
0020
0000
0000
0000
0000
0030
0000
0000
;

//---------------dance-single - ----------------
#NOTES:
     dance-single:
     :
     Easy:
     4:
     0.294,0.302,0.180,0.275,0.000: // measure 1
0001
0000
1000
0000
0000
1000
1000
0000
,  // measure 2
0001
0000
0100
0000
0000
0001
0001
0000
,  // measure 3
1000
0000
0010
0000
0000
0100
0100
0000
,  // measure 4
1000
0000
0001
0000
0000
0010
0010
0000
,  // measure 5
1000
0001
1000
1001
,  // measure 6
0001
0010
0001
0011
,  // measure 7
0100
1000
0020
0030
,  // measure 8
0200
0300
0002
0003
,  // measure 9
1000
0000
0010
0000
0000
0000
1000
1000
,  // measure 10
0001
0000
0010
0000
0000
0000
0000
0100
,  // measure 11
0100
0000
0001
0000
0100
0000
0000
0001
,  // measure 12
0001
0000
1000
0000
0000
0100
0100
0000
,  // measure 13
0002
0000
1000
1000
,  // measure 14
2003
0000
0100
3100
,  // measure 15
0020
0000
0230
0000
,  // measure 16
0302
0000
2003
3000
,  // measure 17
2002
0000
0000
3003
,  // measure 18
0010
0000
0010
0000
,  // measure 19
0010
0010
0010
0001
,  // measure 20
1000
0000
1000
0000
,  // measure 21
0001
1000
0010
1000
,  // measure 22
1010
0000
0101
0000
,  // measure 23
0010
0000
0100
0010
,  // measure 24
0100
0000
0000
0000
0001
0000
0000
1000
,  // measure 25
0000
1000
0000
1000
0000
0000
0000
0000
,  // measure 26
0010
0010
0010
0010
,  // measure 27
0100
0100
0001
1000
,  // measure 28
2002
0000
0000
0003
,  // measure 29
0002
3000
2003
0000
,  // measure 30
3010
1000
0010
1000
,  // measure 31
1010
0001
0100
0001
,  // measure 32
2002
0000
0000
0000
0003
0000
0000
0010
,  // measure 33
0000
0001
0000
0010
0000
0001
3000
0000
,  // measure 34
0010
0100
0220
0000
,  // measure 35
0000
0330
0000
0000
,  // measure 36
0100
0100
1000
0010
,  // measure 37
0010
0000
0000
0001
0000
0000
1000
0000
,  // measure 38
1001
0010
2002
0000
,  // measure 39
0000
3003
0000
0000
,  // measure 40
0010
0000
1000
0000
0001
0000
0000
0010
,  // measure 41
0000
0010
0000
0010
0000
1000
0000
0001
,  // measure 42
1000
0010
0200
0000
,  // measure 43
0000
0010
0000
0010
0000
0010
0300
0000
,  // measure 44
0000
0001
0000
1000
0000
0001
0000
1000
,  // measure 45
0100
0010
0001
0100
,  // measure 46
1000
0010
2020
0000
,  // measure 47
0000
0000
3030
0000
,  // measure 48
0000
0001
1000
0001
0000
0010
0000
1000
,  // measure 49
0000
0100
0000
0001
0000
0010
0000
0010
,  // measure 50
0100
0000
0001
0001
,  // measure 51
2000
0000
0010
3010
,  // measure 52
0020
0000
0100
0100
,  // measure 53
0230
0000
0010
0310
,  // measure 54
0110
0000
0000
0001
,  // measure 55
1001
0000
0000
0100
,  // measure 56
1100
0000
0101
0000
,  // measure 57
1100
0000
0101
0000
,  // measure 58
2002
0000
0000
0000
,  // measure 59
3003
0000
0000
0000
;
