#TITLE:Burning Love;
#SUBTITLE:;
#ARTIST:D-Essex;
#TITLETRANSLIT:;
#SUBTITLETRANSLIT:;
#ARTISTTRANSLIT:;
#CREDIT:;
#BANNER:Burning Love-bn.PNG;
#BACKGROUND:Burning Love-bg.PNG;
#LYRICSPATH:Burning Love.lrc;
#CDTITLE:Super Eurobeat 052.png;
#MUSIC:Burning Love.ogg;
#OFFSET:-7.571;
#SAMPLESTART:56.930;
#SAMPLELENGTH:12.000;
#SELECTABLE:YES;
#BPMS:0.000=150.120;
#STOPS:;
#BGCHANGES:;

//---------------dance-single - ----------------
#NOTES:
     dance-single:
     :
     Easy:
     4:
     0.323,0.461,0.393,0.094,0.000:
1000
1000
1001
0000
,
0010
0010
1010
0000
,
0100
0100
0010
0010
,
2000
0000
3002
0003
,
1000
0001
1001
0000
,
0010
0100
0110
0000
,
0001
0100
0001
0100
,
2000
0000
3020
0030
,
1000
0001
1000
0000
,
0001
0100
0001
0000
,
1000
0010
1000
0010
,
0100
0001
0000
0100
,
0100
0010
0010
0010
,
0100
1000
0001
1000
,
0001
0000
1000
0000
,
1001
0000
0001
0100
,
2000
0000
0001
0001
,
3002
0000
1000
1003
,
0010
0010
1010
0000
,
0100
0100
0101
0000
,
0020
0100
0130
0000
,
0200
0010
0310
0010
,
0010
1001
0010
1001
,
0100
0100
0010
0010
,
0101
0101
1100
1100
,
1001
0110
1001
0001
,
0001
0001
1000
1000
,
0001
0000
0000
0000
,
0110
0110
1001
1001
,
0001
1000
0001
0010
,
1010
1010
0101
0101
,
1001
0010
0010
0010
,
0101
0101
1010
1010
,
0101
1010
0101
1010
,
0001
0001
1000
1000
,
0001
0000
0000
0000
,
0110
1001
0110
1001
,
0001
1000
0001
1000
,
1001
1001
0110
0110
,
1001
0010
0010
0000
,
0010
0010
0010
0000
,
0100
0100
0100
0000
,
0001
0001
1000
1000
,
0001
1000
0001
1000
,
0010
0010
0010
0000
,
0100
0100
0100
0000
,
0010
0100
0001
1000
,
0001
1000
0010
0010
,
0010
0010
0010
0000
,
0100
0100
0100
0000
,
0001
0001
1000
1000
,
0001
0000
1000
0000
,
0010
0010
0010
0000
,
0100
0100
0100
0000
,
0010
0010
0100
0100
,
0001
1000
0010
1000
,
2000
0000
0000
0000
,
3002
0000
0000
0000
,
0003
0000
0000
0000
;

//---------------dance-single - ----------------
#NOTES:
     dance-single:
     :
     Hard:
     9:
     0.635,0.570,0.262,0.384,0.243: // measure 1
0001
0100
0001
0100
0001
0000
1000
0000
0020
0000
0000
0000
1030
0000
0010
0000
,  // measure 2
0100
0001
0100
0001
0100
0000
0010
0000
0200
0000
0000
0000
0301
0000
0100
0000
,  // measure 3
0010
0100
0010
0100
0010
0000
1000
0000
0001
0000
1000
0000
0100
0000
1000
0000
,  // measure 4
0200
0000
1300
0000
0001
1000
0100
1000
,  // measure 5
0001
1000
0001
1000
0001
0000
0100
0000
0002
0000
0000
0000
1003
0000
0001
0000
,  // measure 6
0010
0100
0010
0100
0010
0000
0001
0000
2000
0000
0000
0000
3010
0000
0010
0000
,  // measure 7
1000
0010
1000
0010
1000
0000
0001
0000
1000
0000
0100
0000
0010
0000
0100
0000
,  // measure 8
0020
0000
0031
1000
0110
0000
1001
0000
,  // measure 9
0001
0000
0010
0000
1000
0000
0010
0000
0001
0000
0000
0110
0000
0000
0001
0000
,  // measure 10
1000
0000
0100
0000
0010
0000
0001
0000
1000
0000
0000
1001
0000
0000
0010
0000
,  // measure 11
0001
1000
0100
0010
0001
1000
0100
0000
,  // measure 12
0010
0001
1000
0000
0001
1000
0001
0100
,  // measure 13
0010
0000
0100
0000
0001
0000
0010
0000
0100
0000
0000
1100
0000
0000
1000
0000
,  // measure 14
0010
0000
0100
0000
0001
0000
1000
0000
0010
0000
0000
0101
0000
0000
0001
0000
,  // measure 15
0100
0010
2000
0000
3001
0100
0020
0000
,  // measure 16
1030
0100
0010
0001
1000
0100
0010
0000
,  // measure 17
0001
0100
0001
1000
0001
0100
0001
0000
,  // measure 18
1000
0010
1000
0001
1000
0010
1000
0001
,  // measure 19
1001
0000
0110
0000
1001
0000
0100
0001
,  // measure 20
1000
0000
0001
0100
0001
0100
0001
1000
,  // measure 21
0010
1000
0010
0100
0010
1000
0010
0000
,  // measure 22
0100
0001
0100
0010
0100
0001
0100
0000
,  // measure 23
1002
0000
1003
0010
1000
0010
1000
0000
,  // measure 24
0102
0000
1003
0010
1000
0010
1000
0000
,  // measure 25
2010
0010
3010
0000
0012
0010
0013
0000
,  // measure 26
1001
0000
0110
0000
1001
0000
1000
0001
,  // measure 27
1000
1000
1000
0000
0010
1000
0001
0100
,  // measure 28
0010
0002
0203
0310
,  // measure 29
1002
1000
1003
0000
0102
0100
0103
0000
,  // measure 30
1000
0001
1000
0010
0100
0000
0100
0100
,  // measure 31
0001
0001
0001
0000
1000
0001
1000
0010
,  // measure 32
0000
0001
0200
0000
0302
0000
0103
0000
,  // measure 33
1200
1000
1300
0000
1020
1000
1030
0000
,  // measure 34
0110
0000
1001
0000
0110
0000
0100
0010
,  // measure 35
0100
0100
0100
0000
0010
0001
0010
1000
,  // measure 36
0100
0020
0032
1003
,  // measure 37
0120
0100
0130
0000
0021
0001
0031
0000
,  // measure 38
0100
0010
0100
1000
0001
0000
0001
1000
,  // measure 39
0010
0010
0010
0000
0100
0010
0100
0001
,  // measure 40
0000
0010
0002
0000
0023
0000
0031
0000
,  // measure 41
1000
0010
1000
0010
1000
0000
0010
0000
2000
0000
0000
0000
3010
0000
1000
0000
,  // measure 42
0010
1000
0010
1000
0010
0000
0100
0000
0002
0000
0000
0000
1003
0000
0001
0000
,  // measure 43
0100
0001
0100
0001
0100
0000
0001
0000
0010
0000
0100
0000
0010
0000
0001
0000
,  // measure 44
0200
0000
0301
0000
0001
1000
0010
0100
,  // measure 45
0001
1000
0001
1000
0001
0000
1000
0000
0002
0000
0000
0000
1003
0000
0010
0000
,  // measure 46
0100
0010
0100
0010
0100
0000
0001
0000
0200
0000
0000
0000
0301
0000
1000
0000
,  // measure 47
0001
0100
0001
0100
0001
0000
1000
0000
0001
0000
0010
0000
0100
0000
1000
0000
,  // measure 48
0002
0000
1003
0001
1001
0000
0110
0000
,  // measure 49
0100
0010
0100
0010
0100
0010
0100
0010
0200
0000
0000
0000
0300
0000
0000
0000
,  // measure 50
0010
1000
0010
1000
0010
1000
0010
1000
0020
0000
0000
0000
0030
0000
0000
0000
,  // measure 51
1000
0100
1000
0100
1000
0100
1000
0100
1000
0000
0010
0000
1000
0000
0001
0000
,  // measure 52
1000
0000
1001
0000
0100
0010
1000
1000
,  // measure 53
0100
1000
0100
1000
0100
1000
0100
1000
0200
0000
0000
0000
0300
0000
0000
0000
,  // measure 54
1000
0001
1000
0001
1000
0001
1000
0001
2000
0000
0000
0000
3000
0000
0000
0000
,  // measure 55
0001
1000
0001
1000
0001
1000
0001
1000
0001
0000
0001
0000
1000
0000
0010
0000
,  // measure 56
2000
3002
0203
0310
,  // measure 57
0200
0000
0000
0000
,  // measure 58
0320
0000
0000
0000
,  // measure 59
0030
0000
0000
0000
;

//---------------dance-single - ----------------
#NOTES:
     dance-single:
     :
     Medium:
     5:
     0.359,0.380,0.075,0.122,0.000:
0010
1000
0010
0000
0100
0000
0000
0000
,
0001
0100
0001
0000
0100
0000
0000
0000
,
0010
1000
0010
0000
0100
0001
0100
0010
,
0100
0001
1000
0010
,
1000
0100
1000
0000
0010
0000
0000
0000
,
0001
0100
0001
0000
0010
0000
0000
0000
,
1000
0010
1000
0000
0100
0000
0010
0000
,
1000
0000
0001
1000
,
0001
0000
1000
0000
0010
1000
0010
0000
,
0100
0000
0001
0000
0100
0001
0100
0000
,
0010
1000
0001
0010
,
0100
1000
0100
0000
0010
0001
0010
0000
,
0001
0000
0010
0000
0100
1000
0100
0000
,
1000
0000
0010
0000
0100
0001
0100
0000
,
0001
1000
0010
0100
,
0010
0010
0100
0100
,
0002
1000
0100
1003
,
2000
0010
0001
3010
,
0010
0100
1001
0000
,
0001
0010
1100
0000
,
0002
0100
1000
0103
,
2000
0001
0100
3001
,
1010
0010
0010
0000
,
0101
0100
0100
0000
,
0010
0100
0010
0000
0100
0010
0100
0000
,
0001
0001
1001
1000
,
1000
0010
1000
0000
0010
1000
0010
1000
,
0000
0010
0010
0100
,
0100
0010
0100
0000
0001
0100
0001
0000
,
1000
0010
1010
0100
,
0010
0100
0010
0000
0100
0001
0100
0001
,
0000
2000
3002
0203
,
0310
0010
0010
0000
0100
0100
0100
0000
,
0010
0100
0110
0000
,
1000
1000
1000
0000
0001
0000
1000
0000
,
0001
2000
3002
0203
,
0301
0100
0001
0000
0010
1000
0010
0000
,
0100
0100
0110
0000
,
0001
0000
1000
0000
0001
1000
0001
1000
,
0000
0010
0010
0000
,
1000
0010
1000
0000
0100
0000
0000
0000
,
0001
0100
0001
0000
0010
0000
0000
0000
,
1000
0010
1000
0000
0010
0000
0100
0000
,
0001
0000
1000
0000
,
0001
1000
0001
0000
0010
0000
0000
0000
,
0001
1000
0001
0000
0010
0000
0000
0000
,
1000
0010
0100
0000
0010
0000
1000
0000
,
0001
0002
0000
0000
0003
1000
0000
0000
,
0001
1000
0001
1000
0001
0000
0000
0000
,
0010
1000
0010
1000
0010
0000
0000
0000
,
0100
0010
0100
0010
0100
0000
0010
0000
,
0100
0000
0001
1000
,
0001
1000
0001
1000
0001
0000
0000
0000
,
1000
0010
1000
0010
1000
0000
0000
0000
,
0100
0001
0100
0001
0100
0000
0010
0000
,
1000
0001
0100
0010
,
0200
0000
0000
0000
,
0320
0000
0000
0000
,
0030
0000
0000
0000
;
