#TITLE:Black Widow;
#SUBTITLE:;
#ARTIST:Iggy Azalea feat. Rita Ora;
#TITLETRANSLIT:;
#SUBTITLETRANSLIT:;
#ARTISTTRANSLIT:;
#CREDIT:;
#BANNER:Black Widow-bn.png;
#BACKGROUND:Black Widow-bg.png;
#LYRICSPATH:;
#CDTITLE:cd.png;
#MUSIC:Black Widow.mp3;
#OFFSET:-5.891;
#SAMPLESTART:26.210;
#SAMPLELENGTH:15.000;
#SELECTABLE:YES;
#BPMS:0.000=82.010,16.000=164.020,53.000=82.010,149.000=164.020,186.000=82.010;
#STOPS:52.000=1.097
,185.000=1.097
;
#BGCHANGES:;

//---------------dance-single - ----------------
#NOTES:
     dance-single:
     :
     Hard:
     8:
     0.490,0.579,0.536,0.084,0.157: // measure 1
1000
0000
0001
0000
1000
0000
0001
1000
0001
0000
1000
0000
0010
0000
1000
0000
,  // measure 2
0010
0000
0100
0000
0010
0000
0100
0000
0001
0000
0100
0001
0100
0000
0010
0000
,  // measure 3
1000
0000
0100
0000
0010
0000
0001
0000
1000
0010
1000
0000
0100
0000
0010
0000
,  // measure 4
0001
0000
1000
0000
0001
0000
1000
0000
0100
0000
1000
0010
1000
0000
0010
0000
,  // measure 5
1001
0010
1000
0100
,  // measure 6
1000
0001
1000
0000
0010
0000
0100
0000
,  // measure 7
0110
1001
0110
1001
,  // measure 8
0010
0000
1000
0100
1000
0000
1001
0000
,  // measure 9
0110
0000
0001
0000
0010
0000
0100
1000
,  // measure 10
0010
0000
1010
0000
1100
0000
0001
0100
,  // measure 11
0010
0000
0110
0000
1001
0000
0001
0010
,  // measure 12
0001
0000
0011
0000
1100
0000
0010
0100
,  // measure 13
0010
0110
1001
1100
,  // measure 14
1001
0000
0000
0000
1000
0001
1000
0000
1000
0000
0100
1000
0100
0000
1000
0000
,  // measure 15
0001
0000
0000
0000
1000
0001
1000
0000
1001
0000
1000
0010
1000
0000
0100
0000
,  // measure 16
1000
0000
0000
0000
0010
0000
0100
0000
0110
0000
0001
1000
0001
1000
0001
0000
,  // measure 17
1000
0000
0100
0000
1000
0010
0100
0000
1001
0000
1000
0000
0020
0000
0030
0000
,  // measure 18
0100
0100
0100
1000
0010
1000
0100
1000
,  // measure 19
0010
0000
1000
0001
0100
0010
1010
0000
,  // measure 20
1010
0100
1000
0001
0100
0010
1000
0100
,  // measure 21
1000
0001
1000
0010
0100
0001
0010
0100
,  // measure 22
1000
0010
0100
0010
0100
0010
0100
0001
,  // measure 23
0100
0001
1000
0001
1000
0100
1000
0010
,  // measure 24
1000
0000
0100
0000
1000
0010
0100
0000
0101
0000
0010
1000
0100
1000
0010
0000
,  // measure 25
1010
0000
0110
0000
1001
0000
0110
0000
1001
0000
0001
0010
0001
0010
0100
0000
,  // measure 26
1010
0101
0020
0230
0302
2003
3200
0000
,  // measure 27
1300
0000
0010
0000
1000
0100
1000
0000
0010
1000
0100
0000
1000
0010
1000
0000
,  // measure 28
0100
1000
0010
0000
0010
0100
0001
0000
0001
0100
0001
0000
0001
0100
0010
0000
,  // measure 29
0001
0100
0010
0000
0001
1000
0100
0000
0100
1000
0010
0000
0010
1000
0100
0000
,  // measure 30
1000
0000
0200
0000
0310
0000
0010
0010
,  // measure 31
0110
0000
0001
0001
1000
0100
2000
0000
,  // measure 32
3010
0000
0002
0000
1003
0000
0100
1000
,  // measure 33
1100
0000
0010
1000
0001
0100
0200
0000
,  // measure 34
0310
0000
0000
0000
0010
0000
0010
0000
0010
0000
0010
0100
0010
0000
0100
0000
,  // measure 35
0010
0000
0100
0000
0110
0000
0010
0000
0100
0000
0010
0000
1000
0000
0100
1000
,  // measure 36
0100
0000
1000
0000
1001
0000
0010
0000
1000
0000
0001
0000
1000
0100
1000
0000
,  // measure 37
1010
0000
0101
0000
1010
0000
0101
0000
1010
0000
0010
0000
1000
0000
0001
1000
,  // measure 38
0001
1000
1010
0000
0101
0000
1010
0000
,  // measure 39
0101
0000
0010
0100
0010
0000
0110
0000
,  // measure 40
1001
0110
1001
0110
,  // measure 41
1001
0000
0001
1000
0001
1000
0010
1000
,  // measure 42
0100
1000
0010
0000
0110
0000
1001
0000
,  // measure 43
0110
0000
0001
0010
0001
0000
0011
0000
,  // measure 44
1100
0000
0010
1000
0010
0000
0110
0000
,  // measure 45
1001
0000
0100
1000
0100
0000
1100
0000
,  // measure 46
0101
1100
0110
1001
,  // measure 47
0110
0000
0000
0000
1001
0000
0000
0000
1000
0010
1000
0000
1001
0000
0010
0001
,  // measure 48
0010
0001
0010
0000
1001
0000
0100
0000
0001
1000
0001
0000
1001
0000
0001
0100
,  // measure 49
0001
0100
0001
0000
1010
0000
0001
0000
0100
0010
0100
0000
0110
0000
1000
0001
,  // measure 50
1000
0001
1000
0000
0001
0000
0010
0000
0001
0100
0010
0000
1001
0000
0001
0000
,  // measure 51
0200
0000
0310
1001
0000
0000
0000
0000
;

//---------------dance-single - ----------------
#NOTES:
     dance-single:
     :
     Medium:
     5:
     0.350,0.346,0.222,0.077,0.000:
2002
0000
3003
0000
0001
0001
0001
0001
,
2000
0000
0000
0000
0010
0010
3010
0010
,
0200
0000
0000
0000
0001
0001
0301
0001
,
0002
0000
0000
0000
1000
1000
1000
1000
,
1003
0010
1000
1010
,
0010
0100
0010
0000
0100
0000
0001
0000
,
0101
0000
0010
1000
0100
0000
1000
0000
,
1010
0000
0010
0100
0001
0000
0100
0000
,
0010
0000
1000
0100
1000
0000
0010
1000
,
0001
0000
1000
0000
1001
0000
0100
1000
,
0100
0000
1010
0000
1100
0000
0010
0100
,
0001
0110
1001
0100
,
1000
0010
1000
0000
0001
0000
0100
0000
,
0010
0000
1000
1000
0010
1000
0100
1000
,
1001
0000
0010
0100
0001
0010
0100
1000
,
1010
0000
0010
1000
0100
0010
0001
0100
,
0110
0000
0001
1000
0100
1000
2000
0000
,
0010
0000
3010
0100
0001
1000
1100
0000
,
0001
0100
0010
1000
0001
0010
0011
0000
,
0001
0100
0010
1000
0000
0100
1000
0010
,
0000
0001
0100
0010
0000
1000
0001
0010
,
0000
0100
1010
0100
0001
1000
0100
1000
,
0010
0000
0001
1000
0001
1000
0100
1000
,
0010
0000
0010
0100
0001
1000
0001
0100
,
0010
0000
0010
1000
0100
0010
0001
0010
,
0001
1000
0010
0100
1000
0010
1001
0000
,
0010
0000
0100
0100
0100
0000
0010
0010
,
0010
0000
1000
1000
1000
0000
0001
0001
,
0001
0000
1000
0010
1000
0100
1000
0010
,
1000
0000
0100
0000
1000
0000
0001
1000
,
1001
0010
0100
0010
,
1001
0000
0001
0000
0010
0000
0001
0010
,
0011
0000
0001
1000
0100
0000
2000
0000
,
3010
0000
1000
0000
0000
0000
0010
0010
,
0010
0010
0020
0000
0000
0000
0100
0100
,
0100
0100
0230
0000
0000
0000
0001
0001
,
0001
0001
0302
0000
0000
0000
1000
1000
,
1000
1000
1003
0000
0010
0000
1000
0000
,
0100
0000
1000
0010
1000
0000
0001
0000
,
0100
0010
0110
1001
,
0100
0000
1000
0000
0001
1000
0001
0000
,
1000
0100
1000
0001
,
0100
0000
0010
0100
0010
0000
1001
0000
,
0100
0000
1000
0010
1000
0000
1010
0000
,
0101
0000
0010
0100
0010
0000
0100
0000
,
0101
0000
0010
1000
0100
0000
1000
0000
,
0010
0000
1001
0000
1001
0001
1000
0010
,
1000
0100
0010
0000
0100
0010
0100
0001
,
1000
0100
1001
0000
0010
1000
0100
0010
,
0001
0100
0110
0000
0010
1000
0100
0010
,
0001
1000
0000
0000
;

//---------------dance-single - ----------------
#NOTES:
     dance-single:
     :
     Easy:
     3:
     0.244,0.269,0.268,0.138,0.000:
2000
0000
3010
0010
,
0110
0000
0100
0100
,
1001
0000
0001
0010
,
0011
0000
0100
1000
,
1010
0000
0100
0000
,
1000
1000
1000
1000
,
0010
0000
1000
0001
,
1000
0010
0100
0001
,
1000
0000
1010
0000
,
0010
0100
0110
0000
,
0001
1000
1001
0000
,
0100
1000
1100
0000
,
0010
0100
0010
0110
,
1001
1000
0001
1000
,
1010
0100
0001
0100
,
0101
0010
1000
0010
,
0110
0001
1000
2002
,
3003
0010
1010
0020
,
0030
0100
0110
0200
,
0300
0001
1000
0010
,
1000
0001
1000
0010
,
1000
0002
1003
0020
,
0130
0200
0310
2000
,
3001
1000
0010
0100
,
1001
0010
0001
0100
,
0110
2000
0002
3003
,
0000
0010
0100
0010
,
1001
0001
0100
0010
,
1010
1000
0010
0100
,
0001
1000
0010
1000
,
1001
0010
1010
0202
,
0303
0010
0100
0010
,
1001
0010
0011
2200
,
3300
1000
0000
0010
,
0010
0020
0000
0130
,
0100
0200
0000
0301
,
0001
0002
0000
1003
,
1000
1000
0000
0010
,
0000
1000
0001
1001
,
0010
1000
0000
0100
,
0000
1000
0010
0100
,
0001
1000
0000
0001
,
0000
1000
0010
1010
,
0000
0100
0001
0101
,
0000
0010
0100
0110
,
0000
0001
1000
0010
,
0100
1001
0001
1000
,
0001
0101
0010
1000
,
0010
1010
0100
0001
,
0100
0110
1000
0001
,
0100
1001
0000
0000
;

//---------------dance-single - ----------------
#NOTES:
     dance-single:
     :
     Beginner:
     1:
     0.135,0.153,0.077,0.123,0.000:
0020
0000
0000
0030
,
0200
0000
0000
0300
,
0002
0000
0000
0003
,
2000
0000
0000
3000
,
0010
0000
0000
0000
,
0100
0000
0010
0000
,
0100
0000
0000
0000
,
0001
0000
1000
0000
,
0001
0000
0000
0000
,
1000
0000
1010
0000
,
0100
0000
0101
0000
,
0010
0000
0110
0000
,
0001
0000
1001
0000
,
1000
1000
0000
0010
,
0000
0100
0000
0001
,
0000
1000
0000
0010
,
0000
0100
0000
1001
,
0000
0010
0010
0010
,
0000
0100
0100
0100
,
0000
0001
0001
1000
,
0000
1000
0010
0010
,
0000
0100
0010
0001
,
1000
0001
0000
1000
,
0000
0010
1000
0001
,
0100
1000
0000
0001
,
0000
1000
0010
0000
,
1000
0010
0000
0100
,
0000
0010
0000
0100
,
0000
1000
0000
0001
,
0000
2000
3000
0002
,
0003
0200
0300
0020
,
0030
0200
0300
0002
,
0003
2000
3000
0020
,
0030
0200
0000
0000
,
0300
0020
0000
0000
,
0030
2000
0000
0000
,
3000
0002
0000
0000
,
0003
0100
0000
0000
,
0000
0010
0000
0100
,
0000
0010
0000
0000
,
0000
1000
0000
0001
,
0000
1000
0000
0000
,
0000
0001
0000
0101
,
0000
0010
0000
1010
,
0000
0100
0000
0110
,
0000
1000
0000
1001
,
0000
0001
0001
0000
,
0100
0000
0010
0000
,
1000
0000
0001
0000
,
0100
0000
0010
0000
,
1001
0000
0000
0000
;
