#TITLE:Black Tiger;
#SUBTITLE:;
#ARTIST:F.C.F.;
#TITLETRANSLIT:;
#SUBTITLETRANSLIT:;
#ARTISTTRANSLIT:;
#CREDIT:;
#BANNER:Black Tiger-bn.png;
#BACKGROUND:Black Tiger-bg.png;
#LYRICSPATH:Black Tiger.lrc;
#CDTITLE:boom boom beat.png;
#MUSIC:Black Tiger.mp3;
#OFFSET:-7.588;
#SAMPLESTART:54.510;
#SAMPLELENGTH:12.000;
#SELECTABLE:YES;
#BPMS:0.000=160.020,228.000=80.010,236.000=160.020;
#STOPS:;
#BGCHANGES:;

//---------------dance-single - ----------------
#NOTES:
     dance-single:
     :
     Hard:
     8:
     0.633,0.561,0.337,0.393,0.295:
1001
0000
0000
1000
0001
0000
0000
1000
0001
0000
0000
0001
0000
0000
2000
0000
,
0000
0000
3100
0000
1000
0000
0010
0000
0100
0000
0001
0010
0001
0000
0100
0000
,
0100
0000
0000
0010
1000
0000
0000
0010
1000
0000
0000
0001
0000
0000
2000
0000
,
0000
0000
3010
0000
0100
0000
0001
0000
1000
0000
0010
0100
0010
0000
1000
0000
,
0110
0000
0000
0010
0100
0000
0000
0010
0100
0000
0000
0100
0000
0000
0020
0000
,
0000
0000
0130
0000
0001
0000
1000
0000
0100
0000
0010
0001
0000
0010
0000
0000
,
0100
0000
0000
1000
0100
0000
0000
1000
0100
0000
0000
1000
0000
0000
0200
0000
,
0000
0000
1300
0000
0100
0000
0010
0000
0001
0000
0000
1000
0000
0000
0100
0000
,
1001
0000
0000
0001
1000
0000
0000
0001
1000
0000
0000
1000
0000
0000
0002
0000
,
0000
0000
0013
0000
0001
0000
0100
0000
0010
0000
1000
0100
1000
0000
0010
0000
,
0010
0000
0000
0100
0001
0000
0000
0100
0001
0000
0000
1000
0000
0000
0002
0000
,
0000
0000
0103
0000
0010
0000
1000
0000
0001
0000
0100
0010
0100
0000
0001
0000
,
0110
0000
0000
0100
0010
0000
0000
0100
0010
0000
0000
0010
0000
0000
0200
0000
,
0000
0000
0310
0000
1000
0000
0001
0000
0010
0000
0100
1000
0000
0100
0000
0000
,
0010
0000
0000
0001
0010
0000
0000
0001
0010
0000
0000
0001
0000
0000
0020
0000
,
0000
0000
0031
0000
0010
0000
0100
0000
1000
0000
0000
0001
0000
0000
0010
0000
,
2001
0000
3001
0000
1000
0001
1000
0000
,
0002
0000
1003
0000
0010
0100
0001
1000
,
1100
0000
0011
0000
0100
1000
0100
0000
,
1000
0010
1000
0001
0100
0010
1000
0001
,
2000
0000
3001
0000
0001
0100
1000
0000
,
0200
0000
0301
0000
0001
0010
1000
0010
,
0002
0000
1003
0000
0001
0100
0010
1000
,
0010
0100
0001
1000
0100
1000
0001
0000
,
0001
0001
0100
0100
0010
0010
1000
1000
,
0100
1000
0000
1001
0000
0001
1000
0020
,
0000
0230
0000
0302
0000
2003
0000
3100
,
0000
1001
0110
1001
,
1000
1000
0001
0001
0010
0010
0100
0100
,
1000
0001
0000
2002
0000
3003
1000
0000
,
0001
1000
0001
0100
0010
1000
0001
0100
,
2002
3003
0010
0010
,
1002
0000
0103
0000
0010
0100
1001
0000
,
0001
0100
0010
1000
0010
0100
0001
0000
,
2001
0000
3001
0000
0100
0010
1001
0000
,
0001
1000
0010
0100
0001
1000
0100
0000
,
1100
1100
0011
0011
,
0010
0100
1000
0001
1000
0010
0100
0001
,
2000
0100
0100
3100
,
0002
0100
0100
0103
,
0120
0000
1030
0000
1000
0001
0110
0000
,
0100
0001
1000
0100
1000
0001
0010
0000
,
0210
0000
0310
0000
0001
1000
0110
0000
,
0010
0100
0001
1000
0010
0100
0001
0000
,
0101
0101
1010
1010
,
1000
0001
0100
0010
0100
0001
1000
0010
,
0200
0001
0001
0301
,
0020
1000
1000
1030
,
2002
0000
3003
0000
,
0110
0000
0000
0010
0100
0000
0000
0010
0100
0000
0000
0100
0000
0000
0020
0000
,
0000
0000
1030
0000
0010
0000
0100
0000
0001
0000
1000
0001
1000
0000
0001
0000
,
1000
0000
0000
0001
0010
0000
0000
0001
0010
0000
0000
0100
0000
0000
0020
0000
,
0000
0000
0031
0000
1000
0000
0100
0000
0010
0000
0001
1000
0001
0000
0010
0000
,
1001
0000
0000
0001
1000
0000
0000
0001
1000
0000
0000
1000
0000
0000
0002
0000
,
0000
0000
1003
0000
0001
0000
1000
0000
0010
0000
1000
0001
0000
1000
0000
0000
,
1000
0000
0000
1000
0001
0000
0000
1000
0001
0000
0000
1000
0000
0000
2000
0000
,
0000
0000
3010
0000
1000
0000
0001
0000
0100
0000
0000
0010
0000
0000
1000
0000
,
2001
0000
0000
0000
3001
0000
0000
0000
1000
0000
0000
1000
0000
0000
2000
0000
0000
0000
3000
0000
0001
0000
0000
0000
0100
0000
0000
0000
0010
0000
0000
0000
,
0102
0000
0000
0000
1003
0000
0000
0000
0001
0000
0000
0001
0000
0000
0002
0000
0000
0000
0003
0000
1000
0000
0000
0000
0010
0000
0000
0000
0100
0000
0000
0000
,
1001
0000
0000
1000
0001
0000
0000
1000
0001
0000
0000
0001
0000
0000
2000
0000
,
0000
0000
3001
0000
0010
0000
0100
0000
1000
0000
0001
1000
0000
0010
0000
0000
,
1001
0000
0000
0100
0010
0000
0000
0100
0010
0000
0000
0100
0000
0000
0020
0000
,
0000
1030
0001
0100
0010
0000
2000
0000
,
3001
0000
0000
0000
;

//---------------dance-single - ----------------
#NOTES:
     dance-single:
     :
     Medium:
     7:
     0.557,0.502,0.066,0.749,0.014:
2000
3002
0203
0320
,
1030
0001
1000
0010
0100
0001
1000
0010
,
0200
0302
2003
3020
,
0130
0001
1000
0010
0100
0001
1000
0000
,
0002
2003
3020
0230
,
0301
1000
0010
1000
0001
1000
0010
0100
,
0002
2003
3020
0230
,
0301
0000
0010
0000
0100
0000
1000
0000
0001
0000
0000
1000
0000
0000
1000
0000
,
0002
2003
3020
0230
,
0301
1000
0001
0100
0010
1000
0001
0100
,
0020
2030
3002
0203
,
0310
1000
0001
0100
0010
1000
0001
0000
,
2000
3002
0203
0320
,
1030
0001
0100
0001
1000
0001
0100
0010
,
2000
3002
0203
0320
,
1030
0000
0100
0000
0010
0000
0001
0000
1000
0000
0000
0001
0000
0000
0001
0000
,
2000
0000
3001
0000
1000
0010
0000
2000
,
0000
0000
3001
0000
1000
0010
0100
0001
,
1000
0000
0010
0000
0100
0001
0100
0000
,
2002
0000
3003
0000
0000
0010
1000
0002
,
0000
0000
1003
0000
0010
1000
0000
0002
,
0000
0000
1003
0000
0001
1000
0001
0100
,
0001
0000
1000
0000
0010
1000
0001
0020
,
0000
0100
0130
0000
,
1000
1000
0001
0001
1000
1000
0001
0001
,
1000
0001
0000
1001
0000
0001
1000
0020
,
0000
0230
0000
0302
0000
2003
0000
3002
,
0000
1000
1000
2003
,
3001
0001
1000
1000
0001
1000
0001
1000
,
0001
1000
0000
1010
0000
0000
0010
0000
,
0010
0100
0010
1000
0001
0010
0001
0100
,
0010
0000
0100
0100
,
0002
0000
0000
0003
1000
0001
0000
0000
,
1000
0000
0010
0000
0100
0001
1000
0000
,
0020
0000
0000
0000
0130
0001
0000
0000
,
1000
0000
0010
0000
0100
0001
1000
0000
,
1010
0000
1010
0000
0010
1000
0001
1000
,
0000
0010
1000
0001
0010
0001
0000
0200
,
0000
0001
0001
0301
,
0002
0000
1003
0000
1000
0010
1000
0001
,
2000
0000
0000
0000
3010
0100
0000
0000
,
0001
0100
0010
1000
0001
1000
0010
0000
,
0200
0000
0000
0000
0301
1000
0000
0000
,
0010
1000
0001
0100
0010
1000
0001
0000
,
2000
0000
3010
0000
1000
0001
0100
0010
,
0000
1000
0001
0100
0010
1000
0000
0002
,
0000
0010
0010
0013
,
0100
0000
0010
0000
0100
0001
0100
0010
,
2001
0000
3010
0000
,
0002
2003
3020
0230
,
0301
1000
0001
0100
0010
1000
0001
0100
,
0020
2030
3002
0203
,
0310
1000
0001
0100
0010
1000
0001
0000
,
2000
3002
0203
0320
,
1030
0001
0100
0001
1000
0001
0100
0010
,
2000
3002
0203
0320
,
1030
0000
0100
0000
0010
0000
0001
0000
1000
0000
0000
0001
0000
0000
0001
0000
,
2000
0000
0000
0000
3010
0000
0100
0010
,
0200
0000
0000
0000
0000
0000
0000
0300
0001
0000
0000
0000
1000
0000
0001
0000
,
2000
3020
0230
0302
,
1003
0010
0100
0001
1000
0010
0100
0001
,
2000
3020
0230
0302
,
1003
0010
0100
0001
0000
1000
0001
0000
,
1001
0000
0000
0000
;

//---------------dance-single - ----------------
#NOTES:
     dance-single:
     :
     Easy:
     4:
     0.332,0.384,0.244,0.225,0.000: // measure 1
0001
0001
1000
0001
,  // measure 2
1001
0000
1000
1000
,  // measure 3
0001
1000
0010
0100
,  // measure 4
1001
0000
0001
0001
,  // measure 5
1000
0010
0100
0001
,  // measure 6
1001
0000
0010
0001
,  // measure 7
0010
0100
1000
0010
,  // measure 8
1010
0000
0100
0100
,  // measure 9
0010
0010
0100
0100
,  // measure 10
1001
0000
0001
1000
,  // measure 11
0001
0010
0100
1000
,  // measure 12
1010
0000
0010
0100
,  // measure 13
0010
0100
0001
1000
,  // measure 14
1001
0000
0001
1000
,  // measure 15
0010
0010
0100
0100
,  // measure 16
1001
0000
0001
1000
,  // measure 17
0020
0000
1030
1010
,  // measure 18
0200
0000
0301
1001
,  // measure 19
1000
1000
0001
0010
,  // measure 20
1100
0000
0000
0010
,  // measure 21
0020
0000
0130
1001
,  // measure 22
0002
0000
1003
1001
,  // measure 23
1000
1000
0001
0001
,  // measure 24
1001
0000
1000
0000
,  // measure 25
0001
0001
1000
1000
,  // measure 26
0010
0010
0100
0100
,  // measure 27
0020
0000
0230
0000
,  // measure 28
0320
0000
1030
0000
,  // measure 29
0001
0001
1000
1000
,  // measure 30
0001
1000
1001
0000
,  // measure 31
0010
0010
0100
0010
,  // measure 32
1001
0000
0001
0000
,  // measure 33
2000
0000
3001
0000
,  // measure 34
1000
0001
1000
0010
,  // measure 35
2020
3030
0202
0303
,  // measure 36
0010
0100
0001
1000
,  // measure 37
0100
0100
0010
0010
,  // measure 38
0001
1000
0001
1000
,  // measure 39
0002
0000
0000
0003
,  // measure 40
2000
0000
0000
3000
,  // measure 41
0002
0000
1003
0000
,  // measure 42
0001
1000
0001
0100
,  // measure 43
0202
0303
2020
3030
,  // measure 44
0100
0010
1000
0001
,  // measure 45
0010
0010
0100
0100
,  // measure 46
1000
0001
1000
0001
,  // measure 47
0200
0000
0000
0300
,  // measure 48
0020
0000
0000
0000
,  // measure 49
1030
0000
0000
0000
,  // measure 50
1000
1000
0001
1000
,  // measure 51
1001
0000
0001
0001
,  // measure 52
1000
0001
0100
0010
,  // measure 53
1001
0000
1000
1000
,  // measure 54
0001
0100
0010
1000
,  // measure 55
1001
0000
0100
1000
,  // measure 56
0100
0010
0001
0100
,  // measure 57
0101
0000
0010
0010
,  // measure 58
0200
0000
0310
0010
,  // measure 59
0200
0000
0301
0001
,  // measure 60
1000
0010
0100
0001
,  // measure 61
1001
0000
0001
0001
,  // measure 62
1000
0001
1000
0010
,  // measure 63
1001
0000
1000
0002
,  // measure 64
0003
0000
0000
0000
;

//---------------dance-single - ----------------
#NOTES:
     dance-single:
     :
     Beginner:
     2:
     0.219,0.207,0.028,0.103,0.000: // measure 1
0010
0000
0010
0000
,  // measure 2
0100
0100
0100
0000
,  // measure 3
0001
0000
0001
0000
,  // measure 4
1000
1000
1000
0000
,  // measure 5
0010
0000
0010
0000
,  // measure 6
0100
0100
0100
0000
,  // measure 7
0001
0000
1000
0000
,  // measure 8
0001
0001
0001
0000
,  // measure 9
1000
0000
0001
0000
,  // measure 10
1000
0001
0010
0000
,  // measure 11
1000
0000
0001
0000
,  // measure 12
1000
0001
0100
0000
,  // measure 13
0010
0000
1000
0000
,  // measure 14
0001
0010
0100
0000
,  // measure 15
1000
0000
0001
0000
,  // measure 16
1000
0001
0100
0000
,  // measure 17
0010
0000
0010
0000
,  // measure 18
0100
0000
0100
0000
,  // measure 19
0001
0001
1000
0001
,  // measure 20
1000
0000
0000
0000
,  // measure 21
0010
0000
0100
0000
,  // measure 22
0001
0000
1000
0000
,  // measure 23
0001
1000
0001
0001
,  // measure 24
1000
0000
0001
0000
,  // measure 25
1000
0000
0001
0000
,  // measure 26
1000
1000
1000
0000
,  // measure 27
0002
0000
2003
0000
,  // measure 28
3020
0000
0000
0030
,  // measure 29
0100
0000
0100
0000
,  // measure 30
0010
0010
0010
0000
,  // measure 31
0100
0000
0010
0000
,  // measure 32
1001
0000
0000
0000
,  // measure 33
2000
0000
3001
0000
,  // measure 34
1000
0001
1000
0000
,  // measure 35
0002
0000
1003
0000
,  // measure 36
0001
1000
0001
0000
,  // measure 37
0010
0000
0010
0000
,  // measure 38
0100
0000
0100
0000
,  // measure 39
0010
0010
0010
0000
,  // measure 40
0100
0100
0100
0000
,  // measure 41
0002
0000
1003
0000
,  // measure 42
0001
1000
0010
0000
,  // measure 43
0200
0000
0301
0000
,  // measure 44
0100
0010
1000
0000
,  // measure 45
0001
0001
0001
0000
,  // measure 46
1000
1000
1000
0000
,  // measure 47
0010
0000
0100
0000
,  // measure 48
0010
0100
0010
0000
,  // measure 49
2002
0000
3003
0000
,  // measure 50
0100
0000
0100
0000
,  // measure 51
0010
0010
0010
0000
,  // measure 52
1000
0000
1000
0000
,  // measure 53
0001
0001
0001
0000
,  // measure 54
0100
0000
0100
0000
,  // measure 55
0010
0010
0010
0000
,  // measure 56
1000
0000
0001
0000
,  // measure 57
1000
1000
1000
0000
,  // measure 58
0002
0000
0003
0000
,  // measure 59
2000
0000
3000
0000
,  // measure 60
0010
0000
0100
0000
,  // measure 61
0001
1000
0001
0000
,  // measure 62
1000
0000
0001
0000
,  // measure 63
1000
0001
1000
0000
,  // measure 64
1001
0000
0000
0000
;
