#TITLE:Billy Jive (With Willy's Wife);
#SUBTITLE:(Y&Co. Remix);
#ARTIST:E-Rotic;
#TITLETRANSLIT:;
#SUBTITLETRANSLIT:;
#ARTISTTRANSLIT:;
#CREDIT:;
#BANNER:Billy Jive (With Willy's Wife) (Y&Co. Remix)-bn.png;
#BACKGROUND:Billy Jive (With Willy's Wife) (Y&Co. Remix)-bg.png;
#LYRICSPATH:;
#CDTITLE:cd.png;
#MUSIC:Billy Jive (With Willy's Wife) (Y&Co. Remix).mp3;
#OFFSET:-6.634;
#SAMPLESTART:59.578;
#SAMPLELENGTH:14.660;
#SELECTABLE:YES;
#BPMS:0.000=146.030;
#STOPS:;
#BGCHANGES:;

//---------------dance-single - ----------------
#NOTES:
     dance-single:
     :
     Hard:
     9:
     0.610,0.650,0.364,0.187,0.257:
0010
0000
0010
0000
0010
0000
0010
0100
,
0210
0000
0010
0000
0010
0000
0310
0100
,
1002
1000
1000
1003
,
1000
0000
0010
0000
0100
0000
0010
0000
1000
0000
0000
0010
0000
0000
1000
0000
,
0010
0000
1000
0000
0001
0000
1000
0000
0010
0000
0000
0110
0000
0000
1001
0000
,
0000
0000
0001
0000
0010
0000
0001
0000
0020
0000
0000
0031
0000
0000
0001
0000
,
0010
0000
0100
0000
1000
0000
0010
0000
0100
0000
0000
0110
0000
0000
1001
0000
,
0000
0000
0001
0000
0010
0000
0001
0000
1000
0000
0000
1001
0000
0000
0010
0000
,
1000
0000
0010
0000
0100
0000
0010
0000
0100
0000
0000
0101
0000
0000
0110
0000
,
0000
0000
0001
0000
1000
0000
0001
0000
0020
0000
0000
0031
0000
0000
0001
0000
,
0010
0000
0100
0000
1000
0000
0010
0000
0100
0000
0000
0101
0000
0000
1010
0000
,
0000
0000
0001
0000
1000
0000
0010
0000
0100
0000
0000
1010
0000
0000
1000
0000
,
0010
0000
1000
0000
0010
0000
0100
0000
0001
0000
0010
0001
0010
0000
0100
0000
,
1001
2000
3200
0310
,
1001
0000
0001
1000
0010
0100
0002
0000
,
0013
0001
0010
0100
0010
0001
0010
0000
,
0001
1000
0010
1000
0010
1000
0020
0000
,
0130
0010
0100
0001
0100
0001
0100
0000
,
0001
0100
0010
1000
0001
1000
0001
0010
,
0100
1000
0001
0100
0010
1000
0001
0010
,
0001
0010
0100
1000
0001
1000
0010
0100
,
0010
1000
0001
1000
0010
0100
0001
1000
,
0010
0200
0302
1003
,
2002
0000
3003
0000
,
0010
0000
1000
0100
0000
1000
0100
0000
0000
1000
0010
1000
0010
0000
0100
0001
,
0100
0000
0010
0100
0000
0001
0100
0000
0000
0010
1000
0010
1000
0000
0100
1000
,
0100
0000
0010
0100
0000
0010
0001
0000
0000
0010
0001
0010
0001
0000
0010
0001
,
1000
0000
0001
1000
0000
0010
1000
0000
0000
0001
0100
0010
0100
0000
0001
1000
,
0100
0000
1000
0010
0000
1000
0001
0000
0000
1000
0100
1000
0100
0000
1000
0100
,
1000
0000
0010
1000
0000
0001
0100
0000
0000
0001
0100
0001
0100
0000
0010
0100
,
0010
0000
1000
0100
0000
0010
0001
0000
0000
1000
0001
1000
0001
0000
0100
0001
,
0100
0000
0010
0100
0000
0001
0100
0000
0010
0000
1000
0000
0110
0000
0101
0000
,
1001
0000
0020
0000
1030
0010
0000
1010
,
0000
0010
0100
0001
0100
0010
0000
1010
,
0000
0010
1000
0001
0020
0000
0031
2000
,
0000
0000
3001
0000
0100
0001
0000
0110
,
0000
0001
1000
0001
1000
0001
0000
1001
,
0000
0010
0100
0010
0100
0010
0000
0110
,
0000
0010
1000
0001
0020
0000
0031
0000
,
0010
0001
0010
0001
0010
0100
1000
0010
,
1000
0010
1000
0001
0100
0010
0000
0101
,
0000
0001
0010
0100
1000
0010
0000
1010
,
0000
0010
0100
0001
0100
0010
1000
0001
,
1000
0001
0010
0100
1000
0010
0100
0001
,
0010
0100
1000
0010
1000
0010
0000
1010
,
0000
0001
0100
0001
0100
0001
0000
0101
,
0000
0010
1000
0001
1000
0010
0100
0001
,
1000
1000
0001
0001
1000
1000
0010
0010
,
0100
0100
0001
0001
1000
0010
1000
0000
,
0010
0000
0100
0000
0001
0000
0100
0000
0010
0000
0000
1010
0000
0000
0101
0000
,
0000
0000
0010
0000
0100
0000
0001
0000
2000
0000
0000
3001
0000
0000
0100
0000
,
0001
0000
0100
0000
0010
0000
1000
0000
0001
0000
0000
1010
0000
0000
0101
0000
,
0000
0000
0001
0000
0010
0000
0001
0000
0100
0000
0000
0101
0000
0000
0010
0000
,
0100
0000
0010
0000
1000
0000
0010
0000
1000
0000
0000
1001
0000
0000
1010
0000
,
0000
0000
1000
0000
0010
0000
1000
0000
0200
0000
0000
1300
0000
0000
1000
0000
,
0001
0000
1000
0000
0010
0000
0100
0000
0001
0000
0000
1001
0000
0000
0110
0000
,
0000
0000
1000
0000
0010
0000
0100
0000
0001
0000
0000
1001
0000
0000
0110
0000
,
2002
0000
0000
0000
,
3003
0000
0000
0000
;

//---------------dance-single - ----------------
#NOTES:
     dance-single:
     :
     Medium:
     5:
     0.362,0.379,0.243,0.112,0.056: // measure 1
0020
0000
0000
0000
,  // measure 2
0030
0000
0000
0000
,  // measure 3
0200
0000
0000
0000
,  // measure 4
0300
0000
0000
0000
,  // measure 5
0010
1000
0010
1001
,  // measure 6
0001
0010
0001
1001
,  // measure 7
0010
1000
0010
1010
,  // measure 8
0001
0100
0010
1010
,  // measure 9
0001
0010
0100
1010
,  // measure 10
0010
0100
0001
0101
,  // measure 11
0001
1000
0010
0110
,  // measure 12
0001
1000
0010
1000
,  // measure 13
2010
0010
0001
3001
,  // measure 14
2002
0000
3003
0000
,  // measure 15
0010
0000
0000
1000
0010
1000
0010
0000
,  // measure 16
0100
0000
0001
0000
1000
0001
1000
0000
,  // measure 17
0020
0000
0230
0000
,  // measure 18
0310
0000
0100
0000
0010
0100
0010
0000
,  // measure 19
1000
0000
0001
0000
0010
0001
0010
0000
,  // measure 20
0100
0000
1000
0000
0010
1000
0010
0000
,  // measure 21
0100
0001
0100
0000
0010
1000
0010
0000
,  // measure 22
0010
0000
0100
0000
0010
0100
0010
0000
,  // measure 23
1000
0001
0010
0100
,  // measure 24
2200
0000
0000
3300
,  // measure 25
0010
0000
0000
0010
0000
0000
0010
0000
0000
0000
0000
0000
0100
0000
0000
0000
,  // measure 26
0001
0000
0000
0001
0000
0000
0001
0000
0000
0000
0000
0000
0010
0000
0000
0000
,  // measure 27
0100
0000
0000
0100
0000
0000
0100
0000
0000
0000
0000
0000
1000
0000
0000
0000
,  // measure 28
0010
0000
0000
0010
0000
0000
0010
0000
0000
0000
0000
0000
0100
0000
0000
0000
,  // measure 29
0001
0000
0000
0001
0000
0000
0001
0000
0000
0000
0000
0000
1100
0000
0000
0000
,  // measure 30
0001
0000
0000
0001
0000
0000
0001
0000
0000
0000
0000
0000
1001
0000
0000
0000
,  // measure 31
0010
0000
0000
0010
0000
0000
0010
0000
0000
0000
0000
0000
1010
0000
0000
0000
,  // measure 32
1000
0000
0000
1000
0000
0000
1000
0000
0010
0000
0000
0000
0100
0000
0000
0000
,  // measure 33
1001
0000
0001
0000
1000
0001
0000
1001
,  // measure 34
0000
0000
0010
0000
0100
0010
0000
0110
,  // measure 35
0000
0000
0001
1000
0010
0000
1000
0020
,  // measure 36
0000
0000
0130
0000
0100
0010
0000
1001
,  // measure 37
0000
0001
1000
0000
0010
1000
0000
1010
,  // measure 38
0000
0000
0001
0000
0100
0010
0000
0110
,  // measure 39
0000
1001
0001
0010
,  // measure 40
0001
0010
0001
0010
0001
0010
0000
0001
,  // measure 41
0000
1000
0000
0010
0000
1000
0000
1010
,  // measure 42
0000
0001
0100
0010
0100
0001
0000
1001
,  // measure 43
0000
0010
0000
1000
0001
0000
1000
0010
,  // measure 44
0000
1000
0010
1000
0010
0000
0100
0010
,  // measure 45
0100
0000
0001
0000
1000
0001
1000
0000
,  // measure 46
1001
0000
0010
1000
0010
0000
1010
0000
,  // measure 47
0101
0000
0010
1000
0010
0000
1000
0001
,  // measure 48
1000
0010
0100
0001
,  // measure 49
1000
0010
1000
0010
1000
0010
1000
0000
,  // measure 50
0001
0000
0000
0000
1000
0000
0000
0000
0001
0000
0000
0001
0000
0000
0001
0000
,  // measure 51
0000
1000
0010
0100
,  // measure 52
0001
0000
0000
0000
1000
0000
0000
0000
0010
0000
0000
0010
0000
0000
0010
0000
,  // measure 53
0000
0100
0001
0010
,  // measure 54
0100
0000
0000
0000
1000
0000
0000
0000
0001
0000
0000
1000
0000
0000
0001
0000
,  // measure 55
0000
1000
0010
1000
,  // measure 56
0001
0000
0000
0000
0010
0000
0000
0000
0100
0000
0000
1000
0000
0000
0100
0000
,  // measure 57
0000
1000
0010
0100
,  // measure 58
2002
0000
0000
0000
,  // measure 59
3003
0000
0000
0000
;

//---------------dance-single - ----------------
#NOTES:
     dance-single:
     :
     Easy:
     3:
     0.240,0.271,0.093,0.168,0.005: // measure 1
0020
0000
0000
0030
,  // measure 2
0200
0000
0000
0300
,  // measure 3
0002
0000
0000
0003
,  // measure 4
2000
0000
0000
3000
,  // measure 5
0010
0000
0100
0000
,  // measure 6
0010
0100
0010
0100
,  // measure 7
0001
0000
1000
0000
,  // measure 8
0001
1000
0001
1000
,  // measure 9
0002
0000
2003
0000
,  // measure 10
3010
0100
0001
1000
,  // measure 11
0200
0000
2300
0000
,  // measure 12
3010
0100
0001
1000
,  // measure 13
1001
0000
0000
0000
,  // measure 14
1001
0000
0000
0000
,  // measure 15
0010
0000
0100
0000
,  // measure 16
0010
0100
0010
0100
,  // measure 17
0010
0000
1000
0000
,  // measure 18
0001
1000
0001
1000
,  // measure 19
0010
0000
0100
0000
,  // measure 20
0001
0000
0010
0000
,  // measure 21
0100
0000
1000
0000
,  // measure 22
0010
0000
0100
0010
,  // measure 23
0100
0010
1000
0001
,  // measure 24
2002
0000
3003
0000
,  // measure 25
0001
0000
0001
0001
,  // measure 26
1000
0000
1000
1000
,  // measure 27
0001
0000
1000
0001
,  // measure 28
1000
0000
0001
1000
,  // measure 29
0010
0000
0010
0010
,  // measure 30
0100
0000
0100
0100
,  // measure 31
0010
0000
0010
0100
,  // measure 32
0001
1000
0100
0010
,  // measure 33
0011
0000
0000
0000
,  // measure 34
1001
0000
0110
0000
,  // measure 35
1001
0000
0001
0001
,  // measure 36
0001
0000
1000
1000
,  // measure 37
1000
0000
0010
0000
,  // measure 38
0200
0000
0310
0000
,  // measure 39
0200
0000
0301
0000
,  // measure 40
1000
1000
0001
0001
,  // measure 41
1000
0001
1000
0001
,  // measure 42
1001
0000
0110
0000
,  // measure 43
1001
0000
1000
1000
,  // measure 44
1000
0000
0001
0001
,  // measure 45
0001
0000
0100
0000
,  // measure 46
0020
0000
0130
0000
,  // measure 47
0020
0000
1030
0000
,  // measure 48
0001
0001
1000
1000
,  // measure 49
0001
1000
0001
1000
,  // measure 50
0010
0000
0100
0000
,  // measure 51
0001
1000
0001
1000
,  // measure 52
0010
0000
0100
0000
,  // measure 53
0010
0100
0010
0100
,  // measure 54
0020
0000
0130
0000
,  // measure 55
0001
1000
0100
0010
,  // measure 56
2000
0000
3020
0000
,  // measure 57
0031
1000
0100
0010
,  // measure 58
0100
0200
0000
0000
0000
0000
0000
0000
0000
0000
0000
0000
0000
0000
0000
0000
0000
0000
0000
0000
0000
0000
0000
0000
0000
0000
0000
0000
0000
0000
0000
0000
0000
0000
0000
0000
0000
0000
0000
0000
0000
0000
0000
0000
0000
0000
0000
0000
0000
0000
0000
0000
0000
0000
0000
0000
0000
0000
0000
0000
0000
0000
0000
0000
0000
0000
0000
0000
0000
0000
0000
0000
0000
0000
0000
0000
0000
0000
0000
0000
0000
0000
0000
0000
0000
0000
0000
0000
0000
0000
0000
0000
0000
0000
0000
0000
0000
0000
0000
0000
0000
0000
0000
0000
0000
0000
0000
0000
0000
0000
0000
0000
0000
0000
0000
0000
0000
0000
0000
0000
0000
0000
0000
0000
0000
0000
0000
0000
0000
0000
0000
0000
0000
0000
0000
0000
0000
0000
0000
0000
0000
0000
0000
0000
0000
0000
0000
0000
0000
0000
0000
0000
0000
0000
0000
0000
0000
0000
0000
0000
0000
0000
0000
0000
0000
0000
0000
0000
0000
0000
0000
0000
0000
0000
0000
0000
0000
0000
0000
0000
0000
0000
0000
0000
0000
0000
0000
0000
0000
0000
0000
0000
,  // measure 59
0300
0000
0000
0000
;
