#TITLE:Billy Jive (With Willy's Wife);
#SUBTITLE:(Extended Version);
#ARTIST:E-Rotic;
#TITLETRANSLIT:;
#SUBTITLETRANSLIT:;
#ARTISTTRANSLIT:;
#CREDIT:;
#BANNER:Billy Jive (With Willy's Wife) (Extended Version)-bn.png;
#BACKGROUND:Billy Jive (With Willy's Wife) (Extended Version)-bg.png;
#LYRICSPATH:;
#CDTITLE:;
#MUSIC:Billy Jive (With Willy's Wife) (Extended Version).mp3;
#OFFSET:-5.420;
#SAMPLESTART:40.999;
#SAMPLELENGTH:12.000;
#SELECTABLE:YES;
#BPMS:0.000=141.980;
#STOPS:;
#BGCHANGES:;

//---------------dance-single - ----------------
#NOTES:
     dance-single:
     :
     Hard:
     9:
     0.675,0.578,0.470,0.040,0.440:
0000
0000
0000
0000
,
1000
0001
1000
0001
0000
0000
1000
0000
0001
0000
1000
0000
0010
0000
0100
0000
,
0001
0010
0001
0010
0000
0000
0001
0000
0010
0000
0100
0000
1000
0000
0010
0000
,
1000
0010
1000
0010
0000
0000
1000
0000
0010
0000
0100
0000
0001
0000
0010
0000
,
0001
0010
0001
0010
0000
0000
0001
0000
0010
0000
0100
0000
1000
0000
0010
0000
,
1000
0000
0001
1000
0000
0000
0010
0000
1000
0000
0001
1000
0000
0000
0001
0000
,
0100
0000
0010
0100
0000
0000
0001
0000
1000
0000
0001
0010
0000
0000
0001
0000
,
0010
0000
0100
1000
0000
0000
0010
0000
1000
0000
0001
1000
0000
0000
0010
0000
,
0100
0000
0001
0100
0000
0000
0001
0000
0010
0000
0100
0010
0000
0000
0001
0000
,
1000
0010
1010
0000
0010
0100
0110
0000
,
0001
0100
0101
0000
0001
0010
0011
0000
,
0100
1000
1010
0000
0010
1000
1001
0000
,
0001
0100
0110
0000
0010
1000
1100
0000
,
0001
1000
0001
1000
0000
0000
0001
0000
1000
0000
0001
0000
0100
0000
0010
0000
,
1000
0100
1000
0100
0000
0000
1000
0000
0100
0000
0010
0000
0001
0000
0100
0000
,
0001
0100
0001
0100
0000
0000
0001
0000
0100
0000
0010
0000
1000
0000
0100
0000
,
1000
0100
1000
0100
0000
0000
1000
0000
0100
0000
0010
0000
0001
0000
0100
0000
,
0010
0100
0010
0000
0100
0000
0001
0000
1000
0010
1000
0000
0001
0000
1000
0000
,
0001
0010
0001
0000
0010
0000
0100
0000
1000
0010
1000
0000
0010
0000
1000
0000
,
0100
1000
0100
0000
1000
0000
0010
0000
0100
0010
0100
0000
0001
0000
0100
0000
,
0010
0100
0010
0100
0010
0000
0100
0000
0001
1000
0001
1000
0001
0000
1000
0000
,
2002
0000
0000
0000
3003
0000
0000
0000
0010
0000
0000
0000
1000
0000
0001
1000
,
0010
0000
1000
0000
0001
1000
0010
1000
,
0001
1000
0000
1010
0000
0101
0000
0010
,
1000
0010
0000
1010
0000
0101
0000
0001
,
0010
0001
0000
0011
0000
1100
0000
0010
,
1000
0001
0000
1001
0000
0110
0000
0001
,
1000
0001
0000
0011
0000
1100
0000
0010
,
1000
0010
0000
1010
0000
0101
0000
0010
,
1000
0010
1000
0001
1000
0010
1000
0001
,
1000
0010
1000
0000
0010
0000
0100
0000
0001
0000
0100
0000
0010
0000
1000
0000
,
0001
1000
0001
0000
0010
0000
0001
0000
0010
0000
0001
0000
1000
0000
0001
0000
,
1000
0010
1000
0000
0010
0000
1000
0000
0100
0000
1000
0000
0010
0000
1000
0000
,
0100
1000
0100
0000
1000
0000
0001
0000
0100
0000
0001
0000
0100
0000
0010
0000
,
0100
0001
0100
0000
0010
0000
0100
0000
0001
0000
1000
0000
0100
0000
0010
0000
,
0001
0010
0001
0000
1000
0000
0010
0000
1000
0000
0001
0000
0100
0000
0010
0000
,
1000
0001
1000
0000
0001
0000
0010
0000
0100
0000
1000
0000
0001
0000
1000
0000
,
0010
1000
0010
0000
1000
0000
0010
0000
1000
0010
0000
1000
0001
0000
0100
0010
,
0100
0000
0010
0000
0000
0100
0000
0000
0110
0000
0000
1001
0000
0000
0001
1000
,
0000
0000
0010
0000
0000
0101
0000
0000
0110
0000
0000
1001
0000
0000
0010
1000
,
0000
0000
0110
0000
0000
1001
0000
0000
0110
0000
0000
1001
0000
0000
0010
1000
,
0000
0000
0101
0000
0000
1010
0000
0000
0011
0000
0000
1100
0000
0000
0001
1000
,
0000
0000
0110
0000
0000
1001
0000
0000
0011
0000
0000
1100
0000
0000
1010
0000
,
0000
0000
0001
0000
0000
0100
0000
0000
0010
0000
0000
1000
0000
0000
0001
0000
,
0000
0000
1010
0000
0000
0101
0000
0000
1010
0000
0000
1001
0000
0000
0010
1000
,
0000
0000
0001
0000
0000
0100
0000
0000
0010
0000
0000
1000
0000
0000
0001
0000
,
2002
0000
0000
0000
3003
0000
0000
0000
0000
0000
0100
0000
0010
0000
0100
0001
,
1000
0001
1000
0001
0000
0000
1000
0000
0001
0000
1000
0000
0010
0000
0100
0000
,
0001
0010
0001
0010
0000
0000
0001
0000
0010
0000
0100
0000
1000
0000
0010
0000
,
1000
0010
1000
0010
0000
0000
1000
0000
0010
0000
0100
0000
0001
0000
0010
0000
,
0001
0010
0001
0010
0000
0000
0001
0000
0010
0000
0100
0000
1000
0000
0010
0000
,
0100
0010
0100
0010
0000
0000
1000
0000
0001
0100
0001
0000
1000
0000
0001
0000
,
1000
0100
1000
0100
0000
0000
0010
0000
0001
0100
0001
0000
0100
0000
0001
0000
,
0010
0001
0010
0001
0000
0000
0100
0000
0010
0100
0010
0000
1000
0000
0010
0000
,
0100
0010
0100
0010
0000
0000
0100
0000
0001
1000
0001
0000
1001
0000
0110
0000
,
1001
0000
0000
0000
;

//---------------dance-single - ----------------
#NOTES:
     dance-single:
     :
     Edit:
     11:
     0.992,0.908,0.851,0.040,1.000: // measure 1
0000
0000
0000
0000
,  // measure 2
1000
0010
0100
0001
0000
1000
0100
0001
0010
1000
0100
0000
0011
0000
0110
0000
,  // measure 3
1000
0010
0100
0010
0000
1000
0100
0001
0010
0100
1000
0000
0110
0000
0110
0000
,  // measure 4
1000
0100
0010
0100
0000
1000
0100
0010
0001
0100
1000
0000
0011
0000
0110
0000
,  // measure 5
1000
0100
0010
0100
0000
1000
0100
0010
0001
0010
0001
0000
1100
0000
0110
0000
,  // measure 6
0100
1000
0010
1000
0000
1000
0100
1000
0010
0100
0010
0001
0010
0100
1000
0001
,  // measure 7
0010
1000
0010
1000
0000
1000
0010
0100
0010
1000
0100
1000
0010
1000
0001
0000
,  // measure 8
0010
1000
0010
1000
0000
1000
0100
0010
0100
1000
0010
1000
0010
1000
0100
0000
,  // measure 9
0010
0001
0010
0100
0000
0010
0100
0001
0010
1000
0100
0010
1000
0100
0001
0010
,  // measure 10
1000
0100
0010
0100
0011
0000
0011
0000
0100
0010
1000
0100
0110
0000
0011
0000
,  // measure 11
1000
0100
0010
0001
0100
0010
1000
0100
0010
0001
0100
0010
1100
0000
0110
0000
,  // measure 12
1000
0100
0010
0001
0110
0000
0110
0000
1000
0100
0010
1000
0110
0000
0110
0000
,  // measure 13
0001
0100
0010
1000
0100
0010
0001
1000
0100
0010
0001
0100
1010
0000
0110
0000
,  // measure 14
1000
0100
0010
0001
0000
1000
0100
0010
0001
0100
0010
0000
0110
0000
0110
0000
,  // measure 15
1000
0100
0010
0001
0000
0100
0010
1000
0100
0010
0001
0000
0110
0000
0110
0000
,  // measure 16
1000
0100
0010
0001
0000
0010
0100
0010
1000
0001
0100
0000
0110
0000
0110
0000
,  // measure 17
1000
0100
0010
0001
0000
1000
0100
0010
0001
0100
1000
0000
0110
0000
0110
0000
,  // measure 18
1000
0100
0010
0001
0110
0000
1100
0000
0100
0010
0001
0100
0110
0000
0011
0000
,  // measure 19
1000
0100
0010
0001
1000
0100
0010
0001
0100
1000
0100
0010
1100
0000
0011
0000
,  // measure 20
1000
0100
0010
0001
0110
0000
0110
0000
1000
0100
0010
0001
0110
0000
1100
0000
,  // measure 21
1000
0100
0010
0001
1000
0100
0010
0001
0100
1000
0100
0010
1000
0100
0001
0100
,  // measure 22
0022
0000
0000
0000
0000
0000
0033
0000
1000
0000
0000
0000
0100
0000
0010
0100
,  // measure 23
0001
0100
0010
1000
0100
0010
0001
0100
,  // measure 24
1000
0000
0010
0100
0010
0000
0001
0100
0010
0000
1000
0100
0010
0000
1000
0100
,  // measure 25
0010
0000
0001
0010
0100
0000
0010
0100
0001
0000
0010
0100
1000
0000
0100
0010
,  // measure 26
0001
0000
0100
0010
1000
0000
0100
0010
0100
0000
0001
1000
0001
0000
0100
0010
,  // measure 27
0100
0000
0100
0000
0010
0000
1000
0100
0010
0000
0001
0010
0100
0000
0100
0010
,  // measure 28
0100
0000
0100
0010
0100
0000
1000
0100
0010
0000
0100
1000
0001
0000
1000
0100
,  // measure 29
0010
0000
0100
0001
0010
0000
0100
1000
0100
0000
0010
0001
0100
0000
1000
0010
,  // measure 30
0100
1000
0100
0010
0001
0100
0010
1000
,  // measure 31
0100
0010
0001
0000
0100
1000
0010
0000
0100
0001
0100
0000
0010
0100
0001
0000
,  // measure 32
0010
0100
1000
0000
0100
0010
1000
0000
0100
0010
0001
0000
0010
0100
0010
0000
,  // measure 33
1000
0100
0001
0000
0010
0100
0010
0000
1000
0100
0010
0000
0100
1000
0001
0000
,  // measure 34
0100
1000
0100
0000
0010
0001
0100
0000
0001
0100
0010
0000
1000
0001
0010
0000
,  // measure 35
0100
0010
0001
0000
0100
1000
0010
0000
0100
0001
0100
0000
0010
0100
0001
0000
,  // measure 36
0010
0100
1000
0000
0100
0010
1000
0000
0100
0010
0001
0000
0010
0100
0010
0000
,  // measure 37
1000
0100
0001
0000
0010
0100
0010
0000
1000
0100
0010
0000
0100
1000
0001
0000
,  // measure 38
1000
0010
0001
0000
0100
0010
0001
0000
1000
0010
0000
0100
0010
0000
1000
0100
,  // measure 39
0001
0000
1010
0000
0000
0101
0000
0000
1100
0000
0000
0110
0000
0000
1000
0100
,  // measure 40
0100
0000
0011
0000
0000
1100
0000
0000
1010
0000
0000
1001
0000
0000
0010
1000
,  // measure 41
0010
0000
1100
0000
0000
0011
0000
0000
0101
0000
0000
1001
0000
0000
0100
0001
,  // measure 42
1000
0000
0101
0000
0000
1010
0000
0000
0011
0000
0000
0110
0000
0000
0001
0010
,  // measure 43
0100
0000
0011
0000
0000
1100
0000
0000
1010
0000
0000
1001
0000
0000
0010
1000
,  // measure 44
0100
0000
0101
0000
0000
1010
0000
0000
0110
0000
0000
1100
0000
0000
0001
0010
,  // measure 45
0100
0000
0110
0000
0000
0011
0000
0000
0110
0000
0000
1100
0000
0000
0100
0010
,  // measure 46
0001
0000
1010
0000
0000
0101
0000
0000
1100
0000
0000
0110
0000
0000
1000
0100
,  // measure 47
0022
0000
0000
0033
0000
0010
0001
0100
,  // measure 48
1000
0100
0010
0100
0000
1000
0100
0010
0001
0010
0001
0000
1000
0000
0110
0000
,  // measure 49
0100
0001
1000
0001
0000
0100
0001
1000
0010
1000
0010
0000
0100
0000
1001
0000
,  // measure 50
0010
1000
0001
1000
0000
0010
1000
0001
0100
0001
0100
0000
0010
0000
1001
0000
,  // measure 51
0010
1000
0001
1000
0000
0010
1000
0001
0100
0001
0100
0000
0010
0000
1001
0000
,  // measure 52
1000
0100
0010
0100
0000
1000
0100
0010
0001
0010
0001
0000
1000
0000
0110
0000
,  // measure 53
0001
0010
0100
0010
0000
0001
0010
0100
1000
0100
1000
0000
0001
0000
0110
0000
,  // measure 54
1000
0100
0010
0001
0110
0000
0110
0000
1000
0100
0010
0100
0011
0000
0110
0000
,  // measure 55
1000
0100
0010
0001
0000
0010
0100
0010
0001
0100
0010
0000
1001
0000
0110
0000
,  // measure 56
1001
0000
0000
0000
;

//---------------dance-single - ----------------
#NOTES:
     dance-single:
     :
     Medium:
     7:
     0.475,0.413,0.030,0.040,0.160:
0000
0000
0000
0000
,
1000
0000
0000
0001
0000
0000
1000
0000
0100
0000
1000
0000
0010
0000
1000
0000
,
0010
0000
0000
1000
0000
0000
0100
0000
1000
0000
0001
0000
1000
0000
0001
0000
,
0100
0000
0000
0010
0000
0000
1000
0000
0100
0000
1000
0000
0001
0000
0100
0000
,
0010
0000
0000
0010
0000
0000
1000
0000
0001
0000
1000
0000
0100
0000
1000
0000
,
0010
1000
0100
0000
1000
0001
0100
0000
,
0010
1000
0001
0000
0100
0010
1000
0000
,
0001
0100
0001
0000
1000
0100
1000
0000
,
0001
0100
0010
0000
1000
0001
0100
0000
,
0001
0010
0001
0000
1000
0001
1000
0000
,
0010
0100
0010
0000
1000
0001
0100
0000
,
0010
1000
0010
0000
0100
0010
0100
0000
,
0010
1000
0001
0000
0010
0001
0010
0000
,
0001
0000
0000
1000
0000
0000
0001
0000
0010
0000
0001
0000
0100
0000
0001
0000
,
0100
0000
0000
0001
0000
0000
0100
0000
0001
0000
0100
0000
0010
0000
1000
0000
,
0010
0000
0000
0100
0000
0000
0001
0000
0010
0000
0001
0000
1000
0000
0010
0000
,
1000
0000
0000
0010
0000
0000
0100
0000
0001
0000
0100
0000
0010
0000
1000
0000
,
1000
0000
0001
0000
0010
0001
0100
0000
,
0001
0000
0010
0000
0001
0100
0001
0000
,
1000
0000
0010
0000
0100
0010
0100
0000
,
0001
0000
1000
0000
0100
1000
0001
0100
,
2002
0000
0000
3003
1000
0000
0100
0010
,
0001
1000
0000
1000
0000
1000
0000
0001
,
0100
0001
0000
0010
0000
0010
0000
0001
,
1000
0010
0000
0100
0000
0100
0000
0001
,
0010
0001
0000
1000
0000
1000
0000
0010
,
0100
0010
0000
1000
0000
1000
0000
0001
,
0010
0001
0000
0100
0000
0100
0000
0010
,
1000
0100
0000
0010
0000
0001
0000
1000
,
0001
0010
0000
0100
0000
0100
0000
1000
,
0010
1000
0010
0000
0100
0010
0100
0000
,
0001
0100
0001
0000
0010
0001
0010
0000
,
0100
0010
0100
0000
1000
0100
1000
0000
,
0010
1000
0010
0000
0100
0010
0100
0000
,
0001
1000
0001
0000
0010
0001
0010
0000
,
0100
1000
0100
0000
1000
0010
1000
0000
,
0010
0100
0001
0000
0010
0100
1000
0000
,
0010
0100
0001
0000
1000
0010
0100
0001
,
1000
0000
0010
0000
0000
0010
0000
0000
0010
0000
0000
1000
0000
0000
0001
0000
,
0000
0000
1000
0000
0000
0001
0000
0000
0010
0000
0000
0001
0000
0000
1000
0000
,
0001
0000
0010
0000
0000
0100
0000
0000
1000
0000
0000
0010
0000
0000
0100
0000
,
0000
0000
0001
0000
0000
0010
0000
0000
0001
0000
0000
0100
0000
0000
0010
0000
,
1000
0000
0001
0000
0000
0010
0000
0000
0100
0000
0000
1000
0000
0000
0010
0000
,
1000
0000
0010
0000
0000
0100
0000
0000
0010
0000
0000
1000
0000
0000
0001
0000
,
1000
0000
0010
0000
0000
0100
0000
0000
0001
0000
0000
1000
0000
0000
0001
0000
,
0010
0000
0100
0000
0000
1000
0000
0000
0010
0000
0000
0100
0000
0000
0001
0000
,
2002
0000
0000
0000
3003
0001
0100
0010
,
1000
0000
0000
0010
0000
0000
1000
0000
0010
0000
0100
0000
0001
0000
0010
0000
,
0100
0000
0000
1000
0000
0000
0010
0000
0100
0000
0001
0000
1000
0000
0001
0000
,
0010
0000
0000
0001
0000
0000
1000
0000
0001
0000
0100
0000
0010
0000
1000
0000
,
0001
0000
0000
0010
0000
0000
0100
0000
1000
0000
0010
0000
0100
0000
0001
0000
,
1000
0000
0000
0001
0000
0000
1000
0000
0010
0000
0100
0000
0001
0000
0010
0000
,
0100
0000
0000
1000
0000
0000
0001
0000
1000
0000
0010
0000
1000
0000
0001
0000
,
0100
0000
0000
0010
0000
0000
1000
0000
0001
0000
0010
0000
0100
0000
1000
0000
,
0010
0000
0000
1000
0000
0000
0001
0000
0100
0000
0010
0000
1000
0000
0001
0000
,
1001
0000
0000
0000
;

//---------------dance-single - ----------------
#NOTES:
     dance-single:
     :
     Easy:
     4:
     0.320,0.303,0.250,0.040,0.000:
0000
0000
0000
0000
,
1000
0100
1000
1010
,
0100
1000
0001
0011
,
1000
0100
1000
1010
,
0001
1000
0010
0110
,
0001
0010
1000
0100
,
1000
0001
1000
0010
,
0100
0001
1000
0010
,
0100
0001
1000
0010
,
0001
1000
0100
0011
,
0100
1000
0010
0110
,
0001
1000
0100
0011
,
0100
1000
0010
1100
,
0001
0000
1000
0100
,
0010
0000
1000
0001
,
0010
0000
1000
0100
,
0001
0000
1000
0010
,
1000
0000
0001
1000
,
0010
0000
1000
0001
,
1000
0000
0001
1000
,
0010
0000
1000
0001
,
2200
0000
0000
3300
,
0001
1000
0010
1000
,
0100
0001
0100
0010
,
0001
1000
0100
0010
,
0100
0001
1000
0010
,
0001
0100
0010
1000
,
0100
0001
0100
0010
,
1000
0100
0100
1000
,
0001
0010
0100
0001
,
0010
0100
0001
0011
,
0100
1000
0010
0110
,
0001
1000
0100
1100
,
0010
0100
0001
0011
,
0100
1000
0010
0110
,
0001
1000
0010
1100
,
0001
0100
0010
0011
,
0100
1000
0010
1000
,
0100
0000
1000
0001
,
0010
0000
1000
0100
,
0001
0000
0010
0100
,
0001
0000
1000
0010
,
0001
0000
0100
0010
,
0001
0000
1000
0001
,
0010
0000
1000
0100
,
0010
0000
1000
0001
,
2002
0000
0000
3003
,
0001
1000
0001
0011
,
1000
0100
0010
0110
,
0001
1000
0100
0110
,
0001
1000
0100
0011
,
1000
0100
0001
0011
,
0100
1000
0010
0110
,
1000
0100
0010
1010
,
0100
0100
0010
0010
,
1001
0000
0000
0000
;
