#TITLE:Begin To Spin Me Round;
#SUBTITLE:;
#ARTIST:Dannii Minogue vs. Dead Or Alive;
#TITLETRANSLIT:;
#SUBTITLETRANSLIT:;
#ARTISTTRANSLIT:;
#CREDIT:;
#BANNER:Begin To Spin Me Round-BN.png;
#BACKGROUND:Begin To Spin Me Round-bg.png;
#LYRICSPATH:;
#CDTITLE:cd.png;
#MUSIC:Begin To Spin Me Round.mp3;
#OFFSET:-0.020;
#SAMPLESTART:36.790;
#SAMPLELENGTH:12.000;
#SELECTABLE:YES;
#BPMS:0.000=128.430;
#STOPS:112.000=0.030
;
#BGCHANGES:;

//---------------dance-single - ----------------
#NOTES:
     dance-single:
     :
     Hard:
     7:
     0.493,0.492,0.204,0.213,0.056: // measure 1
0000
0000
0000
0000
,  // measure 2
0000
0000
0000
0000
,  // measure 3
0000
0000
0000
0000
,  // measure 4
0000
0000
0000
0000
,  // measure 5
1000
0010
1000
0000
0001
0100
0001
0100
,  // measure 6
0010
1000
0100
0000
0100
1000
0010
0100
,  // measure 7
0001
0010
0001
0000
0100
0010
1000
0001
,  // measure 8
0021
0000
0130
0000
1100
1000
1000
0000
,  // measure 9
0001
0100
0010
1000
0001
0010
0100
0010
,  // measure 10
0001
0000
0001
0010
0100
1000
0001
0100
,  // measure 11
0010
0000
0010
1000
0100
1000
0010
0100
,  // measure 12
0001
0000
0010
0000
0011
0000
0100
1000
,  // measure 13
0020
0000
2030
0000
3001
0001
1001
0000
,  // measure 14
0200
0000
0302
0000
0013
0010
0011
0000
,  // measure 15
0002
0000
2003
0000
3010
0010
1010
0000
,  // measure 16
0100
0010
0110
0000
0001
1000
1001
0000
,  // measure 17
0001
0100
0010
1000
0100
0100
0100
0000
,  // measure 18
1000
0010
0100
0001
0010
0010
0010
0000
,  // measure 19
0001
0010
0100
1000
0001
0001
0002
0000
,  // measure 20
2003
0000
3100
0010
0100
0010
0100
0000
,  // measure 21
2001
0001
0010
0100
,  // measure 22
3001
0000
0001
0100
0010
0000
0010
0100
,  // measure 23
0001
1000
0001
0100
0010
1000
0001
0100
,  // measure 24
0020
0000
0230
0000
0301
0001
0001
0000
,  // measure 25
0210
0010
1000
0010
,  // measure 26
0301
0000
0100
0001
0100
0000
0100
0001
,  // measure 27
0010
0100
1000
0001
0100
0010
1000
0001
,  // measure 28
0100
0000
1100
0000
2100
0100
3100
0000
,  // measure 29
0001
0100
0001
0100
0010
1000
0100
0000
,  // measure 30
0100
1000
0001
0010
0001
0100
0001
0000
,  // measure 31
1000
0010
0100
0001
0100
0001
0010
0000
,  // measure 32
0001
0100
0001
0100
0010
1000
0010
0000
,  // measure 33
0010
0100
0001
1000
0100
0010
1001
0000
,  // measure 34
0001
0010
0100
1000
0001
1000
0110
0000
,  // measure 35
0001
0010
0100
1000
0010
0100
1010
0000
,  // measure 36
0100
1000
0010
0100
0001
1000
0010
0000
,  // measure 37
2010
0000
0001
0000
0010
0010
3010
0000
,  // measure 38
0102
0000
1000
0000
0100
0100
0103
0000
,  // measure 39
1002
1000
0100
0010
,  // measure 40
1003
0000
1000
0010
0100
0000
0100
0010
,  // measure 41
1000
0001
1000
0010
0100
0001
1000
0010
,  // measure 42
0200
0000
0320
0000
1030
1000
1000
0000
,  // measure 43
0120
0100
0001
0100
,  // measure 44
1030
0000
0010
1000
0010
0000
0010
1000
,  // measure 45
0100
0010
0001
0100
0010
0100
0001
1000
,  // measure 46
0010
0000
1010
0000
2010
0010
3010
0000
,  // measure 47
1000
0010
0100
0010
1000
0010
0010
0000
,  // measure 48
1000
0001
0100
0010
1000
0100
0100
0000
,  // measure 49
0010
0001
0010
0100
1000
0100
0100
0000
,  // measure 50
0100
1000
0010
1000
0001
1000
1001
0000
,  // measure 51
0001
0000
1000
0000
0010
0000
0100
0000
0010
0100
0000
0010
0000
0100
0010
0000
,  // measure 52
0100
0000
0001
0000
0100
0000
0001
0000
0100
0001
0000
0100
0000
0001
0100
0000
,  // measure 53
0010
0000
1000
0000
0100
0000
1000
0000
0010
1000
0000
0010
0000
1000
0010
0000
,  // measure 54
0100
0000
0001
0000
0100
0000
0010
0000
0100
0010
0000
0100
0000
0010
0100
0000
,  // measure 55
0020
0100
0100
0100
,  // measure 56
0200
0000
0000
0000
,  // measure 57
0330
0000
0000
0000
;

//---------------dance-single - ----------------
#NOTES:
     dance-single:
     :
     Medium:
     5:
     0.350,0.382,0.000,0.268,0.000:
0000
0000
0000
0000
,
0000
0000
0000
0000
,
0000
0000
0000
0000
,
0000
0000
0000
0000
,
1000
0000
0010
0000
0100
0010
0100
0000
,
0001
0000
1000
0000
0001
0100
0001
0000
,
1000
0000
0010
0000
1000
0010
1000
0000
,
0020
0130
0001
1000
,
0001
0010
0002
0000
0103
0000
1000
0000
,
0100
0001
0200
0000
0301
0000
0100
0000
,
1000
0010
2000
0000
3010
0000
0100
0000
,
0002
0000
1003
0000
2000
0000
0001
3000
,
0020
0000
0130
0000
0010
0100
0010
0000
,
0002
0000
0013
0000
0010
0001
0010
0000
,
0100
0010
0100
0000
0001
0100
0001
0000
,
1000
0000
0010
0000
0100
0010
1000
0001
,
2000
0000
3010
0000
0100
0010
0100
0000
,
0002
0000
0103
0000
0001
0100
0001
0000
,
0100
0000
1000
0000
0100
1000
0010
0000
,
1000
0010
0100
0000
0001
0100
0010
1000
,
0020
0000
0100
0100
,
0130
0000
0001
1000
,
0010
1000
0010
0000
0100
0000
0001
0000
,
0010
0100
0010
0000
0100
0000
0001
0000
,
2000
0000
0001
0001
,
3001
0000
0100
0001
,
1000
0010
0100
0000
0010
0000
0001
0000
,
0100
0010
0001
0000
0100
0000
0001
0000
,
1000
0100
1000
0000
2000
0000
3001
0000
,
0001
0100
0001
0000
0002
0000
0103
0000
,
0010
0100
0010
0000
0020
0000
0130
0000
,
0100
0010
0100
0000
0200
0000
0310
0000
,
0010
1000
0010
0000
0100
1000
0100
0000
,
0001
1000
0010
0100
,
0001
0100
0001
0000
0100
0010
0100
0000
,
1000
0001
0010
0100
,
2000
0000
0001
0001
,
3002
0000
1000
1000
,
2003
0000
0010
0010
,
3010
0000
1000
0001
,
0100
0001
0100
0000
0010
0000
1000
0000
,
0100
0010
0100
0000
0010
0000
1000
0000
,
0002
0000
1000
1000
,
1003
0000
0010
1000
,
0001
0100
0010
0000
0100
0000
1000
0000
,
0010
0100
1000
0000
0010
0000
1000
0000
,
0001
0010
0001
0000
0002
0000
1003
0000
,
1000
0010
1000
0000
2000
0000
3010
0000
,
0100
0010
0100
0000
0200
0000
0310
0000
,
0010
0100
0010
0000
0020
0000
0130
0000
,
0100
0001
0100
0000
0010
0001
0010
0000
,
1000
0010
0100
0000
0100
0010
0100
0000
,
1000
0010
1000
0000
0010
0100
0010
0000
,
0002
2003
3200
0320
,
0032
0000
0000
0000
,
1003
0000
0000
0000
;

//---------------dance-single - ----------------
#NOTES:
     dance-single:
     :
     Easy:
     3:
     0.283,0.356,0.102,0.315,0.000:
0000
0000
0000
0000
,
0000
0000
0000
0000
,
0000
0000
0000
0000
,
0000
0000
0000
0000
,
1000
0010
0200
0300
,
0001
1000
0002
0003
,
1000
0010
1000
0100
,
0020
0130
0001
1000
,
0001
0010
0200
0300
,
0100
0010
0002
0003
,
1000
1000
0010
0100
,
0002
1003
2000
0001
,
3020
0100
0130
0000
,
0002
0010
0013
0000
,
0200
0010
0301
0002
,
2000
3003
0100
1010
,
0001
0010
0200
0310
,
0001
0100
0002
0103
,
0100
1000
0200
1300
,
1000
0100
0001
0100
,
0020
0000
0100
0100
,
0130
0000
0001
1000
,
0010
0000
0100
0001
,
0010
0110
0100
0001
,
2000
0000
0001
0001
,
3001
0000
0100
0001
,
1000
0000
0010
0001
,
0100
0011
0100
0001
,
1000
1000
2000
3000
,
0001
0001
0002
0003
,
0010
0010
0020
0030
,
0100
0100
0200
0310
,
0010
1000
1010
0000
,
0001
1000
1001
0000
,
0001
0100
0101
0000
,
1000
0001
0010
0100
,
2000
0000
0001
0001
,
3002
0000
1000
1000
,
2003
0000
0010
0010
,
3010
0000
1000
0001
,
0100
0000
0010
1000
,
0100
0110
0010
1000
,
0002
0000
1000
1000
,
1003
0000
0010
1000
,
0001
0000
0100
1000
,
0010
1100
0010
1000
,
0001
0001
0002
0003
,
1000
1000
2000
3000
,
0100
0100
0200
0300
,
0010
0010
0020
0130
,
0100
0001
0101
0000
,
1000
0010
1010
0000
,
1000
0010
1100
0100
,
0002
0203
0320
2030
,
3002
0000
0000
0000
,
0003
0000
0000
0000
;
