#TITLE:Beautiful Day;
#SUBTITLE:;
#ARTIST:Dee Dee & Regina;
#TITLETRANSLIT:;
#SUBTITLETRANSLIT:;
#ARTISTTRANSLIT:;
#CREDIT:;
#BANNER:Beautiful Day-bn.png;
#BACKGROUND:Beautiful Day-bg.png;
#LYRICSPATH:Beautiful Day.lrc;
#CDTITLE:Super Eurobeat 155.png;
#MUSIC:Beautiful Day.mp3;
#OFFSET:-7.540;
#SAMPLESTART:62.350;
#SAMPLELENGTH:12.000;
#SELECTABLE:YES;
#BPMS:0.000=158.000;
#STOPS:;
#BGCHANGES:;

//---------------dance-single - ----------------
#NOTES:
     dance-single:
     :
     Hard:
     8:
     0.561,0.559,0.068,0.233,0.340:
1000
2000
0001
3001
,
0001
0002
1000
1003
,
0010
0100
0001
1000
,
0001
0001
1000
1000
0001
1000
0001
1000
,
0000
0000
0110
1001
,
1000
0001
1000
0001
0000
1000
0001
1000
0001
0000
0000
0000
1000
0000
0010
0000
,
1000
0001
0000
1000
0000
0001
0000
1000
0000
0001
1000
0000
0001
0000
0000
0000
,
0010
0100
0010
0100
0000
0010
0100
0010
0100
0000
0000
0000
0010
0000
0001
0000
,
0010
0100
0000
0010
0000
0100
0000
0010
0000
0100
0010
0000
0100
0000
0000
0000
,
1000
0100
1000
0100
0000
1000
0100
1000
0100
0000
0000
0000
1000
0000
0001
0000
,
0100
0001
0000
0100
0000
0001
0000
1000
0000
0001
1000
0000
0001
0000
0000
0000
,
0010
0001
0010
0001
0000
0010
0001
0010
0001
0000
0000
0000
1000
0000
0001
0000
,
0100
0010
0000
1000
0000
0001
0000
0100
0010
0000
1000
0000
0000
0000
0000
0000
,
0001
1000
0010
0100
,
1000
0000
0001
0000
0100
0010
1000
0001
,
1000
0000
0010
0100
0001
0000
1000
0010
,
1000
0001
0100
0010
,
1000
0001
1000
0000
0010
0100
0010
0000
,
0100
0001
0100
0000
0001
1000
0010
0000
,
2000
0010
0001
3010
,
0002
1000
0100
1003
,
0001
1000
0001
0100
,
0001
0000
1000
0000
0010
0100
0001
1000
,
0001
0000
0100
0010
1000
0000
0001
0100
,
0001
1000
0010
0100
,
0001
1000
0001
0000
0100
0010
0100
0000
,
0010
1000
0010
0000
1000
0001
0100
0000
,
0002
0100
1000
0103
,
2000
0001
0010
3001
,
0200
0000
0000
0010
0000
0010
0000
0010
,
0000
0310
0000
0000
0000
0000
1000
0000
,
0001
0000
1000
0010
1000
0000
0001
0100
,
0010
1000
0001
0100
,
0010
0100
0010
0000
1000
0001
1000
0000
,
0010
1000
0010
0000
0100
0001
0100
0010
,
1000
0001
0000
1000
0000
0010
0000
1001
,
0000
0000
1001
0000
,
1002
0000
1003
0000
0100
1000
0001
0100
,
0010
0000
0100
0001
1000
0000
0010
0100
,
0002
0203
0320
2030
,
3001
1000
0010
0100
0001
1000
0010
0100
,
0002
0000
1003
0010
2000
0000
3001
0100
,
0020
0000
1030
0001
0200
0000
0301
1000
,
0100
0000
1000
0000
0010
0000
0100
0001
,
1000
0010
0100
0001
1000
0010
0100
0010
,
0000
0000
1001
0000
0010
1000
0001
0100
,
0010
0000
1000
0001
0100
0000
0010
1000
,
0002
0203
0320
2030
,
3001
1000
0010
0100
0001
1000
0010
0100
,
0002
0000
0013
0100
2000
0000
3001
0100
,
0020
0000
1030
0001
0200
0000
0301
1000
,
0010
0000
0100
0001
0100
0010
1000
0001
,
0000
1000
0000
0010
0000
1001
0000
0000
,
0001
1000
0001
1000
0000
0001
1000
0001
1000
0000
0000
0000
0001
0000
0100
0000
,
0001
1000
0000
0001
0000
1000
0000
0001
0000
1000
0001
0000
1000
0000
0000
0000
,
0100
0010
0100
0010
0000
0100
0010
0100
0010
0000
0000
0000
0100
0000
1000
0000
,
0100
0010
0000
0100
0000
0010
0000
0100
0000
0010
0100
0000
0010
0000
0000
0000
,
0001
0010
0001
0010
0000
0001
0010
0001
0010
0000
0000
0000
0001
0000
1000
0000
,
0010
1000
0000
0010
0000
1000
0000
0001
0000
1000
0001
0000
1000
0000
0000
0000
,
0100
1000
0100
1000
0000
0100
1000
0100
1000
0000
0000
0000
0001
0000
1000
0000
,
0010
0100
0000
0001
0000
1000
0000
0010
0100
0000
0001
0000
0000
0000
0000
0000
;

//---------------dance-single - ----------------
#NOTES:
     dance-single:
     :
     Medium:
     5:
     0.366,0.382,0.107,0.029,0.000: // measure 1
0010
0010
0010
0000
,  // measure 2
0100
0100
0100
0000
,  // measure 3
0001
1000
0010
1000
,  // measure 4
0002
0000
1000
1000
,  // measure 5
1003
0000
1000
1010
,  // measure 6
0010
0010
1000
0000
,  // measure 7
0001
1000
0001
0000
0100
0001
0100
0000
,  // measure 8
1000
1000
1000
0000
,  // measure 9
0010
1000
0010
0000
0100
0001
0100
0000
,  // measure 10
0001
0001
0001
0000
,  // measure 11
0010
0100
0010
0000
1000
0100
1000
0000
,  // measure 12
1000
0001
1000
0000
,  // measure 13
0001
1000
0001
0000
1001
0000
0000
0000
,  // measure 14
0010
0010
0010
0000
,  // measure 15
0100
0100
0100
0000
,  // measure 16
0010
0100
0001
1000
,  // measure 17
1001
0000
0001
0001
,  // measure 18
1000
1000
0001
0001
,  // measure 19
1000
0010
1000
0000
,  // measure 20
0010
0000
0100
0000
0001
0100
0001
0000
,  // measure 21
1000
0001
1000
0000
0010
1000
0010
0000
,  // measure 22
0010
0010
0100
0100
,  // measure 23
0010
1000
0001
1000
,  // measure 24
0010
1000
0010
0000
0100
0010
0100
0000
,  // measure 25
0001
1000
0001
1000
,  // measure 26
0001
0100
0010
0000
0100
0001
1000
0000
,  // measure 27
0001
0010
0100
0000
1000
0010
1000
0000
,  // measure 28
0010
0100
0001
1000
,  // measure 29
0010
1000
0001
1000
,  // measure 30
0020
0000
0000
0100
0000
0100
0000
0100
,  // measure 31
0000
0130
0000
0000
0000
0000
0100
0000
,  // measure 32
0010
1000
0001
1000
,  // measure 33
0001
0000
1000
0001
,  // measure 34
2000
0000
0000
0010
0000
0010
0000
0010
,  // measure 35
0000
3010
0000
0000
0000
1000
0000
0010
,  // measure 36
0000
1000
0000
0010
0000
1000
0000
1001
,  // measure 37
0000
0000
1001
0000
,  // measure 38
1001
0010
0100
0010
,  // measure 39
1001
0010
0100
0001
,  // measure 40
1000
1000
0001
0001
,  // measure 41
1000
0001
0100
0000
,  // measure 42
1000
0010
1000
0000
0001
1000
0001
0000
,  // measure 43
0010
0001
0010
0000
0001
0100
0001
0000
,  // measure 44
0100
0010
1000
0000
0001
0000
1000
0000
,  // measure 45
0010
1000
0001
1000
,  // measure 46
1001
0000
0010
0100
,  // measure 47
1001
0001
1000
0010
,  // measure 48
1000
1000
0010
0001
,  // measure 49
0001
1000
0001
0000
0001
0100
0001
0000
,  // measure 50
0001
0000
1000
0010
1000
0000
0001
0100
,  // measure 51
0010
0000
1000
0001
0100
0000
0010
1000
,  // measure 52
0010
0100
0010
1000
,  // measure 53
0001
1000
1001
0000
,  // measure 54
0100
0100
0001
0000
,  // measure 55
1000
0001
1000
0000
0010
1000
0010
0000
,  // measure 56
0001
0001
0001
0000
,  // measure 57
0100
0001
0100
0000
0010
1000
0010
0000
,  // measure 58
1000
1000
1000
0000
,  // measure 59
0100
0010
0100
0000
0001
0010
0001
0000
,  // measure 60
0001
1000
0001
0000
,  // measure 61
1000
0001
1000
0000
1001
0000
0000
0000
;

//---------------dance-single - ----------------
#NOTES:
     dance-single:
     :
     Easy:
     3:
     0.236,0.237,0.068,0.058,0.000: // measure 1
1000
0000
0001
0000
,  // measure 2
1000
0001
1000
0000
,  // measure 3
0010
0000
0100
0000
,  // measure 4
0010
0100
0010
0000
,  // measure 5
1001
0000
0000
0000
,  // measure 6
1000
1000
1000
0000
,  // measure 7
0001
0000
1000
0000
,  // measure 8
0001
0001
0001
0000
,  // measure 9
1000
0000
0010
0000
,  // measure 10
0100
0100
0100
0000
,  // measure 11
0010
0000
0100
0000
,  // measure 12
0001
0001
0001
0000
,  // measure 13
1000
0000
1001
0000
,  // measure 14
0001
0000
1000
0000
,  // measure 15
0001
1000
0001
1000
,  // measure 16
0010
0000
0100
0000
,  // measure 17
0010
0100
0010
0100
,  // measure 18
0001
0000
1000
0000
,  // measure 19
0001
1000
0001
0100
,  // measure 20
0010
0000
1000
0000
,  // measure 21
0001
0010
0100
1000
,  // measure 22
0001
0000
1000
0000
,  // measure 23
0001
0001
1000
1000
,  // measure 24
0001
0000
1000
0000
,  // measure 25
0001
0010
0100
1000
,  // measure 26
0010
0000
0100
0000
,  // measure 27
0010
0100
0001
1000
,  // measure 28
0001
0000
1000
0000
,  // measure 29
0001
1000
0010
0100
,  // measure 30
0020
0000
0000
0000
,  // measure 31
0130
0000
0100
0000
,  // measure 32
0200
0000
0000
0000
,  // measure 33
0310
0000
0010
0000
,  // measure 34
2002
0000
0000
3003
,  // measure 35
0001
0000
1000
0000
,  // measure 36
0220
0000
0000
0330
,  // measure 37
0100
0000
0010
0000
,  // measure 38
1001
0000
0001
0001
,  // measure 39
0001
0000
1000
1000
,  // measure 40
1000
0000
0010
0000
,  // measure 41
1000
0001
1000
0000
,  // measure 42
0001
0000
1000
0000
,  // measure 43
0001
0010
0100
0000
,  // measure 44
1000
0000
0010
0000
,  // measure 45
0100
0001
1000
0010
,  // measure 46
1000
0000
0001
1000
,  // measure 47
0010
0000
1000
0001
,  // measure 48
0010
0000
0100
0000
,  // measure 49
1000
0001
1000
0000
,  // measure 50
0001
0001
0001
0000
,  // measure 51
1000
1000
1000
0000
,  // measure 52
0001
1000
0001
0000
,  // measure 53
1000
0010
1001
0000
,  // measure 54
0001
0001
0001
0000
,  // measure 55
1000
0000
0001
0000
,  // measure 56
1000
1000
1000
0000
,  // measure 57
0001
0000
0100
0000
,  // measure 58
0010
0010
0010
0000
,  // measure 59
0100
0000
0010
0000
,  // measure 60
1000
1000
1000
0000
,  // measure 61
0001
0000
1001
0000
,  // measure 62
1000
0000
0000
0000
;
