#TITLE:Bad City;
#SUBTITLE:;
#ARTIST:Koko;
#TITLETRANSLIT:;
#SUBTITLETRANSLIT:;
#ARTISTTRANSLIT:;
#CREDIT:;
#BANNER:Bad City-bn.png;
#BACKGROUND:Bad City-bg.png;
#LYRICSPATH:;
#CDTITLE:cd.png;
#MUSIC:Bad City.mp3;
#OFFSET:-6.618;
#SAMPLESTART:14.684;
#SAMPLELENGTH:12.000;
#SELECTABLE:YES;
#BPMS:0.000=178.000,128.000=89.000,132.000=178.000;
#STOPS:;
#BGCHANGES:;

//---------------dance-single - ----------------
#NOTES:
     dance-single:
     :
     Hard:
     9:
     0.652,0.599,0.453,0.203,0.014: // measure 1
0101
0000
1010
0000
0010
1000
0000
1001
,  // measure 2
0000
0100
1000
0100
0001
0100
1000
0000
,  // measure 3
1100
0000
0011
0000
0001
0010
0000
0101
,  // measure 4
0000
0100
0001
0100
1000
0100
0010
0000
,  // measure 5
1010
0000
0101
0000
0001
0010
0100
1000
,  // measure 6
0000
0000
0001
1000
0000
0110
0000
0000
,  // measure 7
1001
0000
0010
1000
0010
1000
0010
0000
,  // measure 8
1001
0000
0100
0001
0100
0001
0200
0000
,  // measure 9
0301
0000
0100
0010
0100
0001
1000
0000
,  // measure 10
0110
0000
0001
0010
0100
1000
0001
0100
,  // measure 11
0101
0000
0001
1000
1001
0000
0100
0010
,  // measure 12
1000
0001
1000
0010
0000
0100
0010
0000
,  // measure 13
1001
0000
0010
0001
0010
0001
0100
0000
,  // measure 14
0101
0000
0010
0100
0010
1000
0020
0000
,  // measure 15
1030
0000
0100
0001
0010
0100
1000
0000
,  // measure 16
1001
0000
0001
0010
0001
1000
0001
1000
,  // measure 17
1001
0000
0001
0100
0101
0000
1000
0010
,  // measure 18
1000
0001
1000
0100
0000
0010
0001
0000
,  // measure 19
1001
0000
1000
0100
0010
0001
1000
1000
,  // measure 20
1000
0000
0001
0010
0100
1000
0001
0001
,  // measure 21
0001
0000
0001
1000
0010
0100
0001
0001
,  // measure 22
0001
0000
0100
0010
1000
0001
1000
1000
,  // measure 23
2000
0001
0010
3100
,  // measure 24
1001
0000
0110
0000
1001
0000
0100
0001
,  // measure 25
0100
0000
0010
1000
0010
0000
0100
0010
,  // measure 26
0100
0001
1000
0010
1000
0000
1001
0000
,  // measure 27
1000
0001
0100
0010
0100
0001
1000
0010
,  // measure 28
0100
0000
0001
0010
0100
0000
1100
0000
,  // measure 29
1001
0000
1000
0010
0100
0000
0001
0010
,  // measure 30
0100
0010
0001
0100
0001
0100
0010
0000
,  // measure 31
1000
0001
0100
0000
0010
0100
0001
0000
,  // measure 32
1000
0010
0100
0001
0100
0001
1000
0001
,  // measure 33
0010
0000
0001
0000
1000
0000
0001
0100
0010
0000
0100
0000
0001
1000
0010
0100
,  // measure 34
0001
0000
1000
0100
1000
0000
0001
0010
,  // measure 35
0001
0000
1001
0000
0100
0010
0100
0010
,  // measure 36
1001
0000
1000
0001
1000
0001
1000
0000
,  // measure 37
0110
0000
0100
0001
0100
0001
0100
0000
,  // measure 38
1010
0000
1000
0010
0100
0001
0100
0000
,  // measure 39
1001
0000
1001
0000
0001
0010
0100
1000
,  // measure 40
1001
0000
0100
0001
0100
0001
0100
0000
,  // measure 41
1001
0000
0010
1000
0010
1000
0020
0000
,  // measure 42
1030
0000
0010
0100
0010
1000
0001
0000
,  // measure 43
0110
0000
1000
0100
0010
0001
1000
0010
,  // measure 44
1001
0000
1000
0100
1000
0001
0010
0000
,  // measure 45
1001
0000
0010
0100
0001
0100
0020
0000
,  // measure 46
1030
0000
0010
0100
0001
0100
0001
0000
,  // measure 47
1001
0000
0010
1000
0001
0100
0001
1000
,  // measure 48
0010
0000
0100
0000
0001
0000
0100
0001
,  // measure 49
0100
0000
1001
0000
0010
0100
0010
0100
,  // measure 50
0001
0000
0100
0000
0001
1000
0010
0000
,  // measure 51
1001
0000
0010
0000
0001
0010
0001
0000
,  // measure 52
2000
0000
3010
0000
0100
0001
0000
1001
,  // measure 53
0000
0001
0010
0100
1000
0001
1000
0000
,  // measure 54
0020
0000
1030
0000
0001
1000
0000
0110
,  // measure 55
0000
0001
1000
0010
0100
0001
1000
0000
,  // measure 56
0002
0020
0033
0000
0200
2000
3300
0000
,  // measure 57
0002
2003
3020
0130
,  // measure 58
1001
0000
0100
0010
1000
0001
0100
0000
,  // measure 59
0011
0000
0010
0100
1000
0100
2000
0000
,  // measure 60
3001
0000
0100
0010
1000
0001
0010
0000
,  // measure 61
1100
0000
0100
1000
0001
0010
0100
1000
,  // measure 62
1001
0000
0100
0001
0101
0000
0001
1000
,  // measure 63
0010
0100
0001
1000
0000
0010
0100
0000
,  // measure 64
1001
0000
2000
0000
3001
0000
0100
0001
,  // measure 65
0100
0000
0002
0000
0013
0000
0100
1000
,  // measure 66
0100
0000
0020
0000
0031
0000
1000
0010
,  // measure 67
1000
0000
0002
0000
1003
0000
0010
0100
,  // measure 68
0010
0000
0200
0000
0301
0000
1000
0001
,  // measure 69
0100
0000
0010
1000
0001
0000
1000
0010
,  // measure 70
0100
0000
0010
1000
0001
0000
0010
0001
,  // measure 71
0100
0000
0001
0000
1000
0100
0010
0001
,  // measure 72
2002
0000
0000
0000
,  // measure 73
3003
0000
0000
0000
;

//---------------dance-single - ----------------
#NOTES:
     dance-single:
     :
     Medium:
     6:
     0.495,0.532,0.157,0.111,0.005:
0001
0000
1000
0000
0010
1000
0000
1010
,
0000
0010
1000
0000
0001
1000
0001
0000
,
0100
0000
0010
0000
0100
0001
0000
0101
,
0000
0001
1000
0000
0010
1000
0010
0000
,
1000
0000
0001
0000
0010
0100
0000
2000
,
0000
0000
3001
1000
0000
0010
0000
0000
,
1001
0000
0010
0000
1000
0010
0000
1000
,
0000
0000
0001
0000
1000
0001
0000
1000
,
0000
0000
0010
0000
0100
0010
0000
0100
,
0000
0010
0100
0001
,
1000
0000
0010
1000
0010
0000
0100
0001
,
0100
0010
0100
0001
0000
0100
0010
0000
,
1000
0000
0001
0000
1000
0010
0000
0100
,
0000
0000
0001
0000
1000
0001
0000
1000
,
0000
0000
0001
0000
1000
0010
0000
1000
,
0000
0000
0001
0000
0100
0010
1000
0001
,
0010
0000
0001
0010
0100
0000
0010
0001
,
1000
0001
1000
0010
0000
1000
0001
0000
,
1000
0000
0001
0000
1000
0000
0010
1000
,
0010
0000
0100
0000
0001
0000
0100
0010
,
0100
0000
0001
0000
1000
0000
0010
1000
,
0001
0000
1000
0000
0010
0000
1000
0010
,
1000
0010
0000
0000
1000
0010
0000
0000
,
1000
0010
1000
0000
0010
0100
0001
0000
,
1000
0000
0001
0000
1000
0000
0010
1000
,
0010
0000
0100
0001
0100
0000
0010
0000
,
1000
0010
1000
0000
0001
0100
0010
0000
,
2000
3001
0020
0130
,
1000
0000
0010
1000
0010
0000
0100
0001
,
0100
0010
1000
0001
,
0100
0010
0100
0000
0001
0100
0010
0000
,
1000
0100
0010
0001
1000
0010
0100
0001
,
1000
0000
0001
0000
0010
0000
0100
1000
0100
0000
1000
0000
0001
0000
0100
0000
,
0001
0000
0100
0010
0001
0000
0010
0001
,
1000
0000
0001
0000
0010
0100
0010
0100
,
2000
0001
3001
0100
,
0010
0100
1000
0000
0011
0000
1100
0000
,
1000
0001
0010
0100
,
1001
0100
1001
0100
,
1001
0000
0010
0000
1000
0000
0001
1000
,
0010
0000
0100
0000
0001
0000
1000
0100
,
1000
0000
0100
0000
0010
0000
0001
0010
,
0001
0000
1000
0000
0010
1000
0010
0000
,
1010
0000
0001
0000
0100
0000
0010
1000
,
0001
0000
1000
0000
0100
0000
0010
0001
,
0010
0000
0001
0000
0010
0000
0100
1000
,
0100
0000
0010
0000
0001
0010
0100
0000
,
2000
0000
0010
0000
0001
0000
0010
3000
,
0002
0000
1000
0000
0100
0000
1000
0003
,
0020
0001
0100
0001
,
0032
0000
0200
0003
0320
0000
1030
0000
,
1000
0000
0010
0000
1000
0001
0000
1001
,
0000
0001
1000
0000
0010
1000
0010
0000
,
0100
0000
0010
0000
0100
0010
0000
0110
,
0000
0010
0100
0000
0001
1000
0000
0000
,
0010
1000
0000
0000
0010
1000
0000
0000
,
1001
0101
0101
0101
,
1001
0000
0010
0000
1000
0010
0000
1000
,
0000
0000
0001
0000
1000
0001
0000
1000
,
0000
0000
0010
0000
0100
0010
0000
0100
,
0000
0010
0100
0001
,
1000
0000
0010
1000
0010
0000
0100
0001
,
0100
0010
0100
0001
0000
0100
0010
0000
,
1000
0000
0001
0000
1000
0000
0010
1000
,
0010
0000
0100
0000
0001
0000
0100
0010
,
0100
0000
0001
0000
0100
0000
0010
1000
,
0010
0000
1000
0000
0100
0000
0010
0001
,
0010
0000
0001
0000
1000
0001
0000
0000
,
1000
0010
0000
0000
1000
0001
0000
0000
,
1000
0010
0000
0000
1000
0010
0000
0000
,
1000
0001
0100
0010
,
2002
0000
0000
0000
,
3003
0000
0000
0000
;

//---------------dance-single - ----------------
#NOTES:
     dance-single:
     :
     Easy:
     4:
     0.433,0.499,0.314,0.286,0.000:
2000
0010
0001
3010
,
0002
0100
1000
0013
,
0200
0010
0001
0310
,
0020
0100
1000
0130
,
0100
0010
1000
0010
,
1001
0000
2000
3001
,
1001
0010
1000
0001
,
0100
0001
0010
1000
,
0001
0010
0100
1000
,
0001
0010
0100
1000
,
1010
0100
1010
0010
,
1001
0011
0011
1001
,
0010
0100
0001
1000
,
0010
1000
0001
0010
,
0100
1000
0001
0100
,
0010
1000
0001
0010
,
0011
0001
0011
0001
,
1001
1010
1010
1001
,
0002
1000
0100
1003
,
2000
0010
0001
3010
,
0020
0100
1000
0130
,
0200
0010
0001
0310
,
0020
0000
0230
0000
,
0320
2030
3002
0103
,
1001
0010
1000
0001
,
2000
0010
3010
0000
,
0001
0001
1000
1000
,
0001
1000
0010
0100
,
0002
0100
0103
0100
,
0010
1000
0001
1000
,
0020
0000
2030
0000
,
3001
1000
0010
0100
,
0020
0230
0302
1000
,
1003
0010
1000
0001
,
1000
0010
0100
0010
,
0110
0000
0010
0010
,
0110
0000
0001
0001
,
1001
0000
1000
1000
,
1001
0010
0100
0001
,
1001
0010
1000
0001
,
0100
0010
1000
0001
,
1001
0010
1000
0001
,
0100
0010
1000
0100
,
1000
0010
1000
0001
,
0100
0001
1000
0010
,
1001
0010
0100
0001
,
2000
0001
0001
3001
,
0010
0100
0010
0100
,
0001
1000
0001
1000
,
1000
0010
0100
0001
,
0001
0010
0100
1000
,
1010
0001
0010
0001
,
2000
3000
1000
1000
,
0001
0010
0100
0001
,
0200
0300
0010
0010
,
2000
0000
3002
0000
,
2003
0010
0010
3010
,
1001
0001
1000
0010
,
1000
0001
0100
0010
,
1001
0010
1000
0001
,
0100
0010
1000
0001
,
2000
3010
0200
0301
,
1010
0101
1010
0101
,
1001
0010
0010
0000
,
1000
0010
0100
0000
,
1000
0001
0001
0000
,
1000
1000
1000
0000
,
0010
0010
0010
0000
,
0100
0000
0010
0000
,
0100
0000
1001
0000
,
0001
1000
1001
0110
,
2002
0000
0000
0000
,
3003
0000
0000
0000
;

//---------------dance-single - ----------------
#NOTES:
     dance-single:
     :
     Beginner:
     2:
     0.182,0.233,0.055,0.102,0.000:
0010
0000
0000
0000
,
0010
0000
0010
0000
,
0100
0000
0000
0000
,
0100
0000
0100
0000
,
0100
0000
0000
0000
,
0001
0000
0000
0000
,
1001
0000
0000
0000
,
0010
0000
0000
0000
,
0100
0000
0000
0000
,
0010
0000
0010
0000
,
0010
0000
0100
0000
,
0001
0001
0001
0000
,
1000
0000
0000
0000
,
0001
0000
0000
0000
,
1001
0000
0000
0000
,
0100
0000
0000
0000
,
0010
0000
0100
0000
,
0010
0010
0010
0000
,
2000
0000
0000
3000
,
0002
0000
0000
0003
,
0200
0000
0000
0300
,
0020
0000
0000
0030
,
0100
0000
0010
0000
,
0100
0010
0100
0010
,
0100
0000
0001
0000
,
1000
1000
1000
0000
,
0001
0000
0100
0000
,
0010
0010
0010
0000
,
0100
0000
0010
0000
,
1000
1000
1000
0000
,
0001
0000
1000
0000
,
0010
0010
0010
0000
,
0100
0000
0010
0000
,
0010
0000
0100
0000
,
0010
0100
0010
0000
,
0001
0000
1000
0000
,
0001
1000
0001
0000
,
0100
0000
0010
0000
,
1000
0010
0100
0001
,
1000
0000
0000
0000
,
0100
0000
0001
0000
,
1001
0000
0000
0000
,
0010
0000
0000
0000
,
0100
0000
0000
0000
,
0010
0000
0000
0000
,
1001
0000
0000
0000
,
1000
0000
0000
0000
,
1000
0000
0001
0000
,
1000
0000
0001
0000
,
0100
0000
0010
0000
,
0100
0000
0010
0000
,
0200
0000
0000
0000
,
0310
0000
0000
0000
,
0002
0000
0000
0000
,
1003
0000
0000
0000
,
0100
0000
0010
0000
,
0100
0100
0100
0100
,
0010
0000
0000
0000
,
0100
0000
0000
0000
,
0101
0000
0000
0000
,
0010
0000
0000
0000
,
1000
0000
0001
0000
,
1000
1000
1000
0000
,
0010
0000
0000
0000
,
0100
0000
0000
0000
,
0001
0000
0000
0000
,
1000
0000
0000
0000
,
0020
0000
0030
0000
,
0200
0000
0300
0000
,
0002
0000
0003
0000
,
1000
0000
0001
0000
,
2002
0000
0000
0000
,
3003
0000
0000
0000
;
