#TITLE:Angel;
#SUBTITLE:;
#ARTIST:Vicky Lee;
#TITLETRANSLIT:;
#SUBTITLETRANSLIT:;
#ARTISTTRANSLIT:;
#CREDIT:;
#BANNER:Angel-bn.png;
#BACKGROUND:Angel-bg.png;
#LYRICSPATH:;
#CDTITLE:cd.png;
#MUSIC:Angel.mp3;
#OFFSET:-6.250;
#SAMPLESTART:55.190;
#SAMPLELENGTH:12.000;
#SELECTABLE:YES;
#BPMS:0.000=154.980;
#STOPS:;
#BGCHANGES:;

//---------------dance-single - ----------------
#NOTES:
     dance-single:
     :
     Hard:
     8:
     0.606,0.556,0.349,0.312,0.275:
1000
0000
0010
0000
0100
0000
0010
0100
0000
0010
0000
0100
0001
0000
0100
0000
,
0010
0000
1000
0000
0001
0000
1000
0010
0000
1000
0000
0010
1000
0000
0001
0000
,
1000
0000
0010
0000
0100
0000
0010
0100
0000
0001
0000
0100
0010
0000
1000
0002
,
0000
0000
1003
1001
,
0010
0000
0001
0000
0010
0000
0100
0010
0000
0001
0000
0010
0100
0000
0010
0000
,
0001
0000
1000
0000
0010
0000
1000
0001
0000
1000
0000
0010
1000
0000
0100
0000
,
0010
0000
0001
0000
0010
0000
0100
0010
0000
0001
0000
0010
0100
0000
1000
0002
,
0000
0003
0110
1001
,
1000
0001
0100
0000
0010
1000
0001
0000
,
1000
0010
1000
0000
1001
0000
1001
0000
,
0001
0010
0100
0000
1000
0010
1000
0000
,
0001
1000
0010
0000
2002
0000
3003
0000
,
1002
1000
0100
1003
,
2001
0010
0001
3010
,
1000
0010
1000
0000
0001
0100
0001
0000
,
0100
0010
1000
0001
0010
0100
1000
0000
,
0001
1000
0010
0000
1000
0001
0010
0000
,
0001
0010
0100
0000
0110
0000
1001
0000
,
0010
1000
0001
0000
0010
0100
1000
0000
,
0010
0100
0001
0000
2002
0000
3003
0000
,
1002
0100
0100
0013
,
2001
0010
0010
3100
,
1000
0001
1000
0000
0010
0100
0010
0000
,
1000
0001
0010
0100
1000
0001
1000
0000
,
0010
1000
0001
0010
0100
1000
0001
1000
,
0010
0100
0001
1000
0010
0100
0010
0000
,
1000
0001
0010
0100
1000
0100
1000
0001
,
0100
0001
0010
0100
1000
0100
1000
0000
,
0010
0100
0001
1000
0001
0100
0001
1000
,
0010
1000
0001
0100
0010
1000
0001
0100
,
0002
0000
2003
0000
3020
0000
0130
0002
,
0000
0000
0000
0000
0003
1000
0001
0100
,
1001
1001
0110
1001
,
0011
0011
1100
1001
,
2000
0001
0001
3100
,
1002
0010
0010
0103
,
0011
0011
1001
1010
,
1001
1001
0101
1001
,
2010
0100
0001
3001
,
0201
0010
0001
0301
,
1000
0010
2000
0000
3001
0100
0020
0000
,
1030
0001
0200
0000
0301
1000
0002
0000
,
2003
0001
0001
3001
,
0020
0100
0100
0130
,
0001
1000
0020
0000
1030
0001
0200
0000
,
0301
1000
0002
0000
1003
0001
2000
0000
,
3002
0100
0100
0103
,
2000
0010
0010
3010
,
0001
0000
0100
0000
0010
0000
0100
0010
0000
0100
0000
0010
1000
0000
0010
0000
,
0100
0000
0001
0000
1000
0000
0001
0100
0000
0001
0000
0100
0001
0000
1000
0000
,
0001
0000
0100
0000
0010
0000
0100
0010
0000
1000
0000
0010
0100
0000
0001
2000
,
0000
0000
3001
1001
,
0100
0000
1000
0000
0100
0000
0010
0100
0000
1000
0000
0100
0010
0000
0100
0000
,
1000
0000
0001
0000
0100
0000
0001
1000
0000
0001
0000
0100
0001
0000
0010
0000
,
0100
0000
1000
0000
0100
0000
0010
0100
0000
1000
0000
0100
0010
0000
0001
2000
,
0000
3000
1010
0101
,
0001
0000
1000
0000
0010
0000
1000
0001
0000
1000
0000
0100
1000
0000
0010
0000
,
1000
0000
0001
0000
0100
0000
0010
0100
0000
0010
0000
0100
0001
0000
0100
0000
,
0010
0000
1000
0000
0001
0000
0010
0100
0000
0010
0000
0100
0010
0000
0001
2000
,
0000
0000
3001
1001
,
1000
0000
0001
0000
0010
0000
0100
0010
0000
0001
0000
0010
0100
0000
1000
0000
,
0001
0000
1000
0000
0010
0000
1000
0001
0000
1000
0000
0001
1000
0000
0010
0000
,
0100
0000
0001
0000
0010
0000
0100
1000
0000
0010
0000
1000
0100
0000
0010
0200
,
0000
0300
0110
1001
;

//---------------dance-single - ----------------
#NOTES:
     dance-single:
     :
     Medium:
     6:
     0.463,0.439,0.266,0.367,0.000: // measure 1
1000
0000
0001
0000
1000
0010
1000
0000
,  // measure 2
0001
0000
0100
0000
0010
0100
0010
0000
,  // measure 3
1000
0000
0001
0000
1000
0001
1000
0000
,  // measure 4
2002
0003
0001
3001
,  // measure 5
1000
0000
0001
0000
1000
0010
1000
0000
,  // measure 6
0001
0000
0100
0000
0010
1000
0010
0000
,  // measure 7
1000
0000
0001
0000
0100
0010
1000
0000
,  // measure 8
2002
3000
1000
1003
,  // measure 9
0001
0001
1000
1000
,  // measure 10
0001
1000
0001
1001
,  // measure 11
1000
1000
0001
1000
,  // measure 12
0001
1000
0001
0000
2002
0000
3003
0000
,  // measure 13
1000
1000
0001
0001
,  // measure 14
1000
0001
1000
0000
0010
0100
0010
0000
,  // measure 15
0200
0010
0010
0310
,  // measure 16
0002
1000
1000
1003
,  // measure 17
1000
0010
1000
0000
0001
0100
0010
0000
,  // measure 18
1000
0001
1000
1001
,  // measure 19
0001
1000
0001
0000
1000
0010
0100
0000
,  // measure 20
0010
0100
2002
3003
,  // measure 21
0002
1000
1000
1003
,  // measure 22
2000
0001
0001
3001
,  // measure 23
0001
1000
0001
0000
1000
0010
1000
0000
,  // measure 24
0020
0100
1000
0130
,  // measure 25
0100
0010
0100
0000
0001
1000
0010
0000
,  // measure 26
2000
0000
3002
0003
0200
0000
0310
0000
,  // measure 27
1000
0001
0010
0000
0100
1000
0010
0000
,  // measure 28
2000
3001
0200
0310
,  // measure 29
1000
0001
1000
0000
0010
0100
0010
0000
,  // measure 30
0200
0302
0023
0230
,  // measure 31
2300
3001
0002
1003
,  // measure 32
2002
0003
0001
3001
,  // measure 33
0001
1001
0010
1010
,  // measure 34
0001
0101
0010
0110
,  // measure 35
2001
0000
0001
0001
,  // measure 36
3001
0000
1000
0000
0001
0000
1000
0010
,  // measure 37
1000
1000
1010
1010
,  // measure 38
0001
0001
0101
0101
,  // measure 39
0200
0000
0010
0000
0310
0000
0010
0100
,  // measure 40
0020
0000
0100
0000
0130
0000
0100
0010
,  // measure 41
1000
1001
0100
0101
,  // measure 42
1000
1010
0100
0110
,  // measure 43
1002
0000
1000
1000
,  // measure 44
1003
0000
0001
0000
1000
0000
0001
0100
,  // measure 45
0001
0001
0101
0101
,  // measure 46
1000
1000
1010
1010
,  // measure 47
0020
0000
0100
0000
0130
0000
0100
0010
,  // measure 48
0200
0000
0010
0000
0310
0000
0010
0100
,  // measure 49
0010
0000
0010
0000
0100
0001
0100
0000
,  // measure 50
0001
0000
1000
0000
0001
1000
0001
0000
,  // measure 51
0100
0000
0010
0000
0100
0010
0100
0000
,  // measure 52
0220
0030
0010
0310
,  // measure 53
0001
0000
1000
0000
0100
1000
0100
0000
,  // measure 54
0010
0000
0001
0000
1000
0100
1000
0000
,  // measure 55
0100
0000
0010
0000
0001
1000
0100
0000
,  // measure 56
2002
3000
1000
1003
,  // measure 57
0001
0000
1000
0000
0001
0100
0001
0000
,  // measure 58
1000
0000
0010
0000
0100
0010
0100
0000
,  // measure 59
0001
0000
1000
0000
0001
1000
0001
0000
,  // measure 60
2002
3000
1000
1003
,  // measure 61
0001
0000
1000
0000
0001
0100
0001
0000
,  // measure 62
1000
0000
0010
0000
0100
0001
0100
0000
,  // measure 63
0001
0000
1000
0000
0010
0100
0001
0000
,  // measure 64
2002
0003
0001
3001
;

//---------------dance-single - ----------------
#NOTES:
     dance-single:
     :
     Easy:
     4:
     0.379,0.410,0.294,0.275,0.000:
1000
1000
0001
0001
,
1000
0001
1000
1000
,
0001
1000
0001
0001
,
2002
0003
0001
3001
,
1000
1000
0001
0001
,
1000
0001
1000
1000
,
0001
1000
0001
0001
,
2002
3000
1000
1003
,
0001
0001
1000
1000
,
0001
1000
1001
0000
,
0010
0010
0100
0100
,
0010
0100
1001
0000
,
0002
1000
1000
1003
,
2000
0001
0001
3001
,
1000
0010
0100
0001
,
0010
0100
1000
1001
,
0001
0010
0100
1000
,
0001
1000
1001
0000
,
0001
1000
0010
0100
,
0010
1000
1001
0000
,
0002
1000
1000
1003
,
2000
0001
0001
3001
,
0001
1000
0010
1001
,
0010
0010
0100
1001
,
0001
0001
1000
1000
,
0001
1000
1010
0101
,
0010
0010
0100
0100
,
0001
1000
0011
1100
,
0001
0001
1000
1000
,
0002
1003
0020
0130
,
0002
0003
2000
3000
,
2002
0000
3003
0010
,
0010
0010
1000
1000
,
0001
0001
1000
0001
,
2002
0000
0003
0001
,
3001
0000
0000
1000
,
1000
0001
1000
1000
,
0010
0010
0100
0010
,
2002
0000
3000
1000
,
1003
0000
0000
0001
,
1000
0010
0101
1010
,
0001
0010
1100
0011
,
2020
0000
0030
0001
,
3001
0000
0000
1000
,
0010
0100
0011
1001
,
0010
1000
1100
1001
,
2002
0000
0003
0010
,
3010
0000
1010
0101
,
0001
0001
1000
1000
,
0001
1000
0001
0001
,
1000
0001
1000
1000
,
2002
3000
1000
1003
,
0001
0001
1000
1000
,
0001
1000
0001
0001
,
1000
0001
1000
1000
,
2002
0003
0001
3001
,
1000
0001
1000
0010
,
0100
0001
0010
0100
,
1000
0001
1000
1000
,
2002
0003
0001
3001
,
1000
1000
0010
0100
,
0001
0001
0010
0100
,
1000
0010
0100
0001
,
2002
3000
1000
1003
;
