#TITLE:Alien Light;
#SUBTITLE:;
#ARTIST:Roswell;
#TITLETRANSLIT:;
#SUBTITLETRANSLIT:;
#ARTISTTRANSLIT:;
#CREDIT:;
#BANNER:Alien Light-bn.png;
#BACKGROUND:Alien Light-bg.png;
#LYRICSPATH:Alien Light.lrc;
#CDTITLE:cd.png;
#MUSIC:Alien Light.ogg;
#OFFSET:-13.903;
#SAMPLESTART:50.810;
#SAMPLELENGTH:12.000;
#SELECTABLE:YES;
#BPMS:0.000=155.990;
#STOPS:;
#BGCHANGES:;

//---------------dance-single - ----------------
#NOTES:
     dance-single:
     :
     Hard:
     8:
     0.597,0.530,0.279,0.357,0.000: // measure 1
0000
0010
0001
0010
0001
0010
0100
0020
,  // measure 2
0000
0130
0010
0100
1000
0010
1000
0020
,  // measure 3
0000
1030
0010
0100
0010
0100
0010
0200
,  // measure 4
0000
0310
0100
0001
0010
0100
1000
0010
,  // measure 5
0000
0010
1000
0001
1000
0010
1000
0002
,  // measure 6
0000
1003
0010
0100
0001
0100
0010
0200
,  // measure 7
0000
0301
0100
0010
1000
0001
0010
0001
,  // measure 8
0000
0011
0000
0110
0000
1000
0002
0000
,  // measure 9
1003
0000
1000
0010
1000
0010
0100
0001
,  // measure 10
0100
0010
0200
0000
0310
0000
0110
0000
,  // measure 11
0001
1000
0001
0010
0100
1000
0001
0100
,  // measure 12
0010
1000
0020
0000
1030
0000
1010
0000
,  // measure 13
0100
0010
1000
0010
0100
0001
1000
0100
,  // measure 14
0000
1100
0000
0011
0000
0101
0000
1010
,  // measure 15
0000
0110
0000
1001
0000
0001
1000
0001
,  // measure 16
0000
0001
0010
0100
1000
0010
0100
0000
,  // measure 17
1001
0000
0001
1000
0001
1000
0010
0100
,  // measure 18
0010
0100
0001
0100
0010
1000
0001
0100
,  // measure 19
0002
0000
0100
0000
0103
0001
0100
0100
,  // measure 20
0010
1000
0100
1000
0010
0100
0001
0010
,  // measure 21
0200
0000
1300
0000
0010
0100
0001
0010
,  // measure 22
0011
0000
0100
1000
1010
0000
0100
0001
,  // measure 23
0011
0000
1000
0000
0001
0100
0001
0010
,  // measure 24
0100
1000
0010
0100
0010
0010
0010
0000
,  // measure 25
0100
0100
0100
0000
0201
0000
0301
0000
,  // measure 26
0001
0100
0010
1000
0100
0010
0001
0010
,  // measure 27
0021
0001
0031
0000
0201
0001
0301
0000
,  // measure 28
0010
1000
0100
1000
0001
0100
0010
1000
,  // measure 29
0020
0130
0110
1001
,  // measure 30
0100
1000
0001
0100
0010
1000
0001
0010
,  // measure 31
0001
0010
0001
0010
0001
0010
0001
0010
,  // measure 32
0100
1000
0100
1000
0100
1000
0100
0000
,  // measure 33
1000
1000
1000
0000
0102
0000
0103
0000
,  // measure 34
0010
1000
0001
1000
0001
0100
0001
1000
,  // measure 35
2100
0100
3100
0000
0201
0001
0301
0000
,  // measure 36
1000
0001
0010
0001
0100
0010
1000
0001
,  // measure 37
2000
3010
1010
0101
,  // measure 38
0010
0001
0100
0010
1000
0001
0100
0010
,  // measure 39
0100
0001
0100
0001
0100
0001
0100
0001
,  // measure 40
0010
0001
0010
0001
0010
0001
0010
0000
,  // measure 41
0000
0100
1000
0100
1000
0100
0010
0200
,  // measure 42
0000
0310
0100
0010
0001
0100
0001
0200
,  // measure 43
0000
0301
0100
0010
0100
0010
0100
0020
,  // measure 44
0000
0130
0010
1000
0100
0010
0001
0100
,  // measure 45
0000
0100
0001
1000
0001
0100
0001
2000
,  // measure 46
0000
3001
0100
0010
1000
0010
0100
0020
,  // measure 47
0000
1030
0010
0100
0001
1000
0100
1000
,  // measure 48
0000
1100
0000
0110
0000
0001
2000
0000
,  // measure 49
3001
1000
0010
0100
0001
1000
0010
0100
,  // measure 50
0001
0010
0100
1000
0010
0100
0001
1000
,  // measure 51
0002
0000
1000
0000
1003
0100
0010
0100
,  // measure 52
1000
0001
0100
0010
0100
0001
1000
0100
,  // measure 53
0020
0000
0001
0000
0031
1000
0100
1000
,  // measure 54
0100
0000
1000
0001
1001
0000
0001
1000
,  // measure 55
1002
0000
0103
0000
0001
1000
0100
0010
,  // measure 56
0001
1000
0001
0000
0010
0100
0010
0000
,  // measure 57
0020
0230
2300
3002
,  // measure 58
2003
3020
0130
0101
,  // measure 59
0010
0110
0100
1001
,  // measure 60
0002
0000
0103
0000
0001
0100
0001
0000
,  // measure 61
0002
2003
3200
0320
,  // measure 62
0032
2003
3010
0110
,  // measure 63
0001
1000
0001
0000
0100
0010
0100
0001
,  // measure 64
0000
0010
0000
0100
0000
1000
0020
0000
,  // measure 65
0130
0000
0000
0000
;

//---------------dance-single - ----------------
#NOTES:
     dance-single:
     :
     Medium:
     5:
     0.363,0.362,0.078,0.139,0.000:
1000
0000
0010
0000
1000
0010
1000
0000
,
0001
0000
0100
0000
0010
0100
0010
0000
,
1000
0000
0001
0000
1000
0010
1000
0000
,
0001
0000
0100
0000
0010
0100
0001
0000
,
1000
0000
0001
0000
1000
0010
1000
0000
,
0001
0000
1000
0000
0001
0100
0001
0000
,
0100
0000
0010
0000
1000
0001
1000
0001
,
0000
1000
0000
0010
0000
0100
0002
0000
,
1003
0000
0000
0000
0100
0000
0000
0010
,
0000
0100
0010
1001
,
0001
0000
0000
0000
1000
0000
0000
0001
,
0000
1000
0001
1001
,
0001
1000
0001
0000
1000
0000
0001
0000
,
1000
0010
1000
0000
0001
0000
0100
0000
,
0010
0100
0010
0000
0100
0000
0001
0000
,
1000
0010
1000
0000
0001
0000
1000
0000
,
0002
0000
2003
0000
,
3020
0230
0302
2003
,
3002
0000
2003
0000
,
3010
0010
0100
0100
,
0110
0000
1001
0000
,
0001
1000
0001
1000
,
0020
0030
0200
0300
,
0001
1000
0000
0010
0000
0010
0000
0000
,
0001
0001
0001
0000
1000
0000
0001
0000
,
1000
0010
0100
0001
,
1000
1000
1000
0000
0001
0000
1000
0000
,
0010
0100
0001
1000
,
0010
0100
1001
0001
,
1000
1000
0001
0001
,
1000
0010
1000
0000
0001
0100
0001
0000
,
0100
0010
0100
0010
,
1000
1000
1000
0000
0001
0000
1000
0000
,
0010
1000
0100
0010
,
0001
0001
0001
0000
1000
0000
0010
0000
,
1000
0001
0100
0010
,
1000
0001
1001
0010
,
1000
0001
1000
0010
,
0100
0010
0100
0000
0001
1000
0001
0000
,
1000
0001
0001
1000
,
0001
0000
0100
0000
0001
0100
0001
0000
,
1000
0000
0010
0000
0100
0010
0100
0000
,
0001
0000
1000
0000
0001
0100
0001
0000
,
1000
0000
0010
0000
0100
0010
1000
0000
,
0001
0000
1000
0000
0001
0100
0001
0000
,
1000
0000
0001
0000
1000
0010
1000
0000
,
0010
0000
0100
0000
0001
1000
0001
1000
,
0000
0001
0000
0100
0000
0010
2000
0000
,
3001
0001
1000
1000
,
0001
1000
0010
0100
,
2002
0000
0000
0000
,
3003
0000
0000
0000
,
0010
0000
0100
0000
,
0010
0010
0100
0100
,
0201
0000
0310
0000
,
0010
0000
0100
0000
,
0001
0001
1000
1000
,
0001
1000
0001
1001
,
1000
0010
0100
0001
,
0010
0100
1000
0010
,
1000
0010
1000
0000
0001
0100
0001
0000
,
1000
0001
1000
0000
0001
0010
0001
0000
,
0010
0100
1000
0000
0010
0100
0001
0000
,
1000
0000
0010
0000
1000
0001
2000
0000
,
3001
0000
0000
0000
;

//---------------dance-single - ----------------
#NOTES:
     dance-single:
     :
     Easy:
     3:
     0.259,0.334,0.105,0.270,0.000:
0010
1000
0010
0000
,
0100
0001
0100
0000
,
0001
0010
0001
0000
,
1000
0100
1000
0000
,
0010
1000
0001
0000
,
1000
0001
0010
0000
,
0001
1000
0010
0000
,
0200
0000
0320
0000
,
1030
0000
0001
0000
,
1000
0010
0100
0001
,
1000
0000
0001
0000
,
0010
0100
1000
0001
,
1000
0000
0010
0000
,
0100
0100
0100
0000
,
0010
0010
0010
0000
,
0200
0000
0302
0000
,
1003
0000
0001
0000
,
1000
0010
0100
0001
,
1000
0000
0001
0000
,
0100
0100
0010
0010
,
0200
0000
0310
0000
,
1001
0000
0110
0000
,
1001
0000
0000
1000
,
0001
0000
1000
0001
,
1000
2000
3000
0000
,
0001
0001
1000
0001
,
0010
0020
0030
0000
,
0001
0001
1000
0100
,
1000
0001
1001
0000
,
0100
0010
1001
0000
,
0002
0003
2000
3000
,
0001
0100
0010
1000
,
0001
0002
0003
0000
,
1000
1000
0001
1000
,
0100
0200
0300
0000
,
1000
1000
0001
0010
,
0001
1000
1001
0000
,
0001
0100
1010
0000
,
0002
0003
2000
3000
,
0001
0001
1000
1000
,
0002
0000
0000
1000
,
2003
0000
0000
0010
,
3020
0000
0000
0100
,
0230
0000
0310
0100
,
2002
3003
0000
0010
,
2020
3030
0000
0100
,
0202
0303
0000
0010
,
1010
0000
0100
0100
,
0002
0000
2003
0000
,
3010
0100
0001
1000
,
0020
0000
0000
0000
,
0000
0000
0000
0000
,
0130
0000
0000
0000
,
0001
0000
0000
0000
,
1000
0000
0000
0000
,
0010
0010
0010
0000
,
0200
0000
0000
0000
,
0301
0000
1000
0000
,
0001
0000
1000
0001
,
1000
0001
1000
0010
,
0200
0000
0302
0000
,
2003
0000
3020
0000
,
0130
0000
0010
0000
,
0100
0000
0001
1000
,
1001
0000
0000
0000
;
