#TITLE:100% Pure Love;
#SUBTITLE:;
#ARTIST:Crystal Waters;
#TITLETRANSLIT:;
#SUBTITLETRANSLIT:;
#ARTISTTRANSLIT:;
#CREDIT:;
#BANNER:100 pure love-bn.png;
#BACKGROUND:100 Pure Love-bg.png;
#LYRICSPATH:;
#CDTITLE:;
#MUSIC:100% Pure Love.mp3;
#OFFSET:-8.173;
#SAMPLESTART:47.780;
#SAMPLELENGTH:12.000;
#SELECTABLE:YES;
#DISPLAYBPM:120.000;
#BPMS:0.000=120.250;
#STOPS:;
#BGCHANGES:;

//---------------dance-solo - ----------------
#NOTES:
     dance-solo:
     :
     Beginner:
     3:
     0.126,0.176,0.018,0.000,0.000:
000000
000000
000000
000000
,
000000
000000
000000
000000
,
000000
000000
000000
000000
,
000000
000000
000000
000000
,
000010
010000
000000
000000
,
001000
000000
001000
000000
,
010000
001000
001000
000010
,
000000
010000
000000
000010
,
010000
000010
000000
000000
,
001000
000000
001000
000000
,
010000
001000
001000
000010
,
000000
000000
001000
001000
,
010000
010000
000000
000000
,
001000
001000
000000
000000
,
000010
000010
000000
000000
,
010000
010000
000000
000000
,
001000
000010
000010
000000
,
001000
010000
010000
000000
,
010000
000010
010000
000010
,
000010
010000
000010
010000
,
001000
000000
000000
000000
,
010000
000000
000000
001000
,
000010
000000
000000
000000
,
001000
000000
000000
000000
,
010000
000000
000010
000000
,
001000
000000
000010
000000
,
000010
001000
010000
000000
,
000010
000000
010000
000000
,
001000
001000
000010
000000
,
010000
000010
010000
000000
,
001000
000000
000010
000000
,
001000
000000
010000
000000
,
001000
000000
000010
000000
,
001000
001000
010000
000000
,
001000
000000
001000
000000
,
001000
001000
000000
010010
,
000010
010000
000000
000000
,
001000
000000
001000
000000
,
010000
001000
001000
000010
,
000000
010000
000000
000010
,
000010
010000
000000
000000
,
001000
000000
001000
000000
,
010000
001000
001000
000010
,
000000
000000
010000
001000
,
010010
000000
000000
000000
;

//---------------dance-solo - ----------------
#NOTES:
     dance-solo:
     :
     Easy:
     2:
     0.129,0.176,0.009,0.000,0.000:
000000
000000
000000
000000
,
000000
000000
000000
000000
,
000000
000000
000000
000000
,
000000
000000
000000
000000
,
000010
100000
000000
000000
,
000100
000000
001000
000000
,
100000
000100
001000
000001
,
000000
100000
000000
000001
,
010000
000001
000000
000000
,
000100
000000
001000
000000
,
100000
000100
001000
000001
,
000000
000000
001000
001000
,
100000
100000
000000
000000
,
000100
000100
000000
000000
,
001000
001000
000000
000000
,
000001
000001
000000
000000
,
010000
100000
100000
000000
,
000010
000001
000001
000000
,
100000
000001
100000
000001
,
000001
100000
000001
100000
,
010000
000000
000000
000000
,
010000
000000
000000
001000
,
000010
000000
000000
000000
,
000010
000000
000000
000000
,
100000
000000
000001
000000
,
100000
000000
000001
000000
,
000001
001000
100000
000000
,
000001
000000
010000
000000
,
000100
001000
000001
000000
,
100000
000001
100000
000000
,
001000
000000
001000
000000
,
000100
000000
001000
000000
,
000100
000000
000010
000000
,
000100
001000
010000
000000
,
001000
001000
001000
000000
,
000100
000100
010000
000010
,
000010
100000
001000
000000
,
000100
000000
001000
000000
,
100000
000100
001000
000001
,
000000
100000
000000
000001
,
000010
100000
001000
000000
,
000100
000000
001000
000000
,
100000
000100
001000
000001
,
000000
000000
010000
001000
,
100001
000000
000000
000000
;

//---------------dance-solo - ----------------
#NOTES:
     dance-solo:
     :
     Medium:
     4:
     0.195,0.215,0.098,0.000,0.000:
000000
000000
000000
000000
,
000000
000000
000000
000000
,
000000
000000
000000
000000
,
000000
000000
000000
000000
,
000100
000000
000010
000000
001000
000100
000000
001000
,
000000
000000
000000
100001
000000
000000
000000
000000
,
010000
001000
000010
000001
,
001000
001000
000001
000001
,
000100
000000
000010
000000
001000
000100
000000
001000
,
000000
000000
000000
100001
000000
000000
000000
000000
,
000010
001000
010000
100000
,
000000
000000
000000
000000
000100
001000
000100
000000
,
000010
000010
000000
100000
,
010000
010000
000000
000001
,
001000
001000
000000
100000
,
000100
000100
000000
000010
,
000100
010000
100000
101000
,
000100
000010
000001
001001
,
100000
100000
100000
001100
,
000001
100000
000001
100001
,
000010
000100
100000
000001
,
100000
000000
000010
000100
,
100000
010000
100000
001000
,
000001
000010
000001
001000
,
010000
010000
100000
000000
,
000010
000010
000000
001100
,
000001
000010
000100
001000
,
100000
010000
000100
001000
,
100000
001000
000001
000000
000010
000000
000000
000000
,
000001
001000
100000
000000
010000
000000
000000
000000
,
000100
001000
000100
001000
,
010000
000100
000010
000001
,
000100
100000
000001
000000
001000
000000
000000
000000
,
000010
000100
100000
000000
,
000100
010000
000010
001000
,
100000
000001
000100
010010
,
000100
000000
000010
000000
001000
000100
000000
001000
,
000000
000000
000000
100001
000000
000000
000000
000000
,
000100
000000
000000
000000
000100
001000
010000
000000
,
000000
100000
000001
000001
,
000100
000000
010000
000000
001000
000100
000000
001000
,
000000
000000
000000
100001
000000
000000
000000
000000
,
000100
000000
000000
000000
000100
001000
000010
000000
,
000000
001000
000000
000000
000010
000001
001000
000000
,
100001
000000
000000
000000
;

//---------------dance-solo - ----------------
#NOTES:
     dance-solo:
     :
     Hard:
     6:
     0.277,0.293,0.178,0.000,0.000:
000000
000000
000000
000000
,
000000
000000
000000
000000
,
000000
000000
000000
000000
,
000000
000000
000000
000000
,
000100
000000
000001
000000
000001
001000
000000
001100
,
000000
000000
000000
010010
000000
000000
000000
000000
,
000100
000100
001000
000000
000010
000000
010000
000000
,
001000
001000
001001
101000
,
000100
010000
000001
000000
000001
001000
000000
001100
,
000000
000000
000000
100001
000000
000000
000000
000000
,
000100
000100
001000
000000
000010
000000
010000
000000
,
000100
000000
000001
000000
000001
001000
000001
000000
,
000010
000100
000010
000100
000010
000100
000001
000000
,
000010
000100
000010
000100
000010
000100
000001
000000
,
100000
001000
100000
000001
100000
001000
000001
000000
,
100000
001000
100000
000001
100000
001000
000001
000000
,
010000
000100
010000
000010
010000
000100
000001
000000
,
010000
000100
010000
000010
010000
000100
000001
000000
,
001000
100000
001000
000001
001000
100000
000001
000000
,
001000
100000
001000
000001
001000
100000
000001
000000
,
000010
000000
000010
000000
000001
000000
000001
001000
,
100000
000000
100000
000000
001000
000000
001000
100000
,
000010
000000
000010
000000
000100
000000
000100
100000
,
000001
000000
000001
000000
001000
000000
001000
100000
,
000100
000000
000010
000010
000000
000000
001000
000000
,
001100
000000
001000
000000
100000
000000
100000
000100
,
000001
000000
001000
000000
001000
000001
100000
000000
,
001000
001000
001000
001100
,
010000
100000
010000
000000
100100
000000
000000
000000
,
000010
000001
000010
000000
000101
000000
000000
000000
,
000001
001000
100000
000000
000100
100000
001000
000000
,
000010
000010
000100
001100
,
001000
100000
001000
000000
001001
000000
000000
000000
,
000010
000010
000001
001000
,
000001
100000
001000
000000
010000
000001
001000
000000
,
100000
001000
000100
000001
100000
000000
001100
000000
,
000100
000000
000001
000000
000001
001000
000000
001100
,
000000
000000
000000
010010
000000
000000
000000
000000
,
000100
000100
001000
000000
000010
000000
010000
000000
,
100000
001000
000001
000000
001001
000000
101000
000000
,
000100
010000
000001
000000
000001
001000
000000
001100
,
000000
000000
000000
010010
000000
000000
000000
000000
,
000100
000100
001000
000000
000010
000000
010000
000000
,
000100
000000
001000
000000
000010
100000
001000
000000
,
100001
000000
000000
000000
;

//---------------dance-single - ----------------
#NOTES:
     dance-single:
     :
     Hard:
     7:
     0.524,0.521,0.240,0.373,0.133:
0020
0000
1030
0010
1000
0000
1010
0000
,
0002
0000
0013
0001
0010
0000
0011
0000
,
0002
0000
1003
0010
1000
0000
1010
0000
,
0010
0000
1000
0000
0010
0000
1000
0000
0010
0000
0100
0000
0010
0000
0000
0010
0000
0000
1000
0000
0000
0010
0000
0000
,
2000
0000
3020
0000
0230
0000
0310
1000
,
0001
0010
2001
0000
3001
0000
0010
0001
,
1000
0010
0200
0000
0310
0010
1000
0001
,
0010
0001
0010
0000
0001
0010
0001
1000
,
0010
1000
0020
0000
2030
0000
3100
0010
,
0001
1000
0020
0000
1030
0001
0010
0100
,
0010
0001
0020
0000
0031
0010
0100
1000
,
0001
0010
0002
0000
1003
0010
1000
0010
,
1010
0000
0000
0000
1100
0000
0000
0000
0010
0000
0001
0000
0010
0001
0010
0000
,
0002
0000
1000
0000
1003
0000
0000
0000
0010
0000
0100
0000
0010
0100
0010
0000
,
2000
0010
3010
0000
0001
1000
0010
1000
,
2010
0010
3010
0000
0101
0100
0001
0100
,
0020
0000
2030
0000
3010
1000
0010
0100
,
0020
0000
0230
0000
0310
1000
0001
0010
,
0100
0010
0002
0000
1003
0010
1000
0010
,
2000
0000
0000
0000
3020
0000
0000
0000
0230
0000
0000
0000
0300
0000
0010
1000
,
0010
0000
0100
0010
0100
0010
0100
0010
0100
0000
0001
0100
0000
0000
0010
0000
,
0010
0000
1000
0001
1000
0000
0001
0000
0010
0000
0100
0010
0000
0000
0001
0000
,
0011
0011
1100
1100
0000
0010
0110
0000
,
0002
0000
0000
0000
1000
0003
0020
0000
0000
0000
1030
0000
0010
0000
1000
0010
,
1000
0000
0010
0100
0001
0100
0001
0100
0010
0000
0000
0101
0000
0000
0010
0000
,
0001
0000
0010
0001
0010
0000
0100
0000
1000
0000
0010
1000
0000
0000
1010
0000
,
1010
0101
0101
0101
0000
0010
0120
0030
,
2000
0000
3010
0200
0000
0301
1000
0000
,
2000
0000
0000
3010
,
0200
0000
0000
0301
,
0020
0000
0000
0130
,
2000
0010
0010
3010
,
0010
0000
0100
0000
0010
0000
0100
0000
0010
0000
0000
0110
0000
0000
0000
0000
,
0001
0000
1000
0000
0001
0000
1000
0000
0001
0000
0000
1001
0000
0000
1000
0000
,
0001
0001
1001
0010
1000
0010
1000
0000
,
0010
0010
0100
0110
0010
1000
0001
0010
,
0100
1000
0010
2000
0000
3010
1000
0000
,
0020
0000
2030
0000
3002
0000
0013
0001
,
0010
0001
0011
0001
0010
0100
2000
0000
,
3010
0100
0010
1000
0001
0010
0001
1000
,
0010
0100
0010
0110
0000
0010
1010
0000
,
2000
3002
0023
0230
,
1300
1000
0010
1000
0010
1000
0010
0010
,
1000
0010
1000
0010
1000
0010
0010
0010
,
0100
0001
0001
0010
0001
0001
0100
0010
,
0010
1000
0001
0001
0010
0001
0001
1000
,
0010
0100
0001
0010
0100
1000
0001
0010
,
0100
1000
0001
0010
0100
1000
0001
1000
,
0010
0010
1000
1000
0001
0001
0100
0100
,
0010
0010
0100
0100
0001
0001
1000
1000
,
0010
1000
0100
0010
0001
0100
0010
1000
0010
0100
0001
1000
,
0010
0000
0000
0000
;

//---------------dance-single - ----------------
#NOTES:
     dance-single:
     :
     Challenge:
     8:
     0.574,0.566,0.515,0.311,0.204:
0200
0000
0301
0100
0001
0000
0101
0000
,
0020
0000
1030
0010
1000
0000
1010
0000
,
0200
0000
0310
0100
0010
0000
0110
0000
,
1000
0000
0010
0000
0100
0000
0001
0000
1000
0000
0010
0000
0100
0000
0000
0010
0000
0000
0010
0000
0000
1000
0000
0000
,
0002
0000
0103
0000
0110
0000
1001
0001
,
1000
0100
2000
0000
3100
1000
0100
1000
,
0001
0100
0020
0000
0130
0010
0010
1000
,
0100
1000
1100
0000
1000
0100
1000
0001
,
0100
0001
0200
0000
0302
0000
0013
0100
,
1000
0001
0200
0000
0301
1000
0100
0010
,
0100
1000
0200
0000
1300
0100
0010
0001
,
1000
0100
2000
0000
3001
0100
0001
0100
,
0101
0000
0000
0000
0011
0000
0000
0000
1100
0000
0100
0000
1000
0100
1000
0000
,
0002
0000
1000
0000
1003
0000
0000
0000
0100
0000
0010
0000
0100
0010
0100
0000
,
0020
1000
1030
0000
1000
0001
0100
0001
,
0102
0100
0103
0000
1010
0010
1000
0010
,
0200
0000
0302
0000
0103
0001
0100
0010
,
0210
0000
0301
0000
0100
0001
1000
0100
,
0010
0100
2000
0000
3001
0100
0001
0100
,
0002
0000
0203
0000
0320
0000
0030
0100
,
0001
0000
0100
0001
0100
0001
0100
0010
1000
0000
0001
1000
0000
0000
0010
0000
,
1000
0000
0100
1000
0100
0000
1100
0000
1000
0000
0100
0010
0000
0000
0001
0000
,
0100
0010
0110
0110
0000
0110
1001
0000
,
0200
0000
0320
0000
2030
0000
3010
1000
,
0001
0000
0100
0010
0100
0010
0100
0010
0100
0000
0001
0100
0000
0000
1001
0000
,
0010
0000
0100
0001
1000
0000
1001
0000
0100
0000
0010
1000
0000
0000
0110
0000
,
0110
0110
1001
1001
0000
0110
1001
0000
,
0200
0000
0000
0000
0320
0000
0000
0000
2030
0000
0000
0000
3001
0000
0000
0002
,
0000
0000
0000
0000
0000
0000
0000
0000
0100
0000
0000
0103
0000
0000
0000
0020
,
0000
0000
0000
0000
0000
0000
0000
0000
1000
0000
0000
1030
0000
0000
0000
0200
,
0000
0000
0000
0000
0000
0000
0000
0000
0010
0000
0000
0310
0000
0000
0000
0000
,
0001
0001
0001
0100
0100
0000
1001
0000
,
0100
0000
0010
0000
0100
0000
0010
0000
0100
0000
0000
0110
0000
0000
0000
0000
,
1000
0000
0001
0000
1000
0000
0001
0000
1000
0000
0000
1001
0000
0000
1000
0000
,
0001
0000
1000
0001
1000
0001
1000
0001
1000
0000
0010
1000
0000
0000
1001
0000
,
0100
0000
0010
0100
0010
0000
1000
0000
1001
0000
0001
1000
0000
0000
1001
0000
,
1000
0001
0100
1001
0000
0110
0101
0000
,
0200
0000
0302
0103
0000
2000
3100
1000
,
0100
0000
1000
0100
1000
0100
1000
0100
1000
0000
0010
0100
0000
0000
1001
0000
,
0100
0000
0010
0100
0010
0000
1000
0000
1001
0000
0100
0010
0000
0000
0001
0000
,
0100
0010
0100
0110
0000
0101
1010
0000
,
0002
0000
0103
0110
0000
1000
2001
0000
,
3001
0001
0100
0001
0100
0001
0101
0101
,
0001
0100
0001
0100
0001
0100
0110
0110
,
0010
1000
1000
0100
1000
1000
1010
1010
,
0100
0001
1000
1000
0100
1000
1001
1001
,
0100
0010
1000
0100
0010
0001
0101
0101
,
0100
0001
1000
0100
0010
0001
0011
0011
,
0100
0100
0001
0001
1000
1000
1010
1010
,
0100
0100
0010
0010
1000
1000
1001
1001
,
0100
0001
0010
0100
1000
0100
0010
0001
0100
0010
1000
0001
,
0100
0000
0000
0000
;

//---------------dance-single - ----------------
#NOTES:
     dance-single:
     :
     Medium:
     5:
     0.329,0.363,0.151,0.240,0.000: // measure 1
0010
0010
0020
0030
,  // measure 2
0100
0100
0200
0300
,  // measure 3
0010
0010
0020
0030
,  // measure 4
0100
0010
0110
0000
,  // measure 5
1000
0000
0010
0000
0100
0000
0000
0010
,  // measure 6
0100
0010
0100
0000
0010
0000
1000
0000
,  // measure 7
0001
2000
3000
0001
,  // measure 8
1000
0000
0020
0000
0030
0100
0020
0000
,  // measure 9
0130
0010
0200
0000
0301
0000
0001
1000
,  // measure 10
0010
0000
0200
0000
0300
0000
0001
1000
,  // measure 11
0100
0000
1000
0000
0001
0000
0100
0001
,  // measure 12
0100
0000
0010
0000
0100
0010
0100
0000
,  // measure 13
0110
0000
1010
0000
1010
0000
0100
0010
,  // measure 14
0100
0000
0101
0000
0101
0000
0010
0100
,  // measure 15
0010
0000
0110
0000
1001
0000
1000
0100
,  // measure 16
2000
0000
3002
0000
0103
0000
0100
0010
,  // measure 17
0200
0000
0302
0000
0103
0010
1000
0000
,  // measure 18
0020
0000
1000
0000
0130
0000
0100
0010
,  // measure 19
0100
0000
0001
0000
1000
0001
1000
0010
,  // measure 20
1000
0000
0010
0000
1001
0000
0000
0001
,  // measure 21
1000
0000
0010
0000
1000
0010
1000
0000
,  // measure 22
0010
0000
0100
0000
0010
0100
0010
0000
,  // measure 23
1000
0001
1001
0000
,  // measure 24
0010
0100
0110
1001
,  // measure 25
0001
0000
0010
0001
0010
0000
0001
0000
,  // measure 26
1000
0000
0010
1000
0010
0000
0100
0000
,  // measure 27
0010
0100
0110
0000
,  // measure 28
0002
1000
0100
1003
,  // measure 29
2000
0000
0000
3000
,  // measure 30
0002
0000
0000
0000
0000
0000
0000
0003
,  // measure 31
0200
0000
0000
0300
,  // measure 32
0020
0000
0000
0030
,  // measure 33
0010
0100
0010
0100
0020
0000
0130
0000
,  // measure 34
0010
0100
0010
0100
0020
0000
0130
0000
,  // measure 35
0001
0000
0100
0000
0001
0100
0001
0000
,  // measure 36
0100
0000
0010
0000
0100
0010
0100
0000
,  // measure 37
0001
1000
2002
3003
,  // measure 38
0100
0010
0110
1001
,  // measure 39
1000
0000
0100
1000
0100
0000
1000
0000
,  // measure 40
0001
0000
0100
0001
0100
0000
0010
0000
,  // measure 41
0100
0010
0220
0330
,  // measure 42
2000
0001
0010
3001
,  // measure 43
0001
0000
1000
0000
0001
1000
0001
0000
,  // measure 44
1000
0000
0010
0000
1000
0010
1000
0000
,  // measure 45
0010
0000
0100
0000
0010
0100
0010
0000
,  // measure 46
0100
0000
0001
0000
0100
0001
0100
0000
,  // measure 47
0010
0000
1000
0000
0001
0010
0100
0000
,  // measure 48
1000
0000
0010
0000
0100
0001
0010
0000
,  // measure 49
0100
0000
1000
0000
0010
0100
0010
0000
,  // measure 50
1000
0000
0001
0000
0010
0001
0100
0000
,  // measure 51
0020
0000
0230
0000
,  // measure 52
0310
0000
0000
0000
;

//---------------dance-single - ----------------
#NOTES:
     dance-single:
     :
     Easy:
     3:
     0.192,0.204,0.044,0.133,0.000: // measure 1
0010
0000
0010
0010
,  // measure 2
0010
0000
0100
0100
,  // measure 3
0100
0000
0010
0010
,  // measure 4
0020
0000
0030
0000
,  // measure 5
0100
0000
0010
0000
,  // measure 6
0100
0000
0001
0000
,  // measure 7
1000
0000
0010
0000
,  // measure 8
0100
0000
0010
0000
,  // measure 9
1000
0000
0001
0000
,  // measure 10
1000
0000
0010
0000
,  // measure 11
0100
0000
0010
0000
,  // measure 12
0100
0000
0010
0010
,  // measure 13
0010
0000
0000
0100
,  // measure 14
0100
0100
0010
0100
,  // measure 15
0010
1000
0000
0010
,  // measure 16
1000
0001
0000
1000
,  // measure 17
0010
0100
0000
0001
,  // measure 18
0010
0000
0000
0001
,  // measure 19
1000
0010
0000
1000
,  // measure 20
1001
0000
0000
0000
,  // measure 21
1000
1000
0001
0001
,  // measure 22
1000
0010
0100
0001
,  // measure 23
2000
0000
3001
0000
,  // measure 24
1000
0000
1001
0000
,  // measure 25
0001
1000
0010
0100
,  // measure 26
0001
0010
0100
1000
,  // measure 27
0020
0000
1030
0000
,  // measure 28
0020
0000
0230
0000
,  // measure 29
0320
0000
0000
0030
,  // measure 30
0200
0000
0000
0300
,  // measure 31
0002
0000
0000
0003
,  // measure 32
2000
0000
0000
3000
,  // measure 33
0010
0000
0000
0110
,  // measure 34
0100
0000
0000
0110
,  // measure 35
0001
0001
1000
1000
,  // measure 36
0001
0100
0010
1000
,  // measure 37
0002
0000
1003
0000
,  // measure 38
0001
0000
1001
0000
,  // measure 39
1000
0001
0100
0010
,  // measure 40
1000
0100
0010
0001
,  // measure 41
0200
0000
0301
0000
,  // measure 42
0200
0000
0320
0000
,  // measure 43
0130
0000
0010
0010
,  // measure 44
0100
0000
0001
0001
,  // measure 45
1000
0000
0010
0010
,  // measure 46
0100
0000
0001
0001
,  // measure 47
0010
0000
0100
0100
,  // measure 48
1000
0000
0001
0001
,  // measure 49
1000
0000
0010
0010
,  // measure 50
0100
0000
0010
0010
,  // measure 51
0200
0000
0302
0000
,  // measure 52
1003
0000
0000
0000
;
