#TITLE:10 Minutes;
#SUBTITLE:(Breeze & Klubfiller Remix);
#ARTIST:Inna;
#TITLETRANSLIT:;
#SUBTITLETRANSLIT:;
#ARTISTTRANSLIT:;
#CREDIT:;
#BANNER:10 Minutes (Breeze & Klubfiller Remix)-banner.png;
#BACKGROUND:10 Minutes (Breeze & Klubfiller Remix)-bg.png;
#LYRICSPATH:;
#CDTITLE:cd.png;
#MUSIC:10 Minutes (Breeze & Klubfiller Remix).mp3;
#OFFSET:-5.704;
#SAMPLESTART:38.690;
#SAMPLELENGTH:12.000;
#SELECTABLE:YES;
#BPMS:0.000=170.000;
#STOPS:;
#BGCHANGES:;

//---------------dance-single - ----------------
#NOTES:
     dance-single:
     :
     Hard:
     9:
     0.642,0.520,0.208,0.433,0.000:
2001
0000
3001
0000
1000
0001
1000
0001
,
0200
0000
0310
0000
0001
0010
0001
0010
,
0002
1003
0020
1030
,
0001
1000
0001
0000
0001
0100
0010
0000
,
1002
0000
1003
0000
0100
1000
0100
1000
,
0020
0000
0130
0000
0001
0100
0001
0100
,
0020
0000
1030
0000
0001
1000
0001
1000
,
0100
0000
0100
1000
0002
0000
0013
0000
,
0011
0000
0011
0000
0100
1000
0100
1000
,
0100
0000
0010
1000
0001
0100
1000
0001
,
0100
0000
0001
0100
1000
0010
2000
0000
,
3001
1000
0001
1000
0010
0100
0001
0010
,
0001
0000
0101
0000
0010
0100
0010
0100
,
0020
0000
1030
0000
0100
1000
0001
0010
,
0002
0000
0013
0000
0100
1000
0010
0100
,
0001
0000
0001
0010
1000
0000
1000
0001
,
0200
0000
0301
0000
0101
0000
0001
0100
,
0001
0000
0001
0100
0001
0100
0001
0000
,
0020
0000
1030
0000
1010
0000
0010
1000
,
0010
0000
0010
1000
0010
1000
0010
1000
,
0100
0000
0010
0000
0010
0000
0100
0010
,
0100
0000
0010
0100
0010
0100
0010
0000
,
0010
0100
0010
0100
0010
0100
0010
0100
,
0020
0000
0000
0030
,
2001
0000
3010
0000
0010
0000
0010
1000
,
0010
0000
0010
0100
0001
0100
0010
0000
,
0011
0000
1001
0000
1100
0000
0010
1000
,
0010
0000
0010
0100
0001
0010
0100
0000
,
0002
0000
0103
0000
0101
0000
0010
0100
,
0001
0000
0010
0100
0001
1000
0010
0000
,
1010
0000
1001
0000
0101
0000
0100
1000
,
0001
0000
0001
0100
1000
0001
0010
0001
,
0200
0000
0301
0000
0001
0100
0001
0100
,
0002
0000
1003
0000
1000
0100
1000
0100
,
2000
0000
3001
0000
0100
0010
0100
0010
,
0002
2003
3200
0320
,
2030
0000
3001
0000
0001
0100
0001
0100
,
0002
0000
0013
0000
0010
0001
0010
0001
,
0020
0000
1030
0000
1000
0001
1000
0001
,
2000
3002
0203
0301
,
0101
0000
0101
0000
0101
0000
1000
0010
,
1000
0000
0100
0001
0100
0001
0100
0010
,
2000
0000
3002
0000
2003
0000
3001
0100
,
0001
0100
0001
0000
1000
0010
1000
0010
,
1000
0000
1001
0000
1001
0000
0100
0010
,
0001
0000
1000
0010
0001
0100
0010
1000
,
0002
0000
0203
0000
0320
0000
1030
0001
,
0100
0010
1000
0100
0010
0001
1000
0000
,
0002
0003
0002
0003
0002
0003
1000
0010
,
1000
0010
0100
0001
0100
0010
0001
0000
,
2000
3000
2000
3000
2000
3000
0100
0010
,
0001
0100
0010
0001
0100
1000
0001
0000
,
0200
0300
0200
0300
0200
0300
0100
0010
,
0000
1000
0000
0001
0100
0010
1000
0001
,
0020
0030
0020
0030
0020
0030
0100
0010
,
0000
1000
0000
0001
2000
0000
3001
0000
,
1000
0010
1000
0010
1000
0010
1000
0000
,
0001
0100
0001
0100
0001
0100
0001
0000
,
0010
0100
0010
0100
0010
0100
0010
0000
,
0001
1000
0100
0010
0001
1000
0010
0000
,
0001
0010
0001
0010
0001
0010
0001
0000
,
0100
1000
0100
1000
0100
1000
0100
0000
,
0010
0100
0010
0100
0010
0100
0010
0000
,
0001
1000
0100
0001
0010
1000
0001
0100
,
1000
0001
0000
0010
0000
0001
0000
0001
,
1000
0100
0000
0100
0000
1001
0000
0010
,
0100
0010
0000
0110
0000
0001
0100
1000
,
0001
0010
0100
0001
0100
1000
0001
0010
,
0100
0001
0000
0001
0000
0001
1000
0010
,
1000
0100
0000
0100
0000
0100
1000
0010
,
0100
0001
0000
0001
0000
0001
1000
0010
,
0100
0001
1000
0100
0010
0001
0100
0000
,
1001
0000
0000
0000
;

//---------------dance-single - ----------------
#NOTES:
     dance-single:
     :
     Medium:
     6:
     0.501,0.520,0.235,0.190,0.000: // measure 1
1000
0000
0001
0000
1000
0010
1000
0000
,  // measure 2
0001
0000
0100
0000
0010
0100
0010
0000
,  // measure 3
0001
0100
1000
0001
,  // measure 4
0001
0100
1000
0000
0001
0010
1000
0100
,  // measure 5
1000
0000
0001
0000
0010
0100
0010
0000
,  // measure 6
0001
0000
0100
0000
1000
0010
1000
0000
,  // measure 7
0001
0001
1000
1000
,  // measure 8
0001
0010
1001
0100
,  // measure 9
1000
0000
0001
0000
0010
0001
0010
0001
,  // measure 10
0010
0000
0010
0000
0100
1000
0100
1000
,  // measure 11
0100
1000
0001
1000
,  // measure 12
0010
0000
0100
0000
0001
0100
0010
0000
,  // measure 13
0010
0100
0001
0000
0001
0000
1000
0000
,  // measure 14
0010
1000
0100
0000
0001
0000
0100
0000
,  // measure 15
1000
0001
1000
0000
0001
0010
1000
0000
,  // measure 16
0001
0100
1000
0000
0001
0010
0100
0001
,  // measure 17
0100
1000
0001
0010
,  // measure 18
1001
0110
1001
0110
,  // measure 19
0011
0011
1100
1100
,  // measure 20
1001
0001
0100
0010
,  // measure 21
0002
2003
3020
0230
,  // measure 22
0302
0000
2003
0000
3010
1000
0010
0000
,  // measure 23
1000
0000
0001
0000
0010
0000
0001
0100
,  // measure 24
2000
0000
0000
3000
,  // measure 25
1001
0000
0110
0000
0001
0000
0001
0100
,  // measure 26
1000
0001
0010
0100
,  // measure 27
0110
0000
1001
0000
0110
0000
0001
0100
,  // measure 28
1000
0010
0010
0100
,  // measure 29
0002
0000
1003
0000
0001
0000
1000
0001
,  // measure 30
1000
0000
0010
1000
0010
0000
0010
0000
,  // measure 31
2000
3002
0203
0310
,  // measure 32
0100
0000
0001
0000
0001
0100
1000
0000
,  // measure 33
0001
0000
0010
0000
0010
1000
0010
0000
,  // measure 34
0100
0000
0001
0000
0001
0100
0001
0000
,  // measure 35
0010
0000
0100
0000
1000
0010
1000
0000
,  // measure 36
0010
0010
1001
1001
,  // measure 37
0200
0000
0310
0000
0010
0100
0010
0000
,  // measure 38
0002
0000
0103
0000
0001
0100
0001
0000
,  // measure 39
0020
1030
0020
0130
,  // measure 40
0002
0103
0002
1003
,  // measure 41
0010
0000
0100
0000
1000
0000
0001
0100
,  // measure 42
0000
1000
0000
0010
1000
0000
0001
0000
,  // measure 43
1001
0000
0110
0000
1001
0000
0001
0010
,  // measure 44
0000
0001
0000
0100
1000
0000
0010
0000
,  // measure 45
0001
0000
0010
0000
0100
0000
1000
0010
,  // measure 46
0000
0010
0000
0010
1000
0000
0001
0000
,  // measure 47
1001
0000
0110
0000
1001
0000
0001
0100
,  // measure 48
0000
0001
0000
0001
0010
0100
0001
0000
,  // measure 49
0001
0000
0100
0000
1000
0000
0010
2000
,  // measure 50
0000
0000
0001
0001
,  // measure 51
3001
0000
0100
0000
0010
0000
0100
0020
,  // measure 52
0000
1000
0000
0100
0000
1000
0030
0001
,  // measure 53
0100
0000
1000
0000
0001
0000
0010
0200
,  // measure 54
0000
0001
0000
0010
0000
0001
0300
0001
,  // measure 55
0100
0000
1000
0000
0001
0000
0020
1000
,  // measure 56
0000
1000
0000
1000
0030
0000
0000
0000
,  // measure 57
0001
1000
0000
0010
0000
0010
0000
1000
,  // measure 58
0100
1000
0000
0010
0000
0010
0000
0100
,  // measure 59
0001
0100
0000
0010
0000
0010
0000
0100
,  // measure 60
1000
0100
0000
0100
1000
0010
0000
0010
,  // measure 61
1000
0001
0000
0001
0000
0001
0000
1000
,  // measure 62
0010
1000
0000
0110
0000
0010
0000
0010
,  // measure 63
0100
0001
0000
0001
0000
0110
0000
0001
,  // measure 64
0000
0001
1000
0100
0000
1000
0100
1000
,  // measure 65
0001
0000
0010
0000
0001
0000
0010
1000
,  // measure 66
0010
0000
0010
0000
0010
1000
0100
0000
,  // measure 67
0100
0000
1000
0000
0001
1000
0001
0000
,  // measure 68
0001
0000
0100
0000
0001
0100
0010
0100
,  // measure 69
0001
0000
0010
0000
0100
0000
1000
0010
,  // measure 70
1000
0000
0001
0000
0001
0100
0010
0000
,  // measure 71
0010
0000
1000
0000
0100
0000
0001
0100
,  // measure 72
0001
0000
0010
0100
0010
0000
0010
0000
,  // measure 73
1001
0000
0000
0000
;

//---------------dance-single - ----------------
#NOTES:
     dance-single:
     :
     Easy:
     4:
     0.397,0.488,0.352,0.163,0.000: // measure 1
2000
0000
3001
0001
,  // measure 2
0200
0000
0301
0001
,  // measure 3
0002
0000
0103
0100
,  // measure 4
0020
0000
0130
0010
,  // measure 5
0100
1001
0010
1001
,  // measure 6
0100
1001
0010
1001
,  // measure 7
0100
1001
0010
1001
,  // measure 8
0100
1001
1001
1001
,  // measure 9
0001
1000
0001
1000
,  // measure 10
0010
1000
0010
1000
,  // measure 11
0001
0100
0001
0100
,  // measure 12
1100
0001
0100
0010
,  // measure 13
0011
0100
1000
0001
,  // measure 14
1001
0000
0010
0010
,  // measure 15
2002
3003
0010
0100
,  // measure 16
0001
1000
0100
1000
,  // measure 17
0002
1000
1000
1003
,  // measure 18
2000
0010
0010
3010
,  // measure 19
0020
0100
0100
0130
,  // measure 20
0200
0001
0001
0301
,  // measure 21
0001
1000
0010
1000
,  // measure 22
0001
0100
1000
0010
,  // measure 23
1001
0110
1001
0110
,  // measure 24
1001
0000
0000
0000
,  // measure 25
0001
1000
0001
1000
,  // measure 26
1001
0010
0100
0010
,  // measure 27
1001
0110
1001
0001
,  // measure 28
0200
1300
0002
0103
,  // measure 29
1001
0110
1001
0100
,  // measure 30
1000
0010
0100
0001
,  // measure 31
0002
0013
0200
1300
,  // measure 32
1001
0010
0100
1000
,  // measure 33
1001
0000
0010
0010
,  // measure 34
1001
0000
0010
0001
,  // measure 35
0011
0000
0100
1000
,  // measure 36
1100
0000
0010
0010
,  // measure 37
1001
0000
0100
0010
,  // measure 38
0110
0000
0001
1000
,  // measure 39
1001
0000
1001
0000
,  // measure 40
1001
1001
1001
1001
,  // measure 41
0001
1000
0010
1000
,  // measure 42
0002
0000
0000
0003
,  // measure 43
1000
0010
0100
0001
,  // measure 44
2000
0000
0000
3000
,  // measure 45
0010
0100
0001
0010
,  // measure 46
0200
0000
0000
0300
,  // measure 47
0010
1000
0001
0100
,  // measure 48
0020
0000
0000
0030
,  // measure 49
1000
0000
0001
0001
,  // measure 50
0001
0000
1000
1000
,  // measure 51
0010
0000
0100
0001
,  // measure 52
0100
0000
0010
1000
,  // measure 53
0010
0000
0100
0001
,  // measure 54
0100
0000
0010
0001
,  // measure 55
1000
0000
0100
1000
,  // measure 56
0010
0000
0000
0000
,  // measure 57
0000
1000
0000
0001
0000
1000
0000
0001
,  // measure 58
0000
0100
0000
0010
0000
0001
0000
0100
,  // measure 59
0000
1000
0000
0001
0000
0010
0000
0001
,  // measure 60
0000
0100
0000
1000
0000
0001
0000
0001
,  // measure 61
0100
1000
0001
0010
,  // measure 62
1000
0001
0100
1000
,  // measure 63
0001
0010
0001
0100
,  // measure 64
1000
0010
0100
1000
,  // measure 65
0001
1000
0000
0010
0000
0001
0000
0100
,  // measure 66
0000
1000
0000
0001
0000
0010
0000
0001
,  // measure 67
0000
0100
0000
1000
0000
0001
0000
0010
,  // measure 68
0000
0100
0000
0001
0000
1000
0000
0010
,  // measure 69
1000
0001
0100
1000
,  // measure 70
0001
0010
0100
1000
,  // measure 71
0010
0001
0100
1000
,  // measure 72
0010
0100
0100
0010
,  // measure 73
1001
0000
0000
0000
;
