#TITLE:(I Think I'm Goin') Outta My Head;
#SUBTITLE:;
#ARTIST:Sy & Gammer;
#TITLETRANSLIT:;
#SUBTITLETRANSLIT:;
#ARTISTTRANSLIT:;
#CREDIT:;
#BANNER:(I Think I'm Goin') Outta My Head-bn.png;
#BACKGROUND:(I Think I'm Goin') Outta My Head-bg.png;
#LYRICSPATH:;
#CDTITLE:cd.png;
#MUSIC:(I Think I'm Goin') Outta My Head.mp3;
#OFFSET:-5.640;
#SAMPLESTART:85.170;
#SAMPLELENGTH:12.000;
#SELECTABLE:YES;
#BPMS:0.000=175.020,96.000=87.510,152.000=175.020;
#STOPS:176.000=1.371
,236.000=1.371
;
#BGCHANGES:;

//---------------dance-single - ----------------
#NOTES:
     dance-single:
     :
     Hard:
     9:
     0.615,0.608,0.159,0.159,0.357: // measure 1
2000
0000
3100
0000
1000
0100
1000
0000
,  // measure 2
0002
0000
0013
0000
0001
0010
0001
0000
,  // measure 3
0200
0000
0310
0000
0100
0010
0100
0000
,  // measure 4
0002
0000
1003
0000
0001
1000
0001
0000
,  // measure 5
0001
0010
0001
0010
0100
1000
0200
0000
,  // measure 6
1300
0010
1000
0010
0100
0010
2000
0000
,  // measure 7
3100
0010
0001
0100
0010
1000
0100
0010
,  // measure 8
0002
0000
0000
0003
,  // measure 9
1001
0000
0000
0001
1000
0000
0000
0010
0100
0000
0000
0001
1000
0000
0000
0010
,  // measure 10
0100
0000
0000
0001
0100
0000
0000
0010
1000
0000
0000
0001
0100
0000
0000
0010
,  // measure 11
1000
0000
0000
0001
1000
0000
0000
0010
0100
0000
0000
0001
1000
0000
0000
0001
,  // measure 12
1000
0001
1000
0000
0100
0000
0010
0100
0010
0000
0001
0000
1000
0000
0001
0000
,  // measure 13
0100
0000
0000
0010
0100
0000
0000
0100
0010
0000
0000
0010
0100
0000
0000
0001
,  // measure 14
1000
0000
0000
1000
0001
0000
0000
0001
1000
0000
0000
1000
0001
0000
0000
0100
,  // measure 15
0001
0000
0000
1000
0001
0000
0000
0100
0010
0000
0000
0010
1000
0000
0000
1000
,  // measure 16
0001
0001
0001
0001
1000
1000
1000
1000
,  // measure 17
0001
0000
0001
0000
0000
0000
0001
0000
0001
1000
0001
1000
0001
0000
0100
0000
,  // measure 18
0001
0000
1000
0000
0000
0000
1000
0000
0001
0100
0001
0100
0001
0000
1000
0000
,  // measure 19
0100
0000
0010
0000
0000
0000
0001
0000
0100
0010
0100
0010
0100
0000
0001
0000
,  // measure 20
1000
0010
2000
0000
3001
0000
1001
0000
,  // measure 21
1000
0000
0000
0001
1000
0000
0000
0001
1000
0000
0000
0001
1000
0000
0000
0010
,  // measure 22
0100
0000
0000
0010
0100
0000
0000
0010
0100
0000
0000
0010
0100
0000
0000
0001
,  // measure 23
2000
0000
0000
0000
,  // measure 24
3002
0000
0000
0003
,  // measure 25
0001
1000
0001
1000
0001
1000
0001
1000
,  // measure 26
0010
1000
0010
1000
0010
1000
0010
1000
,  // measure 27
0010
0100
0010
0100
0010
0100
0010
0100
,  // measure 28
0001
0010
0001
0010
0001
0010
0001
0010
,  // measure 29
0100
1000
0001
1000
0001
1000
0001
1000
,  // measure 30
1001
0001
1000
0001
1000
0001
1001
0100
,  // measure 31
1001
0100
0001
1000
0001
0100
1010
0001
,  // measure 32
1010
0100
1000
0001
0101
1000
0010
0100
,  // measure 33
0100
0001
1000
0010
0100
0001
1000
0001
,  // measure 34
0110
0001
1000
0010
1010
0100
1000
0001
,  // measure 35
1001
0001
0001
1000
0001
1000
0001
1000
,  // measure 36
1000
1000
0001
1000
0001
1000
0001
1000
,  // measure 37
0001
0001
1000
0001
1000
0001
1000
0001
,  // measure 38
1000
1000
0001
1000
0001
1000
0001
1000
,  // measure 39
0110
0200
0000
0300
0110
0020
0000
0030
,  // measure 40
1001
0002
0000
0003
1001
2000
0000
3000
,  // measure 41
1000
0010
1000
0000
0010
0100
0010
0000
,  // measure 42
1000
0010
1000
0000
0001
0100
0001
0000
,  // measure 43
1000
0001
1000
0001
1000
0001
1000
0001
,  // measure 44
0100
0010
0100
0010
0100
0010
0100
0010
,  // measure 45
2000
0000
0000
3000
,  // measure 46
1001
0000
0001
1000
0001
0000
0100
0000
0010
0100
0010
0000
1000
0000
0010
1000
,  // measure 47
0010
0000
0100
0001
0100
0000
0010
0000
1000
0010
1000
0000
0100
0000
0010
0001
,  // measure 48
0010
0000
0100
0010
0100
0000
0010
0000
0001
1000
0001
0000
0100
0000
0001
0010
,  // measure 49
0001
0000
0010
0001
0010
0000
0001
0000
1000
0001
1000
0000
0010
0000
0100
0001
,  // measure 50
0100
0000
0001
1000
0001
0000
0100
0000
0010
1000
0010
0000
0100
0000
0010
0100
,  // measure 51
0010
0000
1000
0010
1000
0000
0001
0000
0010
0001
0010
0000
0001
0000
0100
0001
,  // measure 52
0100
0000
0010
1000
0010
0000
1000
0000
0100
0010
0100
0000
0010
0000
0100
0010
,  // measure 53
0200
0000
1000
1300
,  // measure 54
1000
0000
0010
1000
0000
0010
1000
0000
0010
1000
0010
1000
0010
0000
1000
0000
,  // measure 55
0001
0000
0100
0001
0000
0100
0001
0000
0100
0001
0100
0001
0100
0000
0010
0000
,  // measure 56
0100
0000
0010
0100
0000
0010
0100
0000
0010
0100
0010
0100
0010
0000
0100
0000
,  // measure 57
0001
0100
0000
0100
0001
0000
1000
0010
0000
0010
1000
0000
0001
0000
1000
0000
,  // measure 58
0001
0000
0100
0001
0100
0000
0001
0000
0100
0001
0100
0000
0010
0000
1000
0000
,  // measure 59
0010
0000
0100
0010
0100
0000
0001
0000
1000
0010
0100
0000
0100
0000
0001
0000
,  // measure 60
2002
0000
0000
3003
,  // measure 61
1001
0000
0000
0000
;

//---------------dance-single - ----------------
#NOTES:
     dance-single:
     :
     Medium:
     7:
     0.411,0.449,0.194,0.238,0.000:
1000
0000
0010
0000
0010
0100
0020
0000
,
0030
0000
0100
0000
0100
0001
0200
0000
,
0300
0000
0010
0000
1000
0100
2000
0000
,
3000
0000
0010
0000
0001
1000
0002
0000
,
0003
0000
0100
0000
1000
0010
2000
0000
,
3000
0000
0001
0000
0100
0010
0200
0000
,
0301
0001
0010
0100
,
2000
0000
0000
0000
,
3000
0010
0000
0010
0000
1000
0000
1010
,
0000
0010
0000
0100
0000
0001
0000
1001
,
0000
0001
0000
1000
0000
0001
0000
1001
,
0000
0001
0000
0010
0000
0001
0000
0011
,
0000
0100
0000
1000
0000
0100
0000
1100
,
0000
0001
0000
0100
0000
0001
0000
0101
,
0000
0010
0000
0100
0000
0010
0000
0010
,
0020
0000
0000
0000
,
0030
0100
0000
1000
0000
0001
0000
1001
,
0000
0001
0000
0010
0000
0001
0000
0011
,
0000
0100
0000
1000
0000
1100
0000
0100
,
1000
0100
1000
0010
1000
0000
0001
0000
,
0001
0100
0000
0010
0000
0010
0000
0010
,
1000
0100
0000
0100
0000
0100
0000
0010
,
0002
0000
0000
0000
,
2000
0003
3020
0030
,
1001
0001
0001
0100
,
0001
1000
0010
1000
,
0010
0100
0001
1000
,
1010
0100
0110
0001
,
0100
1000
0001
1000
,
2001
0010
3100
0102
,
1000
0010
0103
2010
,
0100
3010
0210
0301
,
0012
0100
1000
0013
,
0200
0010
0301
0010
,
1010
0100
1000
0001
,
0010
0100
0001
0010
,
0011
0001
0200
0301
,
0010
0100
1000
0010
,
0010
0010
0000
0000
0100
0100
0000
0000
,
0001
0001
0000
0000
1000
1000
0000
0000
,
0010
1000
0010
0000
0100
0001
0100
0000
,
0001
0010
0001
0000
1000
0010
1000
0000
,
0001
0100
0001
0100
0001
0100
0001
0100
,
0010
1000
0010
1000
0010
1000
0010
0000
,
0220
0000
0000
0330
,
0001
0100
0001
0100
0010
0100
0001
0000
,
0100
0001
1000
0010
1000
0010
0100
0000
,
1000
0010
0100
0010
1000
0100
0010
0000
,
0001
0010
0100
0010
0001
0100
0010
0000
,
0001
1000
0010
0100
0001
0010
0100
0000
,
0100
1000
0010
1000
0100
1000
0001
0000
,
0001
0100
0010
0100
0001
1000
0001
0000
,
2001
0001
0000
3001
,
0100
0001
1000
0100
0010
0100
0020
0000
,
0130
1000
0001
0100
0010
0100
0002
0000
,
0103
0010
0100
0001
1000
0010
2000
0000
,
3010
0100
0001
0010
0100
0010
0100
0000
,
1000
0001
0100
0010
0100
0001
2000
0000
,
3010
1000
0100
1000
0010
1000
0002
0000
,
2003
0000
0000
3000
,
1001
0000
0000
0000
;

//---------------dance-single - ----------------
#NOTES:
     dance-single:
     :
     Easy:
     4:
     0.288,0.476,0.423,0.070,0.000:
1000
1000
1000
0000
,
0001
0001
0001
0000
,
1000
1000
1000
0000
,
0001
0001
0001
0000
,
1000
1000
1000
0000
,
0010
0010
0010
0000
,
0100
0100
0100
0100
,
0020
0000
0000
0030
,
1000
0010
1000
1010
,
0010
1000
0001
1001
,
0001
0100
0001
0101
,
0001
0010
0100
0010
,
0100
0010
0010
0011
,
0001
1000
0010
1010
,
0100
0010
1000
0001
,
1001
0000
1001
0000
,
0001
0010
0002
0003
,
1000
0010
2000
3000
,
0100
0010
0200
0300
,
1000
0001
0020
0030
,
0001
0010
0100
1010
,
1000
0010
0100
0101
,
0001
0010
0100
0010
,
0002
0000
0000
0000
,
1003
0000
0000
0000
,
0001
0000
0000
0000
,
1001
0000
0000
0000
,
1010
0000
0000
0000
,
0100
0000
0000
0000
,
1001
0000
0000
0001
,
1001
0000
0000
0010
,
0110
0000
1000
0000
,
0110
0000
0000
0100
,
0100
0000
0010
0000
,
1001
0000
0000
0000
,
0010
0000
0000
0000
,
0100
0000
0000
0000
,
0001
0000
0000
0000
,
1000
0000
1010
0000
,
0100
0000
0101
0000
,
0010
1010
0100
0110
,
0001
0100
0001
0100
,
1001
1001
1001
1001
,
0110
0110
0110
0110
,
1001
0000
0000
0000
,
0010
1000
0010
1010
,
0100
0001
0100
0101
,
0010
0100
0010
0110
,
0100
0001
1000
1001
,
0001
1000
0001
1001
,
0001
0010
0001
0011
,
0100
1000
0100
1000
,
0202
0000
0000
0303
,
0010
0010
0100
0100
,
1010
1010
0101
0101
,
0001
0001
1000
1000
,
1001
0110
1001
0110
,
0001
1000
0010
1010
,
0100
0001
0100
0101
,
0011
0000
0000
0000
,
1001
0000
0000
0000
;
