#VERSION:0.83;
#TITLE:twinkle song;
#SUBTITLE:;
#ARTIST:Oh.la.la!;
#TITLETRANSLIT:;
#SUBTITLETRANSLIT:;
#ARTISTTRANSLIT:;
#GENRE:;
#ORIGIN:;
#CREDIT:from pop n music 9;
#BANNER:9_CHILDREN_POP.png;
#BACKGROUND:;
#PREVIEWVID:;
#JACKET:;
#CDIMAGE:;
#DISCIMAGE:;
#LYRICSPATH:;
#CDTITLE:Popn_music_9_logo_small.png;
#MUSIC:Oh.la.la! - twinkle song.ogg;
#OFFSET:-0.333000;
#SAMPLESTART:33.668552;
#SAMPLELENGTH:12.000000;
#SELECTABLE:YES;
#BPMS:0.000=179.988;
#STOPS:;
#DELAYS:;
#WARPS:;
#TIMESIGNATURES:0.000=4=4;
#TICKCOUNTS:0.000=4;
#COMBOS:0.000=1;
#SPEEDS:0.000=1.000=0.000=0;
#SCROLLS:0.000=1.000;
#FAKES:;
#LABELS:0.000=Song Start;
#BGCHANGES:;
#KEYSOUNDS:;
#ATTACKS:
;

//---------------dance-single - ----------------
#NOTEDATA:;
#CHARTNAME:;
#STEPSTYPE:dance-single;
#DESCRIPTION:;
#CHARTSTYLE:;
#DIFFICULTY:Beginner;
#METER:4;
#RADARVALUES:0.209839,0.287691,0.095607,0.104299,0.013037,169.000000,158.000000,11.000000,12.000000,0.000000,0.000000,0.000000,0.000000,0.000000,0.209839,0.287691,0.095607,0.104299,0.013037,169.000000,158.000000,11.000000,12.000000,0.000000,0.000000,0.000000,0.000000,0.000000;
#CREDIT:;
#NOTES:
0000
0000
0000
0000
,
0000
0000
0000
0000
,
0000
0000
0000
0000
,
0000
0000
0000
0000
,
0000
0001
0000
0000
,
1000
0000
0000
0010
,
0000
0100
0000
0000
0010
0000
0000
0010
,
0000
0100
0001
0000
,
1001
0000
0000
1000
0000
0000
0001
0000
,
0000
1000
0000
0000
1001
0000
0000
0001
,
0000
1001
0000
0000
,
1000
0100
1000
0000
,
0100
0000
0100
1000
,
0100
0000
1100
0000
,
0101
0000
0001
1000
,
0000
1000
0001
0000
,
1000
1000
0000
0010
,
0100
0000
0001
0100
,
0000
0001
1000
0000
,
0010
0000
0100
0000
,
0010
0100
0010
0000
,
0100
0010
0100
0000
,
0010
0100
0000
0000
,
0200
0000
0300
0001
,
0000
1000
0002
0003
,
0100
0000
0010
0000
,
0100
0000
0001
0000
,
1000
0000
0010
0000
,
0110
0000
1000
0000
,
0001
0000
0100
0000
,
1000
0000
0010
0000
,
0001
0000
1000
0000
,
0100
0000
0010
0010
,
0000
0100
0100
0000
,
0001
0001
0000
0001
,
1000
0000
1000
1000
,
0000
1000
0001
0000
,
1000
0001
0000
0100
,
0000
0000
0100
0000
,
0000
0001
0000
0000
,
1000
0000
0000
0010
,
0000
0000
0200
0000
,
0300
0002
0000
0003
,
2000
0000
3000
0010
,
0000
0100
0000
0100
,
0000
0000
0110
0000
,
0100
0000
0100
0000
,
0010
0000
0110
0000
,
0010
0000
1000
0000
,
0001
0000
1001
0000
,
1000
0000
0100
0000
,
0010
0000
0001
0000
,
1000
0000
0010
0000
,
0100
0000
0002
0000
,
0003
0000
1000
0000
,
1000
0000
0001
0000
,
0001
0000
0100
0000
,
0100
0000
0010
0000
,
0100
0000
0100
0000
,
0010
0000
0110
0000
,
1000
0000
0001
0000
,
1001
0000
1000
0000
,
0000
0010
0000
0000
,
0100
0000
0000
0010
,
0000
0100
0001
0000
,
0000
1000
0000
0000
,
0010
0000
0000
0100
,
0001
0000
0100
0100
,
0000
0001
0001
0000
,
1000
1000
0000
0010
,
0010
0000
0100
0000
,
0010
0100
0000
0000
,
0001
0000
1000
0001
,
0000
0000
0200
0300
,
0000
0020
0030
0000
,
0200
0000
0300
0100
,
0000
0000
0100
0000
,
0000
0100
0000
0000
,
0100
0000
0000
0002
,
0000
0000
0000
0000
0003
0000
0000
0000
0000
1000
0000
0000
0000
0000
0000
0000
,
0000
0000
0000
0000
0000
0000
0000
0000
0000
0000
0000
0000
0000
0000
0000
0000
0000
0000
0000
0000
0000
0001
0000
0000
0000
0000
0000
0000
0000
0000
0000
0000
0000
0000
0000
0000
0000
0000
0000
0000
0000
0000
0000
0000
1000
0000
0000
0000
,
0000
0000
0000
0002
0000
0000
0000
0003
,
0000
0200
0000
0300
;

//---------------dance-single - ----------------
#NOTEDATA:;
#CHARTNAME:;
#STEPSTYPE:dance-single;
#DESCRIPTION:;
#CHARTSTYLE:;
#DIFFICULTY:Easy;
#METER:9;
#RADARVALUES:0.363804,0.396173,0.130374,0.199906,0.026075,293.000000,278.000000,15.000000,23.000000,0.000000,0.000000,0.000000,0.000000,0.000000,0.363804,0.396173,0.130374,0.199906,0.026075,293.000000,278.000000,15.000000,23.000000,0.000000,0.000000,0.000000,0.000000,0.000000;
#CREDIT:;
#NOTES:
// measure 0
0000
0000
0000
0000
0001
0000
0000
0001
,  // measure 1
1000
1000
0010
0100
,  // measure 2
0100
0010
0000
0100
0010
0000
1000
0001
,  // measure 3
1000
0001
0001
1000
,  // measure 4
1000
0001
0010
0100
,  // measure 5
1100
0000
0000
1000
0000
0100
0000
0010
,  // measure 6
0000
0100
0000
0000
0010
0000
0100
0010
,  // measure 7
0000
0010
0000
1000
0000
0001
0000
0000
,  // measure 8
1001
0000
0000
1000
0000
0100
0010
0000
,  // measure 9
0000
0001
0000
0000
0011
0000
0000
0101
,  // measure 10
0000
0000
0001
0000
0010
0100
0000
0000
,  // measure 11
1000
0000
0100
0000
1000
0010
0100
0000
,  // measure 12
0100
0000
0100
0000
0100
0010
1000
0000
,  // measure 13
0100
0100
1000
0001
,  // measure 14
1000
0010
0100
0001
,  // measure 15
0100
1000
0001
0010
,  // measure 16
1000
1000
1100
0000
,  // measure 17
0100
0010
0001
0100
,  // measure 18
0001
1000
0100
0010
,  // measure 19
0001
0100
0001
0100
,  // measure 20
1000
0100
0010
0001
,  // measure 21
1000
0100
0001
0000
,  // measure 22
1000
0200
0300
0010
,  // measure 23
0002
0003
0010
0200
,  // measure 24
0300
0000
1000
0000
0001
0000
0000
0010
,  // measure 25
0100
0000
1000
0020
0000
0000
0030
0000
,  // measure 26
0100
0001
1000
1001
,  // measure 27
0000
0011
0010
0010
,  // measure 28
0000
0000
0000
0000
1000
0000
0100
0010
,  // measure 29
0001
0000
1000
0200
0000
0000
0300
0000
,  // measure 30
1000
0010
0110
0000
,  // measure 31
0010
0000
0110
0000
,  // measure 32
0100
0010
0100
0000
,  // measure 33
0001
0100
0100
0001
,  // measure 34
1000
0010
1000
0000
0010
0000
1000
0000
,  // measure 35
1000
0010
1000
1000
,  // measure 36
0100
0100
0010
0001
,  // measure 37
1000
0001
1000
0000
0000
0000
0200
0000
,  // measure 38
0320
0000
0030
0000
0100
0000
0001
1000
,  // measure 39
0001
1000
0001
0000
1000
0000
0010
0000
,  // measure 40
2000
3001
0100
0010
,  // measure 41
0200
0000
0300
0000
0001
0000
0100
0001
,  // measure 42
1000
0001
0100
0000
0000
0000
0001
0000
,  // measure 43
1000
0000
1000
0001
,  // measure 44
0100
0001
0000
0100
,  // measure 45
0100
0100
0110
0000
,  // measure 46
0100
0010
0200
0300
,  // measure 47
0010
0000
1100
0000
,  // measure 48
1000
0100
0020
0030
,  // measure 49
0001
0000
0011
0000
,  // measure 50
0001
0010
0200
0300
,  // measure 51
1000
0000
0002
0003
,  // measure 52
1000
0000
0010
0010
,  // measure 53
0100
0000
0001
0001
,  // measure 54
1000
1000
0002
0003
,  // measure 55
1000
1000
0002
0003
,  // measure 56
1000
0001
2000
3000
,  // measure 57
0001
0000
0010
0010
,  // measure 58
0100
0100
0010
0010
,  // measure 59
0001
0000
0210
0000
,  // measure 60
0301
0000
0002
1000
,  // measure 61
1003
0000
1000
0000
,  // measure 62
0010
0100
0001
1000
,  // measure 63
0100
0000
0010
0001
,  // measure 64
0100
0001
1000
0100
,  // measure 65
1000
0100
0000
1000
,  // measure 66
0001
0010
0001
0010
,  // measure 67
0100
0000
0100
1000
,  // measure 68
1000
0001
0001
1000
,  // measure 69
0100
0100
0010
0001
,  // measure 70
1000
0000
0010
0100
,  // measure 71
0001
1000
0100
1000
,  // measure 72
0001
0100
0001
2000
,  // measure 73
0000
3000
0100
0010
,  // measure 74
0100
0010
0000
0100
,  // measure 75
0020
0000
0030
0001
0000
0000
0100
0000
,  // measure 76
0000
0001
0000
0000
0100
0000
0000
0110
,  // measure 77
0000
0000
0010
0000
0000
1010
0000
0000
,  // measure 78
0100
0000
0000
0010
0000
0000
0002
0000
,  // measure 79
0000
0000
0000
0000
0000
0000
0003
0000
0000
1000
0000
0000
0000
0000
0000
0000
,  // measure 80
0100
0000
0000
0000
0000
0000
0000
0000
0000
0000
0000
0000
0000
0000
0000
0000
0000
0000
0000
0000
0000
0001
0000
0000
0000
0000
0000
0000
0000
0000
0000
0000
0000
0000
0000
0000
0000
0000
0000
0000
0000
0000
0000
0000
0100
0000
0000
0000
,  // measure 81
0000
0000
0000
0000
0000
0000
0000
0000
0000
0000
0000
0000
0000
0000
0000
0000
0000
0000
0020
0000
0000
0000
0000
0000
0000
0000
0000
0000
0000
0000
0000
0000
0000
0000
0000
0000
0030
0000
0000
0001
0000
0000
0000
0000
0000
0000
0010
0000
,  // measure 82
0000
0000
0000
0001
0000
0000
0000
0000
0200
0000
0000
0000
0000
0000
0000
0000
0000
0000
0000
0000
0000
0000
0000
0000
0000
0000
0000
0000
0300
0000
0000
0000
;

//---------------dance-single - ----------------
#NOTEDATA:;
#CHARTNAME:;
#STEPSTYPE:dance-single;
#DESCRIPTION:;
#CHARTSTYLE:;
#DIFFICULTY:Medium;
#METER:13;
#RADARVALUES:0.632001,0.683266,0.278130,0.147757,0.073878,509.000000,477.000000,32.000000,17.000000,0.000000,0.000000,0.000000,0.000000,0.000000,0.632001,0.683266,0.278130,0.147757,0.073878,509.000000,477.000000,32.000000,17.000000,0.000000,0.000000,0.000000,0.000000,0.000000;
#CREDIT:;
#NOTES:
0000
0000
0000
0000
0001
1000
0001
0010
,
1000
0100
1000
0010
0001
0010
0100
0010
,
0001
0010
0100
1000
0100
0001
0010
0001
,
1000
0010
0002
0000
0003
0000
2000
0000
,
3000
0000
0101
0001
0010
0100
1000
0100
,
1100
0100
0100
1000
0100
0010
0001
0010
,
0100
0011
0000
0100
0010
0100
0010
1000
,
0010
0001
0010
1000
0100
0001
0100
0000
,
1001
0001
0001
1000
1000
0100
0010
0001
,
0001
0010
0100
1000
1000
0010
0100
0101
,
0001
0010
0110
0000
0100
1000
0100
1000
,
0010
0000
0100
0010
0000
0010
0100
0010
,
0100
0000
0010
0100
0010
1000
0100
0000
,
1000
0100
0010
0001
0000
1000
0000
0001
,
1000
0000
0010
0100
0010
0000
0100
0001
,
0001
0010
0100
0000
0001
0010
0100
0000
,
1000
0100
1000
0000
1100
0000
0000
0000
,
0011
0000
0001
0000
0010
0000
0100
0010
,
0001
0100
0001
0000
0001
0000
0010
0000
,
0100
0010
0001
1000
0001
0000
0100
0000
,
1000
0010
0100
0000
0110
0000
0101
0000
,
1000
0010
1000
0010
0100
0001
0100
0000
,
0001
0000
0100
0010
0100
0010
0000
0100
,
0100
0000
0100
0000
0000
0100
0001
0000
0000
0000
0001
0000
0001
0000
0001
0000
,
0000
0001
1000
0000
0000
0000
1000
0000
1000
0000
1000
0000
0001
0000
0010
0000
,
0100
0000
1000
0010
0100
0000
0010
0100
,
0101
0000
0001
0000
1000
0000
0001
0001
,
0001
0000
0010
0001
0010
0000
0010
0100
,
0110
0000
0000
0000
1000
0000
0100
0010
,
0001
1000
0100
1100
0000
0000
0010
0010
,
1000
0000
0010
0100
0010
0000
0100
0001
,
0010
0000
0100
0010
0100
0000
0100
0001
,
0010
0000
0001
0000
0100
0000
1000
0100
,
0000
0001
0100
1000
0000
1000
0010
0001
,
0010
1000
0000
0100
0000
0001
0010
0100
,
0000
1000
0000
0100
0010
0001
0000
1000
,
0000
0010
0001
1000
0000
0010
0000
0010
,
0001
1000
0000
0100
0010
1000
0010
0000
,
0110
0000
0010
0010
0010
0000
0100
0010
,
1000
0010
0100
0000
0001
0010
0010
0001
,
1000
0100
0000
0001
0000
0010
0100
0001
,
0100
0010
0000
0010
1000
0000
0010
0001
,
0010
0100
0010
0001
0000
0001
0010
0100
,
1000
0000
0100
0010
0100
1000
0100
0010
,
0000
0000
0101
0000
0001
0010
0100
0000
,
0100
0010
0100
0000
0110
0000
0001
0010
,
0100
0010
0100
0000
0002
0000
0003
0000
,
2000
3000
0220
0330
,
1000
0010
0100
0001
0020
0000
0030
0000
,
0001
0010
0100
1000
1001
0000
0100
0000
,
0010
0100
0001
0000
0100
0010
0000
0000
,
0100
0010
0000
0000
1000
0001
0100
0000
,
0010
1000
0100
0000
1000
0001
0100
0000
,
0010
0100
0001
0000
1001
0000
0001
0100
,
0001
0100
0001
0000
2000
0100
3100
0000
,
1000
0100
1000
0100
0002
0000
0103
0000
,
1000
0001
0011
0001
,
0011
0000
0001
0010
0002
0000
1003
0010
,
1000
0010
1000
0000
0002
0010
0013
0000
,
0001
0010
0001
0010
2000
0000
3010
0000
,
0001
0000
1000
0000
0100
0010
0100
0000
,
0010
0100
0010
0000
2000
0000
3000
0000
,
0010
0100
0010
1000
,
0100
0010
0100
0000
0010
0001
0010
0001
,
0100
0000
0001
0000
1001
0000
0100
0010
,
1000
0010
0100
0000
0010
0100
0001
0100
,
0010
0100
0001
0110
,
1100
0000
0010
0100
0010
0000
0100
0100
,
0001
0000
1000
0001
0001
1000
1000
0000
,
0010
0000
0100
0010
0100
0000
0011
0000
,
0110
0000
1100
0000
0010
0100
0010
0000
,
0100
0100
0001
0000
1000
0001
0001
0100
,
0100
0000
0001
0000
0010
0100
0010
0000
,
0200
0300
1000
0000
1100
0000
0110
0000
,
0011
0000
0001
0000
0010
0100
0010
0000
,
0020
0001
0031
0001
0010
0100
1100
0000
,
0100
0001
0100
0010
0100
0000
0010
0100
,
0010
1000
1000
0001
0001
1001
0000
0100
,
0100
0010
0000
0010
0100
0100
0002
0010
,
0010
0000
0000
0000
0003
0000
0000
0000
0000
1000
0000
0100
0000
0010
0000
0001
,
0000
0000
1000
0000
0000
0000
0010
0000
0000
0000
0100
0000
0000
0000
0001
0000
0000
0000
0000
0000
0000
0000
0000
0000
0010
0000
0000
0000
0000
0100
0000
0000
,
0000
0000
0000
0000
0000
0000
0000
0000
0000
0000
0000
0000
0000
0000
0000
0000
0000
0000
0000
0000
0000
0000
0000
0000
0000
0000
0000
0000
0000
0000
0000
0000
0000
0000
0000
0000
0010
0000
0000
0000
0000
0000
0000
0000
0000
0000
0000
0000
0000
0000
0000
0000
0000
0000
0000
0000
0000
0000
0000
0000
0000
0000
0000
0000
0000
0000
0100
0000
0000
0000
0000
0000
0000
0000
0000
0000
0000
0000
0000
0000
0000
0000
0000
0000
0000
0000
0000
0000
0000
0000
0000
0000
0000
0000
0000
0000
0010
0000
0000
0000
0000
0000
0000
0000
0000
0000
0000
0000
0000
0000
0000
0000
0000
0000
0000
0000
0000
0000
0000
0000
0000
0000
0000
0000
0000
0000
0100
0000
0000
0000
0000
0000
0000
0000
0000
0000
0000
0000
0000
0000
0000
0000
0000
0000
0000
0000
0000
0000
0000
0000
0000
0000
0000
0000
0000
0000
0001
0000
0000
0000
0000
0000
0000
0000
0000
0000
0000
0000
0000
0000
0000
0000
0000
0000
0000
0000
0000
0000
0000
0000
0000
0000
0000
0000
0010
0000
0000
0000
0000
0000
0000
0000
,
0000
0000
0000
0001
0000
0000
0000
0000
0200
0000
0000
0000
0000
0000
0000
0000
0000
0000
0000
0000
0000
0000
0000
0000
0300
0000
0000
0000
0000
0000
0000
0000
;

//---------------dance-single - ----------------
#NOTEDATA:;
#CHARTNAME:;
#STEPSTYPE:dance-single;
#DESCRIPTION:;
#CHARTSTYLE:;
#DIFFICULTY:Hard;
#METER:15;
#RADARVALUES:0.803349,0.828361,0.182523,0.243364,0.408504,647.000000,626.000000,21.000000,28.000000,0.000000,0.000000,0.000000,0.000000,0.000000,0.803349,0.828361,0.182523,0.243364,0.408504,647.000000,626.000000,21.000000,28.000000,0.000000,0.000000,0.000000,0.000000,0.000000;
#CREDIT:;
#NOTES:
0000
0000
0000
0000
0001
0010
0001
0010
,
1000
0010
1000
0010
0001
0100
0001
0100
,
1000
0100
1000
0100
0001
0010
0100
1000
,
1000
0000
0000
0100
0000
0000
0010
0000
0100
0000
0010
0000
0100
0000
0010
0000
0001
0000
1000
0000
0001
0000
1000
0000
,
0001
0000
0100
0010
0010
0100
0100
0010
,
0110
1000
1000
0100
0100
0010
0011
0001
,
0001
0110
0100
0100
0010
0010
0010
1010
,
0100
0100
0001
0001
0001
0100
0100
0010
,
1001
0000
0001
0000
1000
0001
1000
0001
1000
0000
0100
0000
0010
0000
0001
0000
,
0010
0000
0100
0000
1000
0000
0100
0000
0110
0000
0010
0000
0100
0010
0100
0010
,
0100
0010
0100
0010
0100
1000
0100
0010
,
0001
0000
0000
0000
0100
0000
0010
0000
0000
0000
0010
0100
0010
0000
1000
0000
,
0100
0000
0010
0000
0001
0000
0100
0010
0100
0000
1000
0000
0100
0000
0010
0000
,
0001
0000
0010
0000
0100
0000
0001
0000
1000
0000
1000
0001
0100
0000
0000
0000
,
1000
0000
0010
0000
0010
0000
0100
0010
0100
0000
0001
0000
0001
0000
1000
0000
,
0001
0000
0010
0000
0100
0000
1000
0010
0100
0000
0010
0000
0000
0000
0100
0000
,
0010
0000
0100
0000
0010
0100
0000
0000
0100
0010
0000
0000
0000
0000
0100
0000
,
0001
0000
0000
0010
0001
0000
0000
0010
0100
0000
0000
1000
0100
0000
0000
0010
,
0001
0000
0000
0010
0100
0000
0000
0001
0100
0000
0000
0010
0001
0000
0000
0000
,
0100
0010
0100
0000
0020
0030
0200
0300
,
0001
0000
0010
0000
0100
0000
1000
0000
0001
0000
0100
0001
0100
0000
0000
0001
,
0010
0000
0000
0100
1000
0000
0010
0000
0100
0000
0010
0000
1000
0000
0010
0000
,
0100
0010
2000
3002
0203
0320
0030
0100
,
0001
0100
0001
0010
0100
1000
0100
0001
,
0100
0000
1000
0000
0100
0000
1000
0000
0000
0000
0000
0000
0001
0000
0000
0000
0000
0000
1000
0000
0000
0010
0000
0000
,
0110
0000
1000
0010
0100
0000
0010
0100
,
0101
0000
0001
1000
0001
0000
0001
0010
,
0001
0000
0010
0100
0010
0000
0010
0001
,
0011
0000
1000
0100
1000
0000
0010
0001
,
0010
0000
1000
0001
1000
0000
0001
1000
,
0001
0000
0001
0010
0001
0000
0010
1000
,
0010
0000
0000
0000
0100
0000
0001
0000
0100
0000
0000
0100
0010
0000
0001
0010
,
0001
0000
1000
0100
1000
0000
0000
0000
0100
0000
0000
0000
0100
0000
0100
0000
,
1000
0000
1000
0000
0010
0000
0000
0100
0010
0000
0000
1000
0010
0000
0000
0001
,
0010
0000
0000
0100
0010
0000
0100
0000
0010
0000
0100
0000
0001
0000
0010
0000
,
0100
0000
1000
0000
0000
0000
0010
0000
0110
0000
0000
0000
0010
0100
0010
0100
,
0010
0000
0100
0010
1000
0010
0001
0010
,
0001
1000
0100
0001
0010
0100
0110
0000
,
0110
0000
0010
0100
0010
0000
0100
0001
,
1000
0010
0100
0001
1000
0100
0010
0100
,
1000
0001
0001
0010
0100
0010
0001
0001
,
0100
0010
1000
0001
0100
0100
0010
0010
,
1000
1000
1000
0001
0001
0001
0010
0010
,
0010
1000
1000
1000
0010
0001
0100
0010
,
0100
0000
0000
0010
0000
0000
0100
0000
0010
0000
0100
0000
0010
0000
1000
0000
0010
0000
0100
0000
0001
0000
1000
0000
,
0001
0000
0000
0000
1000
0000
0000
0000
0100
0000
0000
0000
0001
0000
0000
0000
1000
0000
0000
0000
0010
0000
0000
0000
0001
0000
0000
0000
0000
0000
0000
0000
0000
0001
0000
0000
0010
0000
0000
0000
0000
0000
0100
0000
0000
0000
0000
0000
,
1000
0010
0100
0000
0010
0100
0001
0000
0020
0000
0000
0000
0130
0000
0100
0000
,
2000
0010
3010
0000
0210
0000
0310
0100
,
0010
1000
0100
0001
1000
0010
0001
0000
,
0001
0010
0001
0010
0001
0000
1000
0100
1000
0000
0000
0000
0100
0000
0000
0010
,
0001
0000
0100
0001
0010
0000
0010
0001
0100
0000
0010
0000
0200
0000
0000
0000
,
0310
0000
0010
0000
0200
0000
0001
0000
0301
0000
0000
0001
0100
0000
0000
0000
,
0010
0000
0010
0000
0100
0000
0000
0000
1000
0001
1000
0000
0100
0000
1000
0010
,
1000
0000
0100
0010
0100
0000
0000
0000
1001
0000
0000
0000
0001
0000
0100
0000
,
0010
0100
0001
0001
1000
0010
0100
0010
,
1000
0100
0100
0010
0012
0000
0103
0010
,
2010
0010
3010
0000
0011
0001
0001
0000
,
0100
0000
0010
0000
0100
0000
0010
0100
0020
0000
0000
0000
1030
0000
0100
0000
,
0010
0100
1000
1000
0001
0010
0100
0010
,
0001
0001
1000
0010
2010
0000
3010
0010
,
0101
0001
0001
0000
0100
0010
0100
0010
,
0100
0000
0010
0000
0100
0010
0100
0010
0100
0000
0000
0000
0010
0000
1000
0000
,
0010
0100
0010
0100
0100
0010
1000
1000
,
0010
0001
0010
1000
1010
0000
0011
0000
,
0001
0010
0100
0010
0001
0000
0100
0010
,
0100
0000
0010
0100
0010
0000
0100
0000
0010
0000
1000
0000
0001
0000
0100
0010
,
0100
0000
0001
0000
0001
0000
0000
0000
0001
0000
0000
0010
0100
0000
0000
0100
,
1000
0000
0000
0010
0100
0000
0000
0000
0010
0000
0000
0000
0100
0000
0001
0000
,
0001
0000
1000
1000
0001
0001
0001
0000
,
0100
0000
0000
0010
0100
0000
0000
0010
0100
0000
0000
0000
0002
0000
0003
0000
,
0020
0030
0200
0300
1000
0100
1000
0100
,
0001
0100
0001
0100
0000
0100
0010
0100
,
0010
0001
1000
0001
1000
0010
0100
0010
,
0020
0000
0130
0010
0200
0300
0020
0030
,
0200
0000
0000
0300
0000
0000
0002
0000
0000
0003
0000
0000
1000
0000
0100
0000
0010
0000
0001
0000
0000
0000
0000
0000
,
0020
0001
0031
0001
0001
0010
0200
1000
,
1300
1000
1000
0010
0100
0001
1000
0200
,
1000
1300
0020
0001
0031
2000
0010
3010
,
0100
0000
0010
0000
0100
0000
0001
0000
0100
0000
0001
0000
1000
0010
1000
0010
,
1000
0000
0000
0000
0010
0000
0000
0000
0000
1000
0000
0100
0000
0010
0000
0001
,
0000
0000
1000
0000
0000
0000
0010
0000
0000
0000
0100
0000
0000
0000
0001
0000
0000
0000
0000
0000
0000
0000
0000
0000
0010
0000
0000
0000
0000
0100
0000
0000
,
0000
0000
0000
0000
0000
0000
0000
0000
0000
0000
0000
0000
0000
0000
0000
0000
0000
0000
0000
0000
0000
0000
0000
0000
0000
0000
0000
0000
0000
0000
0000
0000
0000
0000
0000
0000
0010
0000
0000
0000
0000
0000
0000
0000
0000
0000
0000
0000
0000
0000
0000
0000
0000
0000
0000
0000
0000
0000
0000
0000
0000
0000
0000
0000
0000
0000
0100
0000
0000
0000
0000
0000
0000
0000
0000
0000
0000
0000
0000
0000
0000
0000
0000
0000
0000
0000
0000
0000
0000
0000
0000
0000
0000
0000
0000
0000
0010
0000
0000
0000
0000
0000
0000
0000
0000
0000
0000
0000
0000
0000
0000
0000
0000
0000
0000
0000
0000
0000
0000
0000
0000
0000
0000
0000
0000
0000
0100
0000
0000
0000
0000
0000
0000
0000
0000
0000
0000
0000
0000
0000
0000
0000
0000
0000
0000
0000
0000
0000
0000
0000
0000
0000
0000
0000
0000
0000
0001
0000
0000
0000
0000
0000
0000
0000
0000
0000
0000
0000
0000
0000
0000
0000
0000
0000
0000
0000
0000
0000
0000
0000
0000
0000
0000
0000
0010
0000
0000
0000
0000
0000
0000
0000
,
0000
0000
0000
0001
0000
0000
0000
0000
0100
0000
0000
0000
0000
0010
0000
0000
0000
0000
0100
0000
0010
0000
0100
0000
0010
0000
0100
0000
0010
0000
0000
0000
;
