#VERSION:0.83;
#TITLE:stalkin me;
#SUBTITLE:;
#ARTIST:Unknown artist;
#TITLETRANSLIT:;
#SUBTITLETRANSLIT:;
#ARTISTTRANSLIT:;
#GENRE:;
#ORIGIN:;
#CREDIT:;
#BANNER:;
#BACKGROUND:;
#PREVIEWVID:;
#JACKET:;
#CDIMAGE:;
#DISCIMAGE:;
#LYRICSPATH:;
#CDTITLE:;
#MUSIC:stalkin me simfilee.mp3;
#OFFSET:-0.095000;
#SAMPLESTART:33.817612;
#SAMPLELENGTH:12.000000;
#SELECTABLE:YES;
#BPMS:0.000=132.000,
192.000=178.961,
288.000=132.900;
#STOPS:;
#DELAYS:;
#WARPS:;
#TIMESIGNATURES:0.000=4=4;
#TICKCOUNTS:0.000=4;
#COMBOS:0.000=1;
#SPEEDS:0.000=1.000=0.000=0;
#SCROLLS:0.000=1.000;
#FAKES:;
#LABELS:0.000=Song Start;
#BGCHANGES:;
#KEYSOUNDS:;
#ATTACKS:
;

//---------------dance-single - ----------------
#NOTEDATA:;
#CHARTNAME:;
#STEPSTYPE:dance-single;
#DESCRIPTION:;
#CHARTSTYLE:;
#DIFFICULTY:Beginner;
#METER:2;
#RADARVALUES:0.170433,0.365925,0.141673,0.171498,0.000000,160.000000,141.000000,19.000000,23.000000,0.000000,0.000000,0.000000,0.000000,0.000000,0.170433,0.365925,0.141673,0.171498,0.000000,160.000000,141.000000,19.000000,23.000000,0.000000,0.000000,0.000000,0.000000,0.000000;
#CREDIT:;
#NOTES:
0000
0000
0000
0000
,
0000
0000
0000
0000
,
0000
0000
0000
0000
,
0000
0000
0000
0000
,
0000
0000
0000
0000
,
0000
0000
0000
0000
,
0000
0000
0000
0000
,
1000
0000
0000
0000
,
0020
0000
0130
0000
,
0100
0100
0100
0000
,
0110
0000
0100
0000
,
0100
0100
0100
0000
,
0110
0000
0010
0000
,
0010
0010
0010
0000
,
2000
3000
0020
0030
,
0200
0000
0000
0300
,
0020
0000
0130
0000
,
0001
0001
0001
0000
,
1001
0000
0100
0000
,
0010
0010
0010
0000
,
0200
0000
0310
0000
,
0020
0000
1030
0000
,
0010
0010
0000
0100
,
0100
0000
0010
0010
,
0010
0000
0110
0000
,
1000
1000
1000
0000
,
0011
0000
0110
0000
,
1000
1000
1000
0000
,
0011
0000
1000
0000
,
0010
0010
0010
0000
,
0100
0100
0100
0000
,
0010
0010
0010
0000
,
2000
0000
3000
0000
,
0002
0000
0003
0000
,
0110
0000
1001
0000
,
0110
0000
0000
0000
,
1001
0000
0001
0000
,
1000
0000
0001
0000
,
1000
0000
0001
0000
,
1000
0000
0010
0000
,
0100
0000
0002
0000
,
0000
0000
2003
0000
,
0000
0000
3002
0000
,
0000
0000
2003
0000
,
0000
0000
3010
0000
,
0100
0000
0010
0000
,
0200
0000
0000
0000
,
0300
0000
0000
0000
,
0020
0000
0000
0030
,
0000
0100
0100
0000
,
2200
0000
0000
3300
,
0000
0001
0001
0000
,
1001
0000
0100
0000
,
0100
0000
0010
0000
,
1000
1000
1000
0000
,
0001
0001
0001
0000
,
2000
0000
3200
0000
,
0300
1000
1000
0000
,
0001
0000
1000
0000
,
0010
0000
0000
0000
,
0100
0000
0010
0000
,
0100
0000
0100
0000
,
0001
0001
0001
0000
,
1000
1000
1000
0000
,
0010
0010
0010
0000
,
0100
0100
0100
0000
,
0001
0001
0001
0000
,
1000
1000
1000
0000
,
1001
1001
1001
0000
,
1001
1001
1001
0000
,
0002
0000
0000
0003
,
2000
0000
0000
0000
0000
0000
0000
3000
,
0020
0000
0030
0000
,
0100
0000
0100
0000
,
0020
0000
0030
0000
,
1000
0000
1000
0000
;

//---------------dance-single - ----------------
#NOTEDATA:;
#CHARTNAME:;
#STEPSTYPE:dance-single;
#DESCRIPTION:;
#CHARTSTYLE:;
#DIFFICULTY:Hard;
#METER:9;
#RADARVALUES:0.570951,0.703703,0.298258,0.193868,0.316899,536.000000,496.000000,40.000000,26.000000,0.000000,0.000000,0.000000,0.000000,0.000000,0.570951,0.703703,0.298258,0.193868,0.316899,536.000000,496.000000,40.000000,26.000000,0.000000,0.000000,0.000000,0.000000,0.000000;
#CREDIT:;
#NOTES:
0000
0000
0000
0000
,
0000
0000
0000
0000
,
0000
0000
0000
0000
,
0000
0000
0000
0000
,
0000
0000
0000
0000
,
0000
0000
0000
0000
,
0000
0000
0000
0000
,
1000
0000
0000
0000
,
1000
0010
0100
0010
0010
0100
0010
0010
,
0100
0010
0100
0000
0110
0000
0010
1000
,
0100
0010
0100
0010
0100
0001
0100
1000
,
0100
0010
0100
0000
0000
0100
0100
0000
,
0010
0000
0001
0000
0100
0000
0000
0000
0010
0000
0000
0010
0000
0000
0010
0000
,
0100
0000
1000
0100
0010
0002
0000
0000
,
1003
0001
0100
0010
0100
0010
0100
0010
0100
0000
0000
0000
0001
1000
0200
0000
,
0000
0300
0000
0000
,
0100
0000
0010
0000
0200
0300
0010
0100
0010
0000
0100
0000
0010
0000
0100
0000
,
0001
1000
1001
0000
1010
0000
0101
1000
,
1001
0000
0000
0000
1001
0000
0010
0000
0100
0000
1000
0100
0010
0000
0000
0000
,
0001
1000
0020
0030
0000
0110
0220
0330
,
0100
0000
0010
0100
0010
0000
1000
0000
0100
0000
0000
0100
0000
0000
0001
0000
,
0100
0000
1000
0100
2002
0000
3003
0000
,
0010
0100
0010
0000
0000
0000
1000
0000
0100
0000
0001
0010
0000
0000
1000
0000
,
1100
0000
1100
0000
0101
0000
0000
0100
0000
0000
0010
0000
0010
0000
1000
0100
,
1000
0000
0001
0010
0001
0000
0010
0100
0010
0100
0010
0000
0100
1000
0100
1000
,
0001
0010
0001
0000
1000
0000
0000
0000
1001
0000
0000
0000
1000
0100
0010
0001
,
0100
0002
0023
0230
,
2300
0000
3001
0010
0100
1000
0100
0010
,
0001
0000
1000
0001
0100
0010
0100
0000
0010
0000
0000
0000
1000
0100
0010
0001
,
0010
0000
0001
0010
0001
0000
1000
0000
1001
0000
0000
0000
0001
0000
0010
0000
,
0100
0000
0010
0001
0010
0000
0000
0000
0110
0000
0000
0000
0000
0000
0000
0000
,
1000
0100
1000
0100
0010
0001
0010
0001
,
2000
0000
0000
0000
0000
0000
3000
0000
0010
0100
0000
0000
0010
0100
0000
0000
,
0002
0000
2003
0000
3000
0000
2000
3100
,
0010
0001
0010
0000
0001
1000
0001
1000
0001
0000
0010
0000
0100
0000
0001
0000
,
0001
0000
1000
0001
1000
0001
1000
0000
0100
0010
0000
0100
0010
0000
0000
0000
,
1100
0000
0001
0010
0001
1000
0100
0010
,
0001
1000
0010
0000
0001
1000
0010
0000
1000
0010
0100
0001
0100
0000
0000
0000
,
0001
0010
0100
1000
0001
0000
0000
0000
0001
0010
0000
0100
1000
0000
0001
0000
,
0100
0001
0100
0001
0000
0000
0100
0010
0100
0010
0100
0010
0100
0000
0000
0000
,
1000
0100
0010
0001
1000
0000
0000
0000
0002
0000
0000
0000
0103
0010
0100
0010
,
0100
0000
0010
0100
0000
0010
0100
0000
0020
0000
0000
0000
1030
0001
1000
0001
,
1000
0000
0001
0010
0000
0010
0001
0000
2000
0000
0000
0000
3010
0100
0001
0100
,
0010
0000
1000
0010
0000
1000
0010
0000
0100
0000
0010
0000
0100
0001
0100
0001
,
0100
0000
0010
0100
0000
0010
0100
0000
0002
0000
0000
0000
1003
0010
0100
0001
,
0100
0000
0000
0000
0001
1000
0001
0100
0001
0000
0000
0000
1000
0001
1000
0001
,
0100
0000
0000
0000
0100
0010
0100
0010
0200
0000
0000
0000
0000
0000
0300
0000
,
0200
0000
0300
0000
,
0010
0010
0100
0100
0010
0100
0010
0100
,
0001
0000
0101
0000
0101
0000
0001
1000
,
1100
0000
0001
1000
0010
0100
0001
1000
,
0010
0100
0001
0000
0000
1000
1000
0000
,
1001
0000
0001
0000
0100
0000
0010
0000
0100
0000
0000
0010
0000
0000
0010
0000
,
0100
0000
0100
0010
1001
0000
0000
0001
,
1001
0100
0010
0100
0011
1000
0001
0100
,
0101
0000
0001
0000
0001
0000
0000
1000
0010
0000
0100
0000
0010
0000
0100
0010
,
0100
0000
0001
0000
1000
0000
0010
0000
0200
0300
0002
0003
2000
3010
0000
0000
,
0010
0100
0010
0000
0110
0000
1001
0110
,
0110
0000
0001
1000
0001
1000
0010
0100
,
0101
0011
0011
0000
0000
1100
1100
0000
,
0011
0000
1000
0000
0100
0000
0010
0000
0001
0000
0010
0001
0000
0010
0001
0000
,
1000
0000
0001
0010
0110
0000
0110
0000
,
1100
0010
0001
0010
1000
0010
0001
0000
,
0001
0010
0100
1000
0010
0010
0110
0000
,
0001
0001
0001
0001
0001
0001
0001
0001
,
1000
1000
1000
1000
1000
1000
1000
1000
,
0010
0010
0100
0100
0010
0010
0100
0100
,
0001
0001
1000
1000
0001
0010
0001
0010
,
0001
0010
0100
1000
0100
0010
0001
0100
,
0010
0010
0100
0100
0010
0010
1000
1000
,
0001
1000
0001
0010
0001
0100
0001
1000
,
0010
0100
0001
1000
0010
0100
0001
1000
,
0020
0000
0000
0130
0000
0010
0100
0000
0010
0100
0000
0100
,
0010
0100
0000
0010
,
1001
0000
0100
1001
,
0100
0010
0100
0000
;

//---------------dance-single - ----------------
#NOTEDATA:;
#CHARTNAME:;
#STEPSTYPE:dance-single;
#DESCRIPTION:;
#CHARTSTYLE:;
#DIFFICULTY:Easy;
#METER:4;
#RADARVALUES:0.198129,0.253333,0.111847,0.044739,0.000000,186.000000,171.000000,15.000000,6.000000,0.000000,0.000000,0.000000,0.000000,0.000000,0.198129,0.253333,0.111847,0.044739,0.000000,186.000000,171.000000,15.000000,6.000000,0.000000,0.000000,0.000000,0.000000,0.000000;
#CREDIT:;
#NOTES:
// measure 0
0000
0000
0000
0000
,  // measure 1
0000
0000
0000
0000
,  // measure 2
0000
0000
0000
0000
,  // measure 3
0000
0000
0000
0000
,  // measure 4
0000
0000
0000
0000
,  // measure 5
0100
0000
0000
0000
,  // measure 6
0000
0000
0000
0000
,  // measure 7
0010
0000
0000
0000
,  // measure 8
0110
0000
0100
0000
,  // measure 9
0010
0010
0100
0000
,  // measure 10
1001
0000
0100
0000
,  // measure 11
0010
0010
0100
0000
,  // measure 12
0001
0000
0101
0000
,  // measure 13
0101
0000
2010
0000
,  // measure 14
3001
1000
0001
1000
,  // measure 15
0002
0000
0003
0000
,  // measure 16
1000
0100
0010
0000
,  // measure 17
1000
0100
1000
0000
,  // measure 18
0001
0010
0100
0000
,  // measure 19
0001
0010
0001
0000
,  // measure 20
1000
0001
0100
0000
,  // measure 21
0010
0100
0010
0000
,  // measure 22
0010
0010
0010
0100
,  // measure 23
0100
0000
0010
0000
,  // measure 24
0110
0000
1001
0000
,  // measure 25
1000
0100
0100
0000
,  // measure 26
0110
0000
0011
0000
,  // measure 27
0011
0000
0000
0100
,  // measure 28
0100
0000
0000
1000
,  // measure 29
0010
0000
0000
1000
,  // measure 30
1000
0000
0000
0010
,  // measure 31
0100
0000
0001
0000
,  // measure 32
0101
0000
0100
0000
,  // measure 33
0010
0010
0010
0000
,  // measure 34
0200
0000
0000
0000
,  // measure 35
0301
0001
1000
0000
,  // measure 36
1001
0000
0100
0000
,  // measure 37
0010
0100
0100
0000
,  // measure 38
0100
0000
0001
0000
,  // measure 39
1000
0001
1000
0001
,  // measure 40
1000
0000
1000
0000
,  // measure 41
0001
0000
0100
0100
,  // measure 42
0100
0000
0001
0001
,  // measure 43
1000
0000
1000
1000
,  // measure 44
0100
0100
0100
0000
,  // measure 45
1000
0000
0010
0000
,  // measure 46
0020
0000
0000
0000
,  // measure 47
0030
0000
0000
0000
,  // measure 48
0100
0000
0100
0000
,  // measure 49
0010
0010
0010
0000
,  // measure 50
1000
1000
0001
0001
,  // measure 51
1000
0000
0001
0000
,  // measure 52
0100
0000
0100
0000
,  // measure 53
0001
0001
0001
0000
,  // measure 54
2000
0000
3000
0000
,  // measure 55
0002
0000
0003
0000
,  // measure 56
0100
0000
0010
0000
,  // measure 57
0100
0010
0100
0000
,  // measure 58
0001
0000
1000
0000
,  // measure 59
0001
1000
0001
0000
,  // measure 60
1001
0000
1001
0000
,  // measure 61
1001
0000
0000
0000
,  // measure 62
1000
1000
1000
0000
,  // measure 63
0001
0001
0001
0001
,  // measure 64
0001
0000
1000
0000
,  // measure 65
0010
0010
0010
0100
,  // measure 66
0100
0000
0001
0000
,  // measure 67
1000
1000
1000
0001
,  // measure 68
0001
0000
0001
0000
,  // measure 69
0100
0100
0100
0010
,  // measure 70
0010
0000
0010
0000
,  // measure 71
1000
0001
1000
0001
,  // measure 72
1000
0000
0010
0000
,  // measure 73
0100
0100
0100
0000
,  // measure 74
0010
0000
1000
0000
,  // measure 75
0001
0010
0001
0000
;

//---------------dance-single - ----------------
#NOTEDATA:;
#CHARTNAME:;
#STEPSTYPE:dance-single;
#DESCRIPTION:;
#CHARTSTYLE:;
#DIFFICULTY:Medium;
#METER:7;
#RADARVALUES:0.401583,0.503311,0.089477,0.059652,0.026098,377.000000,365.000000,12.000000,8.000000,0.000000,0.000000,0.000000,0.000000,0.000000,0.401583,0.503311,0.089477,0.059652,0.026098,377.000000,365.000000,12.000000,8.000000,0.000000,0.000000,0.000000,0.000000,0.000000;
#CREDIT:;
#NOTES:
0000
0000
0000
0000
,
0000
0000
0000
0000
,
0000
0000
0000
0000
,
0000
0000
0000
0000
,
0000
0000
0000
0000
,
0000
0000
0000
0000
,
0000
0000
0000
0000
,
1000
0100
0001
0010
,
1001
0000
0100
0010
0100
0010
0000
0100
,
0010
0100
1001
0000
0110
0000
1000
0100
,
0010
0001
0100
0010
0100
0001
1000
0100
,
0010
0100
1000
0000
0001
0011
0011
0000
,
1000
0000
0010
0000
0010
0000
0100
0000
0001
0000
0000
0001
0000
0000
0010
0000
,
0001
0000
1000
0010
0200
0000
0300
0000
,
0010
0100
0010
0100
0010
0000
0000
0000
0100
0000
0100
0000
0200
0000
0000
0000
,
0000
0000
0000
0300
,
0110
0000
0001
0001
1000
1000
0010
0010
,
0100
0001
0100
0000
0110
0000
1000
0100
,
0010
0001
0010
0100
1000
0100
0010
0001
,
0100
0010
0100
0000
0000
0001
1001
0000
,
1000
0000
0100
0000
1000
0000
0100
0000
0010
0000
0000
0001
0000
0000
0100
0000
,
0001
0000
0100
0010
2002
0000
3003
0000
,
1000
0001
1000
0001
0100
0010
0100
0010
,
1000
0000
0001
0000
0100
0000
0000
0010
0000
0000
0100
0000
0010
0000
0100
0000
,
0100
0100
0010
0000
1000
0001
1000
0100
,
0010
0000
0100
0000
1000
0000
0100
0010
,
0100
0000
1000
0100
1000
0000
0001
0000
,
1000
0000
0010
0100
0010
1000
0010
0100
,
0110
0000
0001
0000
1000
0100
1000
0010
,
1000
0001
1000
0100
1000
0010
1000
0001
,
0100
0000
0001
0010
0001
0100
0001
1000
,
0001
0010
0001
0100
0001
1000
0010
0100
,
0010
1000
0002
0000
,
0203
0000
0300
0000
,
0100
0000
0100
0000
0100
0100
0010
0010
,
0100
0000
1000
0000
0001
0001
0100
0000
,
0011
0000
0000
0000
0000
0000
1000
0000
0100
0000
0000
1000
0000
0000
0001
0000
,
0100
0010
0100
0010
1000
0000
0001
0010
,
0001
0000
0000
0000
0000
0000
0100
0000
0010
0000
0000
0010
0000
0000
0010
0000
,
0000
0000
0010
1000
0010
1000
0100
0010
,
0002
0000
0003
0000
1000
0100
0001
0100
,
1000
0000
0000
0000
0001
0010
1000
0010
,
0001
0000
0000
0000
0100
0010
0100
0010
,
0100
0000
0000
0000
0010
1000
0010
1000
,
0010
0000
0000
0000
0100
0000
0010
0100
,
0010
0100
0010
1000
0001
1000
0001
1000
,
0010
0000
0000
0000
,
0000
0000
0000
0000
,
1000
0001
1000
0001
0100
0000
0100
0000
,
0010
0010
0110
0000
,
1000
0100
1000
0100
1000
0000
0000
0000
,
0001
0100
0001
0100
0001
0000
0000
0000
,
1000
0100
1000
0100
1000
0000
0001
0000
,
0001
0010
0001
0010
0001
0000
1000
0000
,
0010
0100
0010
1000
0010
0100
0010
1000
,
0010
0100
0010
0000
0100
0000
0100
0000
,
0010
0100
0010
0100
0010
0000
0000
0000
,
0100
0001
0100
0001
0100
0001
0100
0000
,
0001
0100
0001
0100
0001
0100
0001
0000
,
1000
0100
1000
0100
1000
0100
1000
0000
,
0001
0010
0001
0010
0001
0010
0001
0000
,
1000
0100
1000
0100
1000
0100
1000
0000
,
0001
0100
0001
1000
0001
0100
0001
1000
,
0001
0100
0001
1000
0001
0100
0001
0100
,
0001
0000
1000
0000
,
0010
0100
0010
0100
,
0010
0010
0010
0100
,
0010
0100
0100
0000
,
1000
0001
1000
0001
1000
0000
0000
0000
,
0001
0100
0001
0010
0001
0000
0000
0000
,
1000
0010
1000
0100
1000
0000
0000
0000
,
0001
0010
0001
0100
0001
0000
0000
0000
,
2000
0000
3010
0000
,
0100
0000
0100
0000
,
0010
0000
0100
0000
,
0001
0000
0000
0000
;
