#TITLE:heavy metal;
#SUBTITLE:;
#ARTIST:Bring Me The Horizon ft. Rahzel;
#TITLETRANSLIT:;
#SUBTITLETRANSLIT:;
#ARTISTTRANSLIT:;
#GENRE:;
#CREDIT:;
#BANNER:Bring Me The Horizon - heavy metal ft. Rahzel.jpg;
#BACKGROUND:;
#LYRICSPATH:;
#CDTITLE:;
#MUSIC:Bring Me The Horizon - heavy metal ft. Rahzel.ogg;
#OFFSET:-0.460000;
#SAMPLESTART:44.212002;
#SAMPLELENGTH:21.000000;
#SELECTABLE:YES;
#DISPLAYBPM:130.000000;
#BPMS:0.000000=130.000000
,23.500000=134.000000
,24.500000=130.000000
,143.500000=120.500008
,145.000000=130.000000
;
#STOPS:
;
#BGCHANGES:;
#KEYSOUNDS:;
#ATTACKS:;

//---------------dance-single - ----------------
#NOTES:
     dance-single:
     :
     Easy:
     3:
     0.221810,0.267702,0.151698,0.089234,0.000000,174.000000,157.000000,17.000000,10.000000,0.000000,0.000000,0.221810,0.267702,0.151698,0.089234,0.000000,174.000000,157.000000,17.000000,10.000000,0.000000,0.000000:
0000
0100
0001
1000
,
0010
0010
1000
0001
,
1000
0010
0100
0000
,
0110
0000
0110
0100
,
0000
0011
0001
1000
,
0010
0100
0100
0000
,
0110
0000
1000
0000
,
0001
1000
0001
0100
,
0100
0000
0000
0000
0010
0000
0000
0100
,
0000
0010
1000
0100
,
0010
0000
0000
0000
0100
0000
0000
0001
,
0000
0000
0100
0001
,
0001
0000
0000
0000
1000
0000
0000
0010
,
0000
0100
0010
0100
,
0010
0000
0010
0000
,
0100
0000
0001
0000
,
1001
0001
0001
0000
,
1000
1000
0001
0000
,
0100
0100
0100
0000
,
0001
0100
0001
0000
,
0100
0000
0010
0000
,
0100
0100
1000
0000
,
0001
0000
0010
0000
,
1000
0000
0001
0000
,
0200
0000
0302
0000
,
2003
0000
3002
0000
,
0203
0000
0302
0000
,
2003
0000
3020
0000
,
0130
0000
0001
0000
,
1000
0000
0001
0000
,
0100
0000
0001
0000
,
1000
1000
1000
0000
,
0000
0110
0010
0100
,
0010
0000
1000
0001
,
1001
0000
1000
0001
,
0100
0010
0010
0000
,
0000
1100
0000
0010
,
0001
0000
1000
0010
,
1000
0000
0001
0100
,
0100
0000
0010
0000
,
0100
0110
0000
0010
,
1000
0010
0100
0001
,
0001
0000
1000
0001
,
0001
0001
0001
0000
,
0100
0000
0001
0000
,
1000
1000
1000
0000
,
0110
0000
0010
0000
,
0100
0010
0100
0010
,
0100
0000
0001
0000
,
1010
0000
0101
0000
,
1010
0000
0110
0000
,
0010
0000
0100
0000
,
0010
0000
1001
0000
,
0101
0001
0001
0000
,
1010
0000
0100
0000
,
0001
1000
0001
0000
,
0100
0000
0010
0000
,
0100
0000
0002
0010
,
1003
0000
0010
0000
,
0100
0000
0020
0000
,
0030
0000
0000
0000
;

//---------------dance-single - ----------------
#NOTES:
     dance-single:
     :
     Medium:
     6:
     0.376057,0.374002,0.071387,0.107081,0.013385,295.000000,287.000000,8.000000,12.000000,0.000000,0.000000,0.376057,0.374002,0.071387,0.107081,0.013385,295.000000,287.000000,8.000000,12.000000,0.000000,0.000000:
// measure 0
0000
0100
0010
1000
,  // measure 1
0001
0000
0001
0000
1000
0000
0010
0100
,  // measure 2
0010
0000
0010
0000
1000
0010
1000
0000
,  // measure 3
0020
0230
0320
0130
,  // measure 4
0000
0000
1001
0000
1000
0001
1000
0000
,  // measure 5
0010
0000
0010
0000
0010
1000
0010
1000
,  // measure 6
0010
0000
0100
0000
0001
0010
0100
0000
,  // measure 7
1000
0000
0010
0000
0100
0001
0100
1000
,  // measure 8
0100
0000
0000
0000
0001
0000
0000
0000
1000
0000
0000
0010
0000
0000
0010
0000
,  // measure 9
0000
0000
0100
0001
1000
0100
1000
0100
,  // measure 10
1000
0000
0000
0000
0000
0000
0000
0000
0001
0000
0000
0100
0000
0000
0001
0000
,  // measure 11
0000
0000
0000
0100
0010
0000
0100
0010
,  // measure 12
0200
0000
0000
0000
0302
0000
0000
0000
1003
0000
0000
0010
0000
0000
0100
0000
,  // measure 13
0000
0000
0010
0100
0010
0000
1000
0001
,  // measure 14
1000
0000
0010
0000
0000
0100
0001
0001
,  // measure 15
0000
0000
0000
0000
1000
0010
1000
0000
,  // measure 16
0100
0001
0100
0010
0010
0000
0100
0000
,  // measure 17
0010
0000
1000
0000
0010
0100
0010
0000
,  // measure 18
1000
0001
0001
1000
0001
0000
0001
0000
,  // measure 19
0100
0000
0010
0000
0100
0001
0100
0000
,  // measure 20
0010
1000
0001
0001
,  // measure 21
0100
0000
0010
0000
0100
0001
0100
0000
,  // measure 22
0010
0010
0010
0100
,  // measure 23
0010
0010
0000
0010
0000
0000
0100
0100
,  // measure 24
0100
0000
0010
0000
1000
0020
0000
0000
,  // measure 25
0030
0000
0000
0000
0100
0000
0010
1000
,  // measure 26
0010
0000
0100
0001
0100
0001
0100
0000
,  // measure 27
0001
0000
0000
0000
0000
0000
1000
0010
,  // measure 28
0010
0000
1000
0100
0010
0000
1000
0100
,  // measure 29
1000
0100
1000
0000
0001
0000
0010
0000
,  // measure 30
0100
0010
0001
0001
,  // measure 31
2000
0000
3000
0000
0100
0010
0000
0100
,  // measure 32
0000
0000
0110
0000
1000
0001
1000
0010
,  // measure 33
0010
0000
0100
0000
0001
0000
0010
0001
,  // measure 34
0010
0000
0100
1000
0100
0100
0100
0000
,  // measure 35
0010
0000
0010
0000
0100
0010
0000
0001
,  // measure 36
0000
0000
1001
0000
0010
1000
1000
0000
,  // measure 37
0001
0010
0100
0010
,  // measure 38
1010
0000
0000
0100
0010
0000
1000
0001
,  // measure 39
0001
0000
1000
0000
1000
0000
1000
0010
,  // measure 40
0010
0000
0100
0001
0100
0002
0000
0000
,  // measure 41
1003
0010
0100
0010
,  // measure 42
0110
0000
1000
1000
0010
0100
0010
0000
,  // measure 43
1000
0000
0001
0100
0001
0001
0100
0000
,  // measure 44
0001
0000
0010
0100
1000
0000
0001
0010
,  // measure 45
1000
0010
0001
0000
0001
0000
1000
0010
,  // measure 46
0010
0000
0100
0010
0100
0020
0000
0000
,  // measure 47
1030
0000
0001
0000
0001
0000
1000
0100
,  // measure 48
0100
0010
1000
0001
,  // measure 49
0101
0000
0101
0000
0001
0000
1000
0010
,  // measure 50
1000
0000
0100
0010
0100
0010
0001
0000
,  // measure 51
1000
0000
0001
0010
0001
0010
0001
0000
,  // measure 52
1000
0000
0010
0010
0010
0000
0100
0100
,  // measure 53
0010
0100
0001
0000
0001
0000
1000
0000
,  // measure 54
1010
0100
0020
0000
,  // measure 55
0130
0100
0010
1000
,  // measure 56
0010
0000
0100
0010
0100
0020
0000
0000
,  // measure 57
0130
0000
0100
0001
,  // measure 58
0100
0000
0010
1000
1000
0020
0000
0000
,  // measure 59
0130
0000
0000
0000
0001
0000
0000
1000
;

//---------------dance-single - ----------------
#NOTES:
     dance-single:
     :
     Hard:
     10:
     0.682002,0.775257,0.294472,0.294472,0.606791,535.000000,502.000000,33.000000,33.000000,0.000000,0.000000,0.682002,0.775257,0.294472,0.294472,0.606791,535.000000,502.000000,33.000000,33.000000,0.000000,0.000000:
2000
0000
3002
0000
0203
0001
0301
0001
,
0200
0000
0302
0000
2003
0000
3010
0100
,
0002
0003
0000
0100
0010
0100
0001
1000
,
0100
0010
0100
0010
1000
0001
1000
0010
0100
0110
0000
0000
,
0000
0000
0000
0000
0202
0000
0303
0000
0100
0000
0100
0010
0001
0000
1000
0000
,
0020
0000
0000
0000
0230
0000
0000
0000
0301
1000
0001
1000
0001
0000
0100
0010
,
0202
0000
0303
0000
0000
0000
0010
0000
0100
0000
0001
1000
0001
0000
0100
0000
,
0010
0000
0100
0000
0010
0000
1000
0000
0001
0100
0001
1000
0001
0100
0001
1000
,
0020
0000
0030
0000
0200
0000
0300
1000
0001
0000
0000
0100
0000
0000
0001
0000
,
0000
0000
0100
0001
0010
0100
1000
0001
,
2002
0000
0000
0000
3003
0000
0000
0100
0001
0000
0000
0010
0000
0100
0010
0000
,
0000
0000
0000
0000
0000
0000
1000
0010
1000
0100
0010
0001
0010
0001
1000
0001
,
0100
0000
0000
0000
0010
0000
0000
0100
0010
0000
0000
0100
0000
0100
0010
0000
,
0000
0000
0100
0001
0001
1000
1000
0010
,
0101
0000
0010
0000
1001
0000
0000
0100
0010
0000
0101
0000
0010
0000
1001
0000
,
0000
0000
0000
0000
0100
0000
0000
0000
0010
0000
0100
0001
0100
0010
0100
0001
,
0100
0000
0010
1000
0001
0000
0100
0001
0010
0000
0100
0000
0010
0000
0100
0000
,
0010
0000
1000
0001
1000
0001
1000
0001
0100
0010
0100
0010
0100
0000
0001
0000
,
1001
0000
0010
0100
0001
0000
0001
0010
0100
0000
0001
0000
0100
0000
1000
0000
,
0010
0000
0000
0000
0000
0000
0100
0000
0000
0001
0000
0000
1000
0000
0000
0010
0000
0000
0100
0000
0000
0001
0000
0000
0100
0000
0000
0010
0000
0000
0100
0000
0000
0010
0000
0000
1000
0000
0000
0000
0000
0000
0000
0000
0001
0000
0000
0000
,
0100
0001
1000
0010
0100
0001
1000
0010
0100
0001
0000
0000
,
1000
0000
0001
1000
0001
0100
0010
0100
0010
0000
0100
0010
0100
0001
1000
0000
,
0001
0000
0010
0000
0010
0000
0100
0000
0100
0000
0110
0000
1000
0001
0100
0010
,
0100
0100
0010
0100
0010
0100
0010
1000
0010
0000
0100
0001
0100
0000
0001
0000
,
2000
0000
3010
0100
0010
0200
0001
0000
,
0301
0010
0001
0000
1000
0000
0010
0100
,
0010
0000
0100
0001
0100
0001
0001
1000
,
2000
0000
3002
0000
0023
0000
0130
0001
,
0100
0000
0100
0010
0100
0000
1000
0001
,
1000
0010
0100
0000
0100
0000
0010
0000
0010
0000
0000
0001
0100
0000
0010
0000
,
2000
0000
3010
0100
0010
2000
0000
3000
,
0010
0000
0100
0000
0001
0000
1000
0000
0001
0000
0100
0000
0010
0000
0000
0100
0000
0000
0000
0000
0000
0010
0000
0000
,
0000
0000
0000
0000
0110
0000
0000
0000
0010
0000
1000
0001
0010
0000
0100
0000
,
0001
0000
0000
0000
1000
0000
0000
0000
0010
0000
0100
0010
0100
0000
0010
0100
,
0010
0000
0000
0000
0100
0000
0001
0100
0001
0000
0100
0001
0100
0000
0010
0000
,
0010
0000
0000
0000
0110
0000
0000
0100
0010
0000
0100
0000
0000
0000
0010
0000
,
0000
0000
0000
0000
0110
0000
0000
0000
0100
0010
0100
0010
0100
0000
0010
1000
,
0100
0000
0010
0001
0010
0000
1000
0000
0110
0000
0001
0010
0001
0000
1000
0000
,
0202
0000
0303
0000
0010
0000
1000
0000
0001
0000
0100
0001
0100
0000
0001
0100
,
0001
0000
1000
0010
0000
1000
0010
1000
0001
0000
0100
0001
0000
0100
0001
0010
,
0100
0000
0000
0000
1001
0000
0100
0000
0110
0000
1001
0000
0100
0000
0010
0100
,
0010
0000
0000
1000
0010
0000
0100
0000
0010
0000
1000
0010
0100
0000
0001
0000
,
0001
0000
1000
0010
0100
0001
0001
0010
,
0200
0000
0000
0000
0310
0000
0001
0000
0001
1000
0010
0000
0100
0001
1000
0000
,
0001
0000
0000
0000
0100
0000
0010
0000
1001
0000
0000
0100
0010
0000
0100
0000
,
0001
0000
0001
1000
0001
0000
0100
0000
0101
0000
0000
0100
0010
0000
1000
0000
,
0011
0000
0100
0001
0010
0010
0000
0100
,
0010
0100
0001
1000
0001
0010
0100
0010
0100
1000
0001
1000
0001
0010
0100
1000
,
0100
0000
0000
0000
0110
0000
0001
0000
0100
0000
0011
0000
1000
0001
1000
0000
,
0010
0000
0000
0100
0010
0000
0000
0100
0001
0000
1000
0001
0100
0000
0010
0000
,
0101
0000
0000
0000
0010
0000
1000
0000
0001
0000
0100
0000
0001
0100
0001
0000
,
1001
0000
0000
0010
0100
0000
0010
0000
1000
0001
0100
0010
0010
1000
0010
0001
,
0010
0100
0010
1000
0001
0000
0000
0100
0001
0000
0100
0010
1000
0000
0100
0000
,
0110
0000
1001
0000
1100
0000
0011
0000
0101
0000
0001
0000
0100
0000
0010
0100
,
0010
1000
0001
0100
0010
0202
0303
1000
,
0001
0000
0000
0000
0000
0000
0000
0000
0000
0100
0000
0000
0001
0000
0000
0000
0000
0000
0000
0000
0000
0100
0000
0000
0010
0000
0000
0000
0010
0000
0000
0000
0010
0000
0000
0000
0100
0000
0000
0000
0001
0000
0000
0000
1000
0000
0000
0000
,
0001
0000
0010
0100
0100
2002
0000
3003
,
1000
0000
0000
0010
0000
0000
1000
1000
0010
1000
0010
0100
,
0101
0000
0010
1000
0200
0302
0003
0000
,
0000
0000
0000
1000
0000
0000
0000
0000
0000
0000
0000
0000
0010
0000
0000
0000
0000
0000
0000
0000
0000
0000
0000
0000
0100
0000
0000
0000
0100
0000
0000
0000
0100
0000
0000
0000
0010
0000
0000
0000
0010
0000
0000
0000
0010
0000
0000
0000
;
