#TITLE:Your Love;
#SUBTITLE:;
#ARTIST:J Boog;
#TITLETRANSLIT:;
#SUBTITLETRANSLIT:;
#ARTISTTRANSLIT:;
#GENRE:;
#CREDIT:;
#BANNER:;
#BACKGROUND:;
#LYRICSPATH:;
#CDTITLE:;
#MUSIC:J Boog - Your Love.ogg;
#OFFSET:-0.095000;
#SAMPLESTART:49.500000;
#SAMPLELENGTH:12.200000;
#SELECTABLE:YES;
#BPMS:0.000000=120.000000
;
#STOPS:
;
#BGCHANGES:;
#KEYSOUNDS:;
#ATTACKS:;

//---------------dance-single - ----------------
#NOTES:
     dance-single:
     :
     Easy:
     3:
     0.233340,0.315355,0.258753,0.129377,0.000000,202.000000,170.000000,32.000000,16.000000,0.000000,0.000000,0.233340,0.315355,0.258753,0.129377,0.000000,202.000000,170.000000,32.000000,16.000000,0.000000,0.000000:
0000
0000
0000
0000
,
0000
0000
0000
0000
,
0000
0000
0000
0000
,
0000
0000
0000
0000
,
1000
0000
0001
0000
,
0200
0300
0020
0030
,
0200
0300
0002
0003
,
0010
0000
1001
0001
,
1000
0001
0010
0000
,
0110
0000
0010
0100
,
0010
0000
1000
0000
,
1001
0000
0100
0001
,
0001
0000
1000
0010
,
0100
0010
0100
0010
,
1000
0000
0001
0000
,
1000
0010
0100
0010
,
0220
0330
0000
0011
,
0001
0000
1000
0001
,
1000
0000
0001
1000
,
0001
0001
1000
0010
,
0100
0000
0110
0110
,
0100
0000
0010
0100
,
0010
0010
0000
0110
,
0000
1001
0001
1000
,
0001
1010
0000
0001
,
0100
0011
0000
1000
,
0100
0101
0000
1001
,
0010
0100
0010
0100
,
0010
0110
0000
1000
,
0010
1100
0000
0100
,
0010
1010
0000
0100
,
0010
0100
0010
0100
,
0200
0300
0000
0000
0000
0000
0110
0000
,
0010
0100
0000
1001
,
0001
1001
0000
0101
,
0001
1000
0010
0100
,
0010
0100
0000
0001
,
0010
0001
1000
0010
,
0100
0000
0010
0000
,
0010
0001
0100
0000
,
0110
0110
0000
0011
,
0011
0001
0000
1100
,
1100
0100
0000
0100
,
0020
0130
0200
0310
,
0010
1001
0000
0001
,
1000
0010
0000
0100
,
0020
0100
0130
0100
,
0020
1030
0001
1000
,
1001
0001
0000
0020
,
0130
0110
0000
2000
,
3001
0101
0000
0010
,
0100
0100
0010
0100
,
0002
0013
0000
1000
,
0020
1030
0000
0001
,
0200
0310
0000
0100
,
0010
0100
0010
0000
,
0110
0000
0100
0010
,
0010
0000
0100
0000
,
0010
0010
0010
0000
,
1000
0000
0001
0000
,
1010
0000
0000
0000
;

//---------------dance-single - ----------------
#NOTES:
     dance-single:
     :
     Medium:
     6:
     0.351165,0.388130,0.274925,0.218323,0.000000,304.000000,270.000000,34.000000,27.000000,0.000000,0.000000,0.351165,0.388130,0.274925,0.218323,0.000000,304.000000,270.000000,34.000000,27.000000,0.000000,0.000000:
// measure 0
0000
0000
0000
0000
,  // measure 1
0000
0000
0000
0000
,  // measure 2
0000
0000
0000
0000
,  // measure 3
0000
0000
0000
0000
,  // measure 4
0010
0200
0302
0203
,  // measure 5
0302
0000
1000
1003
,  // measure 6
0020
0000
0100
0130
,  // measure 7
0010
0010
1000
0000
0001
0000
0001
0100
,  // measure 8
0001
0100
0110
0110
,  // measure 9
1000
0010
0001
0000
1000
0000
0101
0000
,  // measure 10
0002
0000
2003
0000
3010
0100
0010
0000
,  // measure 11
0100
0010
1000
0000
0001
0000
1000
0000
,  // measure 12
0001
0010
0001
0000
1000
0010
1000
0010
,  // measure 13
0100
0000
0101
0000
0001
0010
1000
0000
,  // measure 14
0010
0000
0001
0000
1000
0010
0100
0000
,  // measure 15
0001
0000
0001
0000
1000
0100
0010
0000
,  // measure 16
0220
0330
0010
0110
,  // measure 17
1001
0000
0100
0010
0100
0000
0001
0100
,  // measure 18
1000
0000
0100
0001
0010
0000
0001
0000
,  // measure 19
1000
0100
0001
1000
0010
0000
0001
0000
,  // measure 20
0001
1000
0001
0000
0100
0010
0100
0010
,  // measure 21
0100
0000
0010
0010
0100
0000
0001
0000
,  // measure 22
1000
1010
0100
0101
,  // measure 23
0010
0010
0100
0100
0001
0000
1000
0002
,  // measure 24
0000
0013
1000
0010
0000
0000
0001
2000
,  // measure 25
0000
3001
0100
0001
0000
0000
1000
0020
,  // measure 26
0000
0031
0010
0100
0000
0000
0110
0000
,  // measure 27
1000
1100
0010
0110
,  // measure 28
0010
0000
0101
0000
0001
1000
0001
0100
,  // measure 29
0010
0000
0110
0000
0010
1000
0010
0100
,  // measure 30
0010
0000
0101
0000
0001
0010
0100
1000
,  // measure 31
0001
0101
0010
1001
,  // measure 32
0001
0000
0000
0101
,  // measure 33
0001
0000
0000
0000
1000
0000
0010
0100
,  // measure 34
0020
0030
0100
0101
,  // measure 35
0001
0000
1000
0010
1000
0000
0001
0000
,  // measure 36
0100
0001
0010
0000
0001
0010
0001
0010
,  // measure 37
0001
0110
0001
0011
,  // measure 38
1000
0001
0100
0000
0010
0000
0100
0001
,  // measure 39
0100
0010
0100
0000
0001
0000
1001
0000
,  // measure 40
0202
0303
0010
1010
,  // measure 41
0202
0303
0010
0101
,  // measure 42
0220
0000
0330
0000
0001
0000
1000
0010
,  // measure 43
0100
0000
0001
0010
0001
1000
0001
0000
,  // measure 44
0200
0310
0100
0002
,  // measure 45
2003
3010
0100
0020
,  // measure 46
0230
0301
0000
1001
,  // measure 47
0001
0010
0100
1000
0100
0010
0001
0000
,  // measure 48
1001
0000
0110
0000
0100
0001
0010
0001
,  // measure 49
0010
0000
0101
0000
0010
1000
0010
0100
,  // measure 50
0001
0000
0101
0000
0010
0100
0001
0010
,  // measure 51
0001
0000
1000
0000
0010
0000
0100
0020
,  // measure 52
0000
0130
1000
0001
0000
0000
1000
0200
,  // measure 53
0000
0310
0001
0100
0000
0000
0010
0200
,  // measure 54
0000
1300
0100
0001
0000
0000
1000
0000
,  // measure 55
0101
0110
0100
0010
,  // measure 56
0100
0000
0001
0000
0010
0000
1000
0010
,  // measure 57
0100
0000
0010
0000
0000
0000
0100
0010
,  // measure 58
0100
0000
0010
0000
0001
0000
1000
0100
,  // measure 59
0001
0000
0000
0000
1000
0000
0010
0100
,  // measure 60
0001
0000
0000
0000
;

//---------------dance-single - ----------------
#NOTES:
     dance-single:
     :
     Hard:
     9:
     0.537144,0.557936,0.307269,0.339613,0.557936,465.000000,427.000000,38.000000,42.000000,0.000000,0.000000,0.537144,0.557936,0.307269,0.339613,0.557936,465.000000,427.000000,38.000000,42.000000,0.000000,0.000000:
0000
0000
0000
0000
,
0000
0000
0000
0000
,
0000
0000
0000
0000
,
0000
0000
0000
0000
,
1000
0000
0002
0000
0203
0010
0301
1000
,
0020
0000
0130
0010
,
0200
0000
0302
1003
,
0010
0000
0010
0000
0100
0001
0000
1000
0001
0010
0100
1000
0010
0100
0001
0000
,
0001
1000
0010
0202
0303
0100
0110
0000
,
0001
0000
1000
0000
0001
0000
0100
0002
0000
0000
0103
0000
0010
0000
0100
0002
,
0000
0000
0000
0000
1003
0000
0000
0001
0100
0000
0010
0000
0100
0000
0001
0000
,
1001
0000
0010
0000
1001
0000
0010
0100
0000
0000
0000
0000
0010
0000
0100
0001
,
0000
1010
0000
1010
0000
0000
0100
0000
0010
0000
0001
0000
0010
0000
1000
0000
,
0001
0000
0100
0000
0010
0000
1000
0010
0000
0000
0100
0000
0001
0000
0010
0001
,
0000
0010
0000
0001
0000
0000
0100
0010
0100
0000
0000
0010
1000
0010
0000
0100
,
0000
0001
0000
1000
0000
0000
0000
0000
0010
0000
0100
0000
0010
0000
0000
0000
,
0220
0330
0001
0010
0001
1000
0100
0000
,
0101
0000
0010
0000
0101
0000
0001
0100
0000
0000
0001
0000
0100
0000
0010
0200
,
0000
0000
0000
0000
0310
0000
0000
0100
0010
0000
0100
0000
0010
0000
0000
0000
,
0100
0001
0000
0100
0000
0101
0000
1001
0000
0000
0010
0000
0100
0000
0001
1000
,
0000
0001
0000
0100
0000
0000
0100
0000
0001
0000
1000
0000
0100
0000
0010
0000
,
0011
0000
0001
0000
0100
0000
0010
0100
0000
0000
0010
0000
0100
0000
0010
1000
,
0000
0001
0000
0101
0000
0000
0010
0000
0100
0000
0000
0001
1000
0001
0000
0100
,
0000
0010
0000
0100
0000
0000
0000
0001
0010
0001
0010
0001
1000
0010
0100
0001
,
0200
0000
0000
0000
0310
0100
0010
0000
0100
0000
0000
1000
0001
0000
2000
0000
,
0000
0000
0000
0000
3010
0100
0010
0000
1001
0000
0000
0100
0001
0000
0020
0000
,
0000
0000
0000
0000
0031
1000
0100
0000
0010
0000
0000
0000
0011
0000
0000
0000
,
1000
0000
0010
0000
0100
0001
0010
0000
0001
0000
1000
0000
0010
0100
0020
0000
,
0000
0000
0130
0001
1001
0010
0100
2200
,
0300
0000
3100
0000
0011
0001
1000
0220
,
0300
0000
0000
0000
1030
0000
0000
0000
1100
0000
0010
0000
0001
0000
0100
0001
,
1000
0000
1000
0000
0001
0000
1000
0001
0000
0100
0010
0000
0100
0000
0002
2000
,
0000
0000
3003
0000
0000
0000
0000
0000
0100
0000
0000
0100
0010
0000
0000
0100
,
0010
0000
0100
0001
0000
1000
0000
1010
0000
0100
0000
0001
0000
0010
0000
0102
,
0000
0000
0000
0000
0103
0000
0000
1000
0001
0000
0010
0000
0110
0000
0000
0010
,
0100
0000
0001
1000
0000
0001
0000
0100
0000
0010
0000
0101
0000
1010
0000
1010
,
0000
0100
0000
0010
0000
0000
0010
0000
0100
0001
1000
0001
0100
0001
0010
0000
,
0001
1000
0000
0010
0000
0100
0000
0010
0000
0100
0000
0010
0000
1000
0000
0001
,
0000
0010
0000
0100
0000
0000
0000
1000
0001
0000
0000
0001
0010
0100
0000
1000
,
0000
1001
0000
0101
0000
0000
0000
0000
0100
0000
0010
0000
0010
0000
0200
0000
,
0000
0000
0301
1000
0002
0000
2003
0000
3001
0000
0100
0000
0001
0000
0020
0000
,
0001
0000
0130
1000
0001
0000
0001
0000
1000
0000
0010
0000
0100
0000
0020
0000
,
0000
0000
0130
0001
0100
0000
0010
0000
0100
0000
0000
0001
0100
0001
1000
0010
,
1000
0000
0100
0001
0000
0100
0000
1000
0000
0010
0000
0100
0010
0000
0200
0000
,
0000
0000
0301
1000
0002
0000
2003
0000
3010
0000
0100
0000
0100
0000
0002
0000
,
0000
0000
1003
0100
0001
0000
1000
0000
0010
0000
0000
0000
0101
0000
0202
0000
,
0000
0000
0303
0000
1000
0000
0000
0010
0100
0000
0000
0000
0110
0000
0000
0100
,
0010
0100
0000
0010
0000
1000
0000
0001
0000
1000
0010
1000
0100
0010
0001
0000
,
1001
0000
0000
0010
0100
0000
0010
0100
0010
0000
0000
0001
0100
0000
0002
0000
,
0000
0000
1003
0100
0010
0000
0100
0010
0001
0000
0100
0000
0001
0000
0020
0000
,
0000
0000
0031
1000
0001
0000
0100
0001
0100
0000
0001
0000
1010
0000
0000
0000
,
0100
0000
0010
0000
1000
0100
0010
0000
0100
0000
0010
0000
0100
0010
0002
0000
,
0000
0000
1003
0010
0001
0000
0010
0000
1010
0000
0100
0010
0100
0000
0002
0000
,
0000
0000
0013
0001
0100
0000
0010
0000
0100
0000
0020
0000
0030
0000
0200
0000
,
0000
0000
0301
0010
0001
0000
1000
0000
0101
0000
0001
1000
0001
0000
0100
0010
,
0001
0000
0010
0000
1000
0000
0100
0010
0000
0000
0011
0000
0001
0000
1000
0001
,
0000
0000
0000
0000
0100
0000
0000
0100
0010
0000
0000
0000
1000
0000
0002
0000
,
0103
0000
0000
0000
0001
0000
0000
1000
0001
0000
0000
0000
0100
0000
0010
0000
,
0110
0000
0000
0000
1000
0000
0000
0100
0001
0000
0000
0000
0100
0000
2000
0000
,
3001
0000
0100
0000
0010
0010
0100
0010
,
1001
0000
0000
0000
;
