#TITLE:You Don't Want To Know;
#SUBTITLE:;
#ARTIST:Avans;
#TITLETRANSLIT:;
#SUBTITLETRANSLIT:;
#ARTISTTRANSLIT:;
#GENRE:;
#CREDIT:;
#BANNER:;
#BACKGROUND:;
#LYRICSPATH:;
#CDTITLE:;
#MUSIC:Avans - You Don't Want To Know.mp3;
#OFFSET:-0.069000;
#SAMPLESTART:68.199997;
#SAMPLELENGTH:16.000000;
#SELECTABLE:YES;
#BPMS:0.000000=150.000000
;
#STOPS:
;
#BGCHANGES:;
#KEYSOUNDS:;
#ATTACKS:;

//---------------dance-single - ----------------
#NOTES:
     dance-single:
     :
     Easy:
     3:
     0.196363,0.239375,0.056104,0.140259,0.000000,147.000000,141.000000,6.000000,15.000000,0.000000,0.000000,0.196363,0.239375,0.056104,0.140259,0.000000,147.000000,141.000000,6.000000,15.000000,0.000000,0.000000:
0100
0010
0100
0000
,
0001
0001
1000
1000
,
0001
0000
0010
0000
,
0100
0010
0100
0000
,
0010
0100
1000
0000
,
0100
0000
0010
0001
,
0100
0000
0010
0000
,
0100
0100
0010
0010
,
0100
0000
0100
0000
,
0200
0000
0300
0200
,
0000
0300
0000
0000
,
0200
0000
0300
0010
,
0100
0000
0000
0100
0000
0000
0000
0000
,
1000
0010
0200
0300
,
0001
0001
0000
0000
,
0100
0010
1000
0001
,
0010
0000
0010
0000
,
0100
0100
0001
0000
,
1000
0000
0010
0000
,
0100
0000
0010
0000
,
0100
0010
0000
0100
,
0010
0000
1100
0000
,
0010
0010
0000
0100
,
0000
0100
0000
0010
,
0200
0000
0000
0000
,
0301
0000
0010
0000
,
2000
0000
0000
3000
,
0001
0000
0010
0000
,
0110
0000
0000
0110
,
0000
0000
1000
0001
,
0100
0000
0000
0010
,
0000
0000
0100
0010
,
0100
0000
0000
0100
,
0000
0000
0010
0000
,
0000
1000
0000
0000
0010
0000
0000
0000
,
0000
0100
0000
0000
0010
0000
0000
0000
,
0100
0010
0000
0010
,
0100
0010
0000
0001
,
1000
0000
0001
0000
,
0100
0000
0010
0000
,
1000
0000
1000
0000
,
0001
0000
1000
0010
,
0200
0000
0302
0000
,
1003
0000
0000
0000
,
0201
0000
0000
0000
,
0302
0000
0000
0000
,
1003
0000
0000
0000
0010
0000
0000
0100
,
0000
0000
0010
0000
,
1000
0000
1000
0000
,
0001
0000
0010
0010
,
0010
0000
0100
0100
,
0010
0100
0010
0100
,
0020
0000
0000
0000
,
2030
0000
0001
0000
,
3001
0000
0000
0000
0010
0000
0000
0100
,
0000
0000
0001
0000
,
0100
0000
0010
1000
,
1000
0000
0001
0010
,
0001
0000
0110
0000
,
0100
0000
0010
0000
,
1001
0000
0100
0000
,
0200
0000
0300
0002
,
0000
0003
0000
0000
,
0020
0000
0030
0100
,
0010
0000
0000
0000
;

//---------------dance-single - ----------------
#NOTES:
     dance-single:
     :
     Medium:
     6:
     0.335286,0.418907,0.224414,0.224414,0.009351,251.000000,227.000000,24.000000,24.000000,0.000000,0.000000,0.335286,0.418907,0.224414,0.224414,0.009351,251.000000,227.000000,24.000000,24.000000,0.000000,0.000000:
// measure 0
0100
0010
0110
0000
,  // measure 1
0001
0001
1001
1000
,  // measure 2
0101
0100
0010
0000
,  // measure 3
0100
0000
0010
0100
0010
0100
0010
0000
,  // measure 4
0010
0001
0100
0000
1000
0000
0000
0000
,  // measure 5
0100
0001
0110
0001
,  // measure 6
1000
0010
0010
0000
,  // measure 7
0100
0000
0100
0000
0010
0100
0010
0000
,  // measure 8
0100
0000
0010
0000
,  // measure 9
1000
0001
1000
0100
,  // measure 10
0000
0010
0000
1000
0000
0001
0000
0000
,  // measure 11
0200
0000
0300
0010
,  // measure 12
1000
0001
0000
0100
0000
0000
0010
0000
,  // measure 13
1000
0100
0020
0030
,  // measure 14
0001
1000
0000
0010
,  // measure 15
0100
0000
0001
0000
1000
0000
0001
0100
,  // measure 16
0100
0010
0100
0001
,  // measure 17
0100
0001
0000
0001
0000
1000
0000
0100
,  // measure 18
0000
0000
0000
0100
0010
0000
0100
0000
,  // measure 19
0100
0000
0000
0001
0000
0000
0100
0000
0000
0000
0000
0000
0010
0000
0000
0000
,  // measure 20
0100
0010
0000
0100
0010
0000
0101
0000
,  // measure 21
0010
1000
0100
0000
1100
0000
0100
0000
,  // measure 22
0011
0010
0100
0010
,  // measure 23
0010
0100
0010
1000
,  // measure 24
2002
0003
0001
0000
,  // measure 25
3001
0000
0020
0000
0000
0100
0130
0000
,  // measure 26
0002
0000
1000
0003
,  // measure 27
0001
0010
0110
0000
,  // measure 28
0110
0000
0000
0010
0000
0000
0100
0000
,  // measure 29
0000
0001
0000
0000
1001
0000
0001
0000
,  // measure 30
0101
0000
0000
0010
0000
0000
0100
0000
,  // measure 31
0000
0001
0000
0000
1000
0000
0010
0000
,  // measure 32
0110
0000
0000
1000
0000
0000
0001
0000
,  // measure 33
0000
0010
0000
0000
0100
0000
0000
0000
,  // measure 34
0000
1000
0000
0010
0100
0010
0100
0000
,  // measure 35
0000
0100
0000
0000
0110
0000
0000
0000
,  // measure 36
0100
0010
0100
0010
,  // measure 37
0100
0100
0001
0001
,  // measure 38
1000
0001
0100
0000
0002
0000
0023
0000
,  // measure 39
0230
0000
0301
0000
0010
0100
0010
0000
,  // measure 40
0001
0000
1000
0000
1000
0010
0100
0000
,  // measure 41
0001
0010
0001
0000
1000
0010
0100
0000
,  // measure 42
0200
0001
0302
1003
,  // measure 43
0101
0020
0130
0010
,  // measure 44
0201
0000
0000
0000
,  // measure 45
0320
0000
0000
0000
,  // measure 46
1030
0001
0000
0000
0110
0000
0000
0101
,  // measure 47
0000
0000
0000
0100
0010
0000
0000
0000
,  // measure 48
2020
3030
0001
0000
2000
0000
0010
0000
,  // measure 49
3002
0000
0103
0010
,  // measure 50
0100
0000
0001
0010
0100
0000
0100
0010
,  // measure 51
0001
0000
1000
0100
0010
0000
0100
0001
,  // measure 52
0020
0000
0000
0000
,  // measure 53
0032
0000
0000
0000
0000
0000
0000
0000
1000
0000
0000
0000
0000
0003
0000
0000
,  // measure 54
1001
0000
0000
0000
0000
0000
0000
0000
0010
0000
0000
0100
0000
0000
0010
0000
,  // measure 55
0000
0000
0000
0000
2002
0000
0000
3003
,  // measure 56
0100
0000
0010
0100
0010
0000
1000
0000
,  // measure 57
1001
0000
0100
0010
,  // measure 58
1001
0000
0010
0100
0001
0000
1000
0100
,  // measure 59
0010
0000
0001
0010
0100
0000
0000
0000
,  // measure 60
1001
0000
0100
0000
,  // measure 61
0010
0000
1000
0000
,  // measure 62
0000
0001
0000
0100
0000
0010
0000
0000
,  // measure 63
0200
0000
0300
0200
,  // measure 64
0301
0000
0000
0000
;

//---------------dance-single - ----------------
#NOTES:
     dance-single:
     :
     Hard:
     9:
     0.486231,0.718126,0.224414,0.168311,0.369349,364.000000,340.000000,24.000000,18.000000,0.000000,0.000000,0.486231,0.718126,0.224414,0.168311,0.369349,364.000000,340.000000,24.000000,18.000000,0.000000,0.000000:
1001
0000
0010
0000
0100
0000
0000
0000
0110
0000
0000
0000
0000
0000
1000
0001
,
1000
0010
0010
0000
0100
0010
0100
0000
,
0110
0000
0000
0100
0010
0000
0000
0000
0010
0000
1000
0000
0010
0000
0100
0000
,
0010
0000
0010
0100
0001
0010
0100
0000
,
0001
0000
1000
0000
0001
0000
0000
0000
1001
0000
0000
0000
0000
0000
0100
0010
,
0100
0000
0010
0000
0010
0100
0010
0000
,
1001
0000
0000
0001
1000
0000
0000
0000
0001
0000
0000
0000
0100
0000
0010
0000
,
0100
0000
0000
0000
0100
0001
0100
0001
0100
0000
0001
0000
0100
0000
0000
0000
,
0010
0000
0000
0000
0000
0000
1000
0001
1000
0001
1000
0001
1000
0001
1000
0001
,
1000
0000
0000
0000
0000
0000
0000
0000
0000
0000
0000
0000
0000
0000
0000
0000
0010
0000
0000
0000
0000
0000
0000
0000
0000
0000
0000
0000
0000
0000
0000
0000
0100
0000
0000
0000
0000
0000
0000
0000
0000
0000
0000
0000
0000
0000
0000
0000
0001
0000
0000
0000
0000
0000
0000
0000
0000
0000
0000
0000
0000
0000
0000
0000
1000
0000
0000
0000
0000
0000
0000
0000
0000
0000
0000
0000
0000
0000
0000
0000
0010
0000
0000
0000
0000
0000
0000
0000
0000
0000
0000
0000
0000
0000
0000
0000
0100
0000
0000
0000
0000
0000
0000
0000
0000
0000
0000
0000
0000
0000
0000
0000
0000
0000
0001
0000
0000
0000
0000
0000
0000
0000
0000
0000
0000
0000
0000
0000
0000
0000
0000
0000
1000
0000
0000
0000
0000
0000
0000
0000
0000
0000
0000
0000
0000
0000
0000
0000
0000
0000
0100
0000
0000
0000
0000
0000
0000
0000
0000
0000
0000
0000
0000
0000
0000
0000
0000
0000
0000
0000
0000
0000
0000
0000
0001
0000
0000
0000
0000
0000
0000
0000
0000
0000
0000
0000
0000
0000
0000
0000
0000
0000
,
0000
0000
0000
0000
0000
0000
0100
0000
0000
0000
0000
0000
0000
0000
0000
0000
0000
0000
0000
0000
0000
0000
0000
0000
0000
0000
0000
0000
0000
0000
0000
0000
1000
0000
0000
0000
0000
0000
0000
0000
0000
0000
0000
0000
0000
0000
0000
0000
0000
0000
0000
0000
0000
0000
0000
0000
0000
0000
0000
0000
0000
0000
0000
0000
0001
0000
0000
0000
0000
0000
0000
0000
0000
0000
0000
0000
0000
0000
0000
0000
0000
0000
0000
0000
0000
0000
0000
0000
0000
0000
0000
0000
0000
0000
0000
0000
0000
0000
0000
0000
0000
0000
0000
0000
0000
0000
0000
0000
0000
0000
0000
0000
1000
0000
0000
0000
0000
0000
0000
0000
0000
0000
0000
0000
0000
0000
0000
0000
0000
0000
0000
0000
0000
0000
0000
0000
0000
0000
0000
0000
0000
0000
0000
0000
0000
0000
0000
0000
0000
0000
0000
0000
0000
0000
0000
0000
0000
0000
0000
0000
0000
0000
0000
0000
0000
0000
0000
0000
0000
0000
0000
0000
0000
0000
0000
0000
0000
0000
0000
0000
0000
0000
0000
0000
0000
0000
0000
0000
0000
0000
0000
0000
,
0200
0000
0300
0020
,
1030
0001
0000
0100
0000
0000
0000
0000
,
0010
0100
0010
0000
0100
0001
0010
0000
,
1000
0001
0010
0100
,
0100
0000
0010
0100
0001
0000
1000
0000
,
0010
0000
0100
0010
0100
0000
0001
0000
,
1000
0010
0000
0100
0000
0010
0000
0100
,
0010
0000
1000
0001
1000
0000
0001
0000
,
0010
0000
0000
0001
0000
0000
0100
0000
0000
0000
0000
0000
0010
0000
0000
0000
,
0100
0010
0000
0100
0000
0000
0010
0100
,
0010
0100
0010
0100
0010
0000
0000
0000
,
1000
0001
0000
0100
0010
0000
0100
0000
,
0010
0000
0000
0100
0000
0000
0000
0010
0000
0000
0100
0000
0010
0000
0000
0000
,
0200
0000
0301
1000
,
0000
0000
0010
0100
0000
0100
0010
0000
,
0200
0000
0301
0100
,
0010
0000
0000
0000
0100
0000
0010
0000
0100
0000
0000
0010
0000
0000
0100
0000
,
0110
0000
0000
0011
0000
0000
1010
0000
,
0000
0110
0000
0000
0010
0100
0010
0000
,
1001
0000
0000
1100
0000
0000
0100
0000
,
0000
0011
0000
0000
0100
0000
0010
0000
,
1001
0000
0000
0100
0000
0000
0010
0000
,
0000
1000
0000
0000
0001
0000
0000
0000
,
0000
0100
0000
0001
1000
0001
1000
0000
,
0000
0000
0010
0000
0000
0000
0000
0000
0110
0000
0000
0000
0100
0000
0000
0010
,
0100
0000
0001
0000
0100
0010
0000
0100
,
0000
0001
0000
1000
0000
0010
0100
0010
,
0000
0100
0000
0100
0001
0000
0100
0001
,
0100
0000
0010
0100
0010
0100
0000
0001
,
0000
1000
0000
1001
0000
0011
0000
1000
,
0000
1000
0000
0001
0000
0001
0000
0100
,
0010
0100
0010
0100
0010
0100
0010
0100
0010
0100
0010
0100
0010
0100
0010
0100
,
0010
1000
0100
0001
,
2002
0000
0000
0000
0000
0000
0000
3003
,
1000
0001
1000
0001
1000
0001
1000
0001
1000
0001
1000
0001
1000
0001
1000
0001
,
0100
0000
0000
0000
0110
0000
0000
2000
,
0000
0000
0000
0000
3000
0000
0001
0100
0002
0000
0000
0000
0000
0000
0003
0000
,
0110
0000
0000
0000
1000
0001
1000
0001
2000
0000
0000
0000
0000
0000
0000
0000
,
3020
0000
0130
0001
,
1001
0000
0000
0000
0100
0001
0100
0001
0100
0000
0000
0001
0000
0000
0100
0000
,
0001
0000
0000
1000
0000
0000
0001
0000
0100
0010
0100
0000
0000
0000
0000
0000
,
0202
0000
0000
0000
0000
0000
0000
0303
,
0200
0000
0000
0300
0020
0000
0000
0030
,
0001
0000
0100
0000
0000
0000
0000
0000
0110
0000
0000
1100
0000
0000
0102
0000
,
0000
0000
0000
0000
0003
0000
0100
0001
0100
0000
0000
0000
0000
0000
0000
0000
,
0010
0000
0100
0000
0010
1000
0010
1000
0010
0000
0000
0000
0100
0000
0000
0000
,
0001
0000
0010
0001
,
0100
0000
0000
0000
0001
0100
0001
0100
0010
0000
0000
0100
0000
0000
0010
0000
,
0100
0000
0000
0001
0000
0000
1000
0000
0010
0100
0010
0100
0020
0000
0030
0000
,
0100
0000
0000
0000
0000
0000
1000
0100
1000
0100
1000
0100
1000
0100
1000
0100
,
1000
0000
0000
0000
0000
0000
0000
0000
0000
0000
0000
0000
0000
0000
0000
0000
0010
0000
0000
0000
0000
0000
0000
0000
0000
0000
0000
0000
0000
0000
0000
0000
1000
0000
0000
0000
0000
0000
0000
0000
0000
0000
0000
0000
0000
0000
0000
0000
0010
0000
0000
0000
0000
0000
0000
0000
0000
0000
0000
0000
0000
0000
0000
0000
1000
0000
0000
0000
0000
0000
0000
0000
0000
0000
0000
0000
0000
0000
0000
0000
0100
0000
0000
0000
0000
0000
0000
0000
0000
0000
0000
0000
0000
0000
0000
0000
0010
0000
0000
0000
0000
0000
0000
0000
0000
0000
0000
0000
0000
0000
0000
0000
0000
0000
0001
0000
0000
0000
0000
0000
0000
0000
0000
0000
0000
0000
0000
0000
0000
0000
0000
0000
0100
0000
0000
0000
0000
0000
0000
0000
0000
0000
0000
0000
0000
0000
0000
0000
0000
0000
0001
0000
0000
0000
0000
0000
0000
0000
0000
0000
0000
0000
0000
0000
0000
0000
0000
0000
0000
0000
0000
0000
0000
0000
0100
0000
0000
0000
0000
0000
0000
0000
0000
0000
0000
0000
0000
0000
0000
0000
0000
0000
,
0000
0000
0000
0000
0000
0000
0001
0000
0000
0000
0000
0000
0000
0000
0000
0000
0000
0000
0000
0000
0000
0000
0000
0000
0000
0000
0000
0000
0000
0000
0000
0000
1000
0000
0000
0000
0000
0000
0000
0000
0000
0000
0000
0000
0000
0000
0000
0000
0000
0000
0000
0000
0000
0000
0000
0000
0000
0000
0000
0000
0000
0000
0000
0000
0001
0000
0000
0000
0000
0000
0000
0000
0000
0000
0000
0000
0000
0000
0000
0000
0000
0000
0000
0000
0000
0000
0000
0000
0000
0000
0000
0000
0000
0000
0000
0000
0000
0000
0000
0000
0000
0000
0000
0000
0000
0000
0000
0000
0000
0000
0000
0000
0010
0000
0000
0000
0000
0000
0000
0000
0000
0000
0000
0000
0000
0000
0000
0000
0000
0000
0000
0000
0000
0000
0000
0000
0000
0000
0000
0000
0000
0000
0000
0000
0000
0000
0000
0000
0000
0000
0000
0000
0000
0000
0000
0000
0000
0000
0000
0000
0000
0000
0000
0000
0000
0000
0000
0000
0000
0000
0000
0000
0000
0000
0000
0000
0000
0000
0000
0000
0000
0000
0000
0000
0000
0000
0000
0000
0000
0000
0000
0000
,
0200
0000
0300
0002
,
1003
0000
0000
0000
;
