#VERSION:0.83;
#TITLE:Touch My Hand;
#SUBTITLE:;
#ARTIST:David Archuleta;
#TITLETRANSLIT:;
#SUBTITLETRANSLIT:;
#ARTISTTRANSLIT:;
#GENRE:;
#ORIGIN:;
#CREDIT:;
#BANNER:;
#BACKGROUND:;
#PREVIEWVID:;
#JACKET:;
#CDIMAGE:;
#DISCIMAGE:;
#LYRICSPATH:;
#CDTITLE:;
#MUSIC:David Archuleta - Touch My Hand.ogg;
#OFFSET:-0.381000;
#SAMPLESTART:77.639999;
#SAMPLELENGTH:16.000000;
#SELECTABLE:YES;
#BPMS:0.000=109.010;
#STOPS:;
#DELAYS:;
#WARPS:;
#TIMESIGNATURES:0.000=4=4;
#TICKCOUNTS:0.000=4;
#COMBOS:0.000=1;
#SPEEDS:0.000=1.000=0.000=0;
#SCROLLS:0.000=1.000;
#FAKES:;
#LABELS:0.000=Song Start;
#BGCHANGES:;
#KEYSOUNDS:;
#ATTACKS:
;

//---------------dance-single - ----------------
#NOTEDATA:;
#CHARTNAME:;
#STEPSTYPE:dance-single;
#DESCRIPTION:;
#CHARTSTYLE:;
#DIFFICULTY:Beginner;
#METER:1;
#RADARVALUES:0.062669,0.110862,0.028610,0.085829,0.000000,46.000000,43.000000,3.000000,9.000000,0.000000,0.000000,0.000000,0.000000,0.000000,0.062669,0.110862,0.028610,0.085829,0.000000,46.000000,43.000000,3.000000,9.000000,0.000000,0.000000,0.000000,0.000000,0.000000;
#CREDIT:;
#NOTES:
0000
0000
0000
0000
,
0000
0000
0000
0000
,
0000
0000
0000
0000
,
0000
0000
0000
0000
,
1000
0000
0000
0000
,
0100
0000
0000
0000
,
0010
0000
0000
0000
,
0001
0000
0000
0000
,
1000
0000
0000
0000
,
0001
0000
0000
0000
,
0010
0000
0000
0000
,
0100
0000
0000
0000
,
1000
0000
0000
0000
,
1000
0000
0000
0000
,
0001
0000
0000
0000
,
0001
0000
0000
0000
,
1000
0000
0000
0000
,
0001
0000
0000
0000
,
0010
0000
0000
0000
,
0100
0000
0000
0000
,
2000
0000
0000
0000
,
3000
0000
0000
0000
,
0002
0000
0000
0000
,
0003
0000
0000
0000
,
0200
0000
0000
0000
,
0300
0000
0000
0000
,
0020
0000
0000
0000
,
0030
0000
0000
0000
,
0110
0000
0000
0000
,
1001
0000
0000
0000
,
0200
0000
0000
0000
,
0300
0000
0000
0000
,
2000
0000
0000
3000
,
0002
0000
0000
0003
,
0200
0000
0000
0300
,
0000
0000
0010
0000
,
0010
0000
0010
0000
,
0010
0000
0000
0000
,
1001
0000
0000
0000
,
1000
0000
1000
0000
,
1000
0000
0000
0000
,
0020
0000
0000
0030
,
0100
0000
0000
0000
,
0100
0000
0100
0000
,
0100
0000
0000
0000
,
0010
0000
0010
0000
,
0010
0000
0010
0000
;

//---------------dance-single - ----------------
#NOTEDATA:;
#CHARTNAME:;
#STEPSTYPE:dance-single;
#DESCRIPTION:;
#CHARTSTYLE:;
#DIFFICULTY:Easy;
#METER:3;
#RADARVALUES:0.159396,0.179287,0.000000,0.190730,0.000000,117.000000,117.000000,0.000000,20.000000,0.000000,0.000000,0.000000,0.000000,0.000000,0.159396,0.179287,0.000000,0.190730,0.000000,117.000000,117.000000,0.000000,20.000000,0.000000,0.000000,0.000000,0.000000,0.000000;
#CREDIT:;
#NOTES:
0000
0000
0000
0000
,
0000
0000
0000
0000
,
0100
0000
0100
0000
,
0010
0000
0010
0000
,
0100
0100
0100
0000
,
0010
0010
0010
0000
,
1000
1000
1000
0000
,
0002
0000
0003
0000
,
0100
0100
0020
0000
,
0130
0010
0200
0300
,
0010
0000
0010
0000
,
0002
0000
1003
0000
,
0100
0100
0020
0000
,
1030
0000
0001
0000
,
1000
0000
0002
0000
,
0023
0000
0130
0000
,
1000
1000
1000
0000
,
0001
0001
0001
0000
,
0200
0000
0320
0000
,
1030
0000
0001
0000
,
1000
0100
0001
0000
,
1000
0000
0002
0000
,
0103
0100
0010
0010
,
2000
3000
0000
0001
,
0010
1000
0000
0001
,
0100
0000
0020
0000
,
0130
0000
0010
0000
,
0100
0100
0010
0000
,
0200
0302
0003
1000
,
0010
0100
0001
1000
,
1000
0000
0001
0000
,
0010
0010
0100
1000
,
0002
0003
0200
0300
,
0001
0001
1000
0002
,
0003
0100
0000
0010
,
0000
0100
0100
0100
,
0010
1000
0000
0001
,
0010
0100
0000
1000
,
0002
0003
0100
0000
,
0010
0010
0010
1000
,
0002
0000
0203
0000
,
0301
0000
0010
0000
,
0100
0000
1000
1000
,
0001
0000
0010
0100
,
0010
0000
0001
0000
,
1000
0000
0010
0000
,
0100
0000
0010
0000
,
0100
0000
0000
0000
;

//---------------dance-single - ----------------
#NOTEDATA:;
#CHARTNAME:;
#STEPSTYPE:dance-single;
#DESCRIPTION:;
#CHARTSTYLE:;
#DIFFICULTY:Medium;
#METER:5;
#RADARVALUES:0.267023,0.313752,0.228877,0.238413,0.000000,196.000000,172.000000,24.000000,25.000000,0.000000,0.000000,0.000000,0.000000,0.000000,0.267023,0.313752,0.228877,0.238413,0.000000,196.000000,172.000000,24.000000,25.000000,0.000000,0.000000,0.000000,0.000000,0.000000;
#CREDIT:;
#NOTES:
0000
0000
0000
0000
,
0000
0000
0000
0000
,
0100
0100
0010
0010
,
0100
0001
0001
1000
,
0001
1000
0200
0320
,
0031
0200
0320
1030
,
0001
0100
0020
0230
,
0302
1003
0100
1000
,
0100
0010
0002
1000
,
1003
0010
0100
0001
,
0010
0010
0001
0001
,
1000
1000
0010
0010
,
0100
0101
0001
1001
,
0010
1010
0001
1010
,
0100
0101
0010
0001
,
0010
0001
1000
0100
,
0001
0100
1000
0010
,
0200
0320
0130
0100
,
0101
0010
0010
0100
,
2002
3003
0010
0100
,
0001
0000
1000
0100
1000
0000
0001
0000
,
0001
0000
0200
0300
,
0010
0010
0101
0011
,
1000
0000
0001
0000
,
1100
1100
0100
0001
,
0100
0000
0020
0030
,
0100
0000
0001
0010
0001
0000
1000
0000
,
1000
0110
0110
1001
,
1002
1000
1003
0010
,
0100
0002
0023
0230
,
2300
0001
3001
0100
,
0010
0000
1000
0001
1000
0000
0001
0000
,
0002
0000
0000
0200
0003
0000
0320
0000
,
1030
1000
0001
0001
,
1001
0010
0100
0010
,
1001
1001
0010
0100
,
0001
0011
0001
1001
,
0010
0100
0001
1000
,
1001
1001
0001
0011
,
0001
1000
0100
0010
,
0002
0000
0000
0200
0003
0000
0320
0000
,
1030
0010
0100
0001
,
0100
0010
0000
0010
,
0100
0010
0100
0000
,
1001
0010
0010
0010
,
0010
0100
0010
0100
,
0100
0100
0000
0100
,
0010
0000
0000
0000
;

//---------------dance-single - ----------------
#NOTEDATA:;
#CHARTNAME:;
#STEPSTYPE:dance-single;
#DESCRIPTION:;
#CHARTSTYLE:;
#DIFFICULTY:Hard;
#METER:6;
#RADARVALUES:0.358301,0.380984,0.133511,0.362388,0.004768,263.000000,249.000000,14.000000,38.000000,0.000000,0.000000,0.000000,0.000000,0.000000,0.358301,0.380984,0.133511,0.362388,0.004768,263.000000,249.000000,14.000000,38.000000,0.000000,0.000000,0.000000,0.000000,0.000000;
#CREDIT:;
#NOTES:
// measure 0
0000
0000
0000
0000
,  // measure 1
0000
0000
0000
0000
,  // measure 2
0110
0000
0110
0000
1000
0000
0001
0010
,  // measure 3
0100
0000
1000
0100
1000
0000
0001
0100
,  // measure 4
0001
0000
0010
0001
0002
0000
1003
0020
,  // measure 5
0000
0230
0000
0000
0301
0000
0001
1000
,  // measure 6
0001
0000
0100
0010
0200
0000
0301
2000
,  // measure 7
0000
0000
3001
0100
0010
0100
0001
0000
,  // measure 8
1000
0000
0010
0100
0020
0000
0030
0100
,  // measure 9
0010
0100
0010
0200
0000
0300
0001
0000
,  // measure 10
1000
0100
1000
0001
0010
0001
0100
0020
,  // measure 11
0000
0000
0100
0000
0130
0000
0001
1000
,  // measure 12
0001
0000
0100
0010
0200
0000
0301
2000
,  // measure 13
0000
3020
0000
0030
0100
0000
0001
0010
,  // measure 14
0001
0000
1000
0100
0020
0000
0031
0200
,  // measure 15
0000
0000
0001
0000
0301
0010
0001
0000
,  // measure 16
0100
0000
0001
0100
0010
0000
0100
0010
,  // measure 17
1000
0001
1000
0020
0000
0000
0130
0000
,  // measure 18
0001
0000
1000
0000
0020
0000
0230
0000
0302
0000
0000
1000
0003
0000
0020
0000
,  // measure 19
0000
0000
0130
0100
0100
0000
0010
0010
,  // measure 20
0010
0000
1000
1000
1000
0000
0001
0010
,  // measure 21
0001
0000
0100
0000
0002
0000
0000
0103
,  // measure 22
0010
0000
0100
0001
0010
0000
0001
0100
,  // measure 23
0010
1010
0101
0011
,  // measure 24
0002
0000
1003
0010
0200
0000
0301
0100
,  // measure 25
0010
0000
0010
0000
0200
0000
0310
0100
,  // measure 26
0010
0000
1000
0001
0100
0000
0001
0010
,  // measure 27
0100
0000
1000
0100
0010
0000
0001
0100
,  // measure 28
0101
0000
1001
0000
0110
0000
0100
0010
,  // measure 29
0100
0001
0010
0001
1000
0100
2000
3002
,  // measure 30
0000
0003
0100
0010
1000
0100
0010
0001
,  // measure 31
0100
0010
0100
0001
0010
0000
0100
1000
,  // measure 32
0200
0000
0310
0002
0000
1003
0010
0100
,  // measure 33
0010
0010
0100
0100
0001
1000
0200
0000
,  // measure 34
0300
0000
1010
0000
0101
0000
0001
0010
,  // measure 35
0100
1000
0001
0010
0002
0003
0100
0010
,  // measure 36
0200
0000
0301
0000
0001
1000
0010
0010
,  // measure 37
1000
0001
0100
0100
0002
0003
1000
0010
,  // measure 38
0200
0000
0301
0000
0101
0000
0010
0001
,  // measure 39
0010
0100
1000
0100
0020
0000
0130
0000
,  // measure 40
1002
0000
1003
0200
0000
0300
1000
0001
,  // measure 41
0010
0001
0100
0001
0010
0000
0001
2000
,  // measure 42
0000
0000
3010
0000
0110
0000
1000
0001
,  // measure 43
0010
0001
0100
0010
0100
0000
0000
0220
,  // measure 44
0000
0000
0330
0000
0001
0000
0000
1000
,  // measure 45
0010
0100
0001
1000
0100
0000
0001
0200
,  // measure 46
0000
0010
0310
0100
,  // measure 47
0100
0000
0000
0000
;
