#TITLE:Together;
#SUBTITLE:;
#ARTIST:Marques Houston;
#TITLETRANSLIT:;
#SUBTITLETRANSLIT:;
#ARTISTTRANSLIT:;
#GENRE:;
#CREDIT:;
#BANNER:;
#BACKGROUND:;
#LYRICSPATH:;
#CDTITLE:;
#MUSIC:Marques Houston -Together.ogg;
#OFFSET:-0.047000;
#SAMPLESTART:9.000000;
#SAMPLELENGTH:12.600000;
#SELECTABLE:YES;
#BPMS:0.000000=160.000000
;
#STOPS:
;
#BGCHANGES:;
#KEYSOUNDS:;
#ATTACKS:;

//---------------dance-single - ----------------
#NOTES:
     dance-single:
     :
     Easy:
     2:
     0.174607,0.179596,0.049888,0.024944,0.000000,98.000000,94.000000,4.000000,2.000000,0.000000,0.000000,0.174607,0.179596,0.049888,0.024944,0.000000,98.000000,94.000000,4.000000,2.000000,0.000000,0.000000:
1000
0000
0001
0100
,
0000
0000
0010
0000
,
0100
0001
0000
0000
,
1000
0000
0001
1000
,
0000
0000
0010
0000
,
0100
0010
0000
0000
,
0110
0000
0100
0010
,
0000
0000
0001
0000
,
0010
1000
0000
0000
,
0001
0000
0100
0010
,
0000
0000
1000
0000
,
0010
0001
0000
0000
,
1000
0000
0000
0001
,
0000
0000
0100
0000
,
0000
0010
0000
0000
,
0100
0000
0010
0100
,
0000
0000
0001
0000
,
1000
1000
0000
0000
,
1001
0000
0100
0010
,
0000
0000
0010
1000
,
0000
0010
0000
0000
,
0100
0001
0000
1000
,
0000
0000
0010
0010
,
0000
1000
0000
0000
,
0001
0000
0010
0100
,
0000
0010
1000
0000
,
0001
0001
0000
0000
,
1000
0000
0010
0100
,
0000
0001
1000
0000
,
0010
0100
0000
0100
,
0002
0000
0000
1000
,
0003
0000
1000
0000
,
0010
0100
0000
0000
,
0010
1000
0000
0001
,
0000
0000
1000
0010
,
0000
0010
0000
0000
,
1000
0000
0001
1000
,
0000
0010
0100
0000
,
0001
0001
0000
0000
,
1000
0000
0010
0010
,
0000
0000
0100
0000
,
0001
0001
0000
0000
,
2000
0000
3000
0001
,
0000
0000
0001
0000
,
0000
1000
0000
0000
,
0010
0000
0000
0100
,
0000
0000
0010
0000
,
0000
1010
0000
0000
,
1100
0000
0000
0000
;

//---------------dance-single - ----------------
#NOTES:
     dance-single:
     :
     Medium:
     5:
     0.336742,0.359192,0.212023,0.236967,0.000000,189.000000,172.000000,17.000000,19.000000,0.000000,0.000000,0.336742,0.359192,0.212023,0.236967,0.000000,189.000000,172.000000,17.000000,19.000000,0.000000,0.000000:
// measure 0
1000
0010
0100
0101
,  // measure 1
0000
1000
0001
0010
,  // measure 2
0100
1001
0000
0000
,  // measure 3
0100
0010
0100
0011
,  // measure 4
0001
0001
1000
0010
,  // measure 5
0100
1000
0000
0000
,  // measure 6
0010
0001
0010
0000
0100
0000
0100
0000
,  // measure 7
0001
0000
1000
1000
,  // measure 8
0001
0001
0100
0000
,  // measure 9
0010
0100
0010
0000
0010
0000
0100
0010
,  // measure 10
0100
0000
0001
0000
1000
0001
1000
0000
,  // measure 11
1000
0010
0010
0000
0100
0000
0010
0000
,  // measure 12
0020
0230
0302
2003
,  // measure 13
3020
0230
0301
0001
,  // measure 14
1000
0001
0220
0330
,  // measure 15
0100
0010
0010
1010
,  // measure 16
0100
0100
0001
1000
,  // measure 17
0001
2000
3000
0010
,  // measure 18
0100
0010
0100
0010
,  // measure 19
0000
0010
0100
1000
,  // measure 20
0100
0002
0003
1000
,  // measure 21
0010
1000
0100
0020
,  // measure 22
0030
0000
0100
0010
,  // measure 23
0100
0020
0000
0030
,  // measure 24
0110
0010
0100
0011
,  // measure 25
0001
1000
0000
0001
,  // measure 26
0010
0100
0001
0100
,  // measure 27
0110
1000
0002
0003
,  // measure 28
1000
0001
0100
0100
,  // measure 29
0010
1001
0100
0101
,  // measure 30
0202
0000
0303
0002
,  // measure 31
1000
1003
2000
0001
,  // measure 32
3001
0020
0100
0130
,  // measure 33
0001
0010
0001
0000
1000
0000
0010
0000
,  // measure 34
0100
0000
0010
0000
0010
0100
0010
0000
,  // measure 35
0001
1000
1010
0000
,  // measure 36
0010
0100
0010
0000
0100
0001
0100
0000
,  // measure 37
0010
0000
0100
0010
,  // measure 38
0001
1000
1001
0000
,  // measure 39
0001
1000
0001
0000
0100
0000
0010
0100
,  // measure 40
0010
0000
0010
0000
0100
0001
1000
0000
,  // measure 41
1000
0001
0001
0000
,  // measure 42
0200
0000
0300
0010
,  // measure 43
0000
0000
0101
0010
,  // measure 44
0010
1001
0000
0000
,  // measure 45
0001
0001
1000
0110
,  // measure 46
0000
0000
1000
0001
,  // measure 47
0010
0100
0000
0000
,  // measure 48
1001
0000
0000
0000
;

//---------------dance-single - ----------------
#NOTES:
     dance-single:
     :
     Hard:
     8:
     0.443645,0.508855,0.224495,0.286855,0.143427,249.000000,231.000000,18.000000,23.000000,0.000000,0.000000,0.443645,0.508855,0.224495,0.286855,0.143427,249.000000,231.000000,18.000000,23.000000,0.000000,0.000000:
1000
1000
0001
0000
0001
0000
0101
0000
,
0000
0000
0000
0000
1000
0001
0100
0000
,
0010
0000
0000
0000
0110
0000
0000
0000
0000
0000
0000
0000
0000
0000
0000
0100
,
0010
0000
0100
0000
0000
0000
0000
0010
0100
0000
0000
0010
0100
0000
0000
0000
,
0101
0000
0000
0000
0001
0000
0000
0000
1000
0000
0010
0000
0000
0000
0000
0001
,
0100
1010
0000
0000
,
0010
0100
0010
0000
0100
0000
0001
0000
,
0100
0000
0000
0000
0000
0000
0000
1000
0001
0000
0000
0000
0010
0000
0000
0000
,
0100
0000
0000
0000
1000
0000
0000
0000
0001
0000
0000
0000
0000
0000
0000
0100
,
0010
0100
0020
0030
1000
0001
0100
0001
,
0100
0000
0010
0000
0010
1000
0010
1000
,
0001
0001
0010
0100
1000
0000
0001
0000
,
0002
0203
0302
0013
,
0100
0000
0000
0000
1000
0000
0000
1000
0001
0000
0000
0000
1000
0000
0000
0000
,
0100
0010
0002
0003
,
1000
0000
0000
0000
0010
0000
0000
0100
0010
0000
0000
0100
0001
0000
0000
0000
,
0001
0001
1010
0100
,
0010
0022
0000
0033
,
1000
0010
0200
0300
0010
0000
0100
0001
,
0010
0001
1001
0100
,
0010
0220
0330
1000
,
0100
0100
0001
1000
0020
0030
0220
0000
,
0330
0001
1000
0010
,
0100
0000
0200
0000
0000
0000
0301
0100
,
0001
1000
0010
0101
,
0010
0000
0000
0000
1000
0000
0000
1000
0010
0000
0000
0000
0100
0000
0000
0000
,
0001
0000
0100
0000
0001
0000
0000
0000
0001
0000
0000
0000
1000
0000
0000
1000
,
0001
0100
0010
0000
0100
0000
0002
0000
,
2003
0000
3020
0000
0130
0010
0100
0000
,
0101
1010
0110
0201
,
0302
0000
0103
0001
0100
0010
0100
0100
,
0010
0100
0010
1000
0002
1000
1003
0001
,
1000
0001
0100
0010
0100
0001
0001
0000
,
0010
0100
0010
0000
1000
0000
1001
0000
,
0020
0000
0030
0000
0000
0000
0000
0000
0100
0000
0000
0100
0010
0000
0000
0000
,
0010
0000
0000
1000
0001
0000
0000
0000
0110
0000
0000
0000
0010
0000
0000
0000
,
1000
0001
1000
0001
0010
0100
0010
0000
,
0010
0000
0000
0000
0000
0000
0000
0010
1000
0000
0010
0000
0000
0000
0000
0000
,
0100
0000
0010
0000
0100
0000
0001
0000
0002
0000
0000
0000
0003
0000
0000
0001
,
1000
0010
0100
0000
0010
0100
0010
0000
,
0100
0000
0101
0000
0010
1000
1000
0000
,
0100
0000
0000
0100
0001
0000
0000
0000
0001
0000
0000
0000
0001
0000
0000
0000
,
0002
0000
0003
1000
,
0000
0000
0000
0000
0000
0000
0000
0100
0010
0000
1000
0000
0001
0000
0000
0000
,
0001
0000
0000
0000
0100
0000
0000
0000
0000
0000
0000
0000
0000
0000
0000
0010
,
0100
0000
0010
0000
0000
0000
0000
0100
0010
0000
0000
0100
0001
0000
0000
0000
,
1000
0000
0000
0000
1000
0000
0000
0001
0010
0000
0001
0000
0000
0000
0000
1000
,
0001
0000
0000
0100
0010
0000
0000
0000
0100
0000
0000
0000
0010
0000
0000
0000
,
1001
0000
0000
0000
;
