#TITLE:Taste of Dispear;
#SUBTITLE:;
#ARTIST:Haan808;
#TITLETRANSLIT:;
#SUBTITLETRANSLIT:;
#ARTISTTRANSLIT:;
#GENRE:;
#CREDIT:;
#BANNER:Haan808 - Taste of Dispear.png;
#BACKGROUND:;
#LYRICSPATH:;
#CDTITLE:;
#MUSIC:Haan808 - Taste of Dispear.mp3;
#OFFSET:-0.073000;
#SAMPLESTART:52.000000;
#SAMPLELENGTH:13.000000;
#SELECTABLE:YES;
#DISPLAYBPM:130.000000;
#BPMS:0.000000=130.203995
,176.000000=150.203995
,178.000000=130.203995
;
#STOPS:
;
#BGCHANGES:;
#KEYSOUNDS:;
#ATTACKS:;

//---------------dance-single - ----------------
#NOTES:
     dance-single:
     :
     Easy:
     2:
     0.136794,0.158465,0.072857,0.187348,0.000000,92.000000,85.000000,7.000000,18.000000,0.000000,0.000000,0.136794,0.158465,0.072857,0.187348,0.000000,92.000000,85.000000,7.000000,18.000000,0.000000,0.000000:
0100
0000
0000
0000
,
0010
0000
0000
0000
,
1000
0000
0000
0000
,
0010
0000
0000
0000
,
0100
0000
0100
0000
,
0010
0000
0010
0000
,
1000
0000
1000
0000
,
0001
0000
0100
0000
,
0001
0000
0001
0000
,
1000
0000
0010
0000
,
0100
0000
0010
0000
,
0000
0000
0000
0000
,
0110
0000
0010
0000
,
1000
0000
0001
0000
,
0010
0000
0100
0000
,
0010
0000
0010
0000
,
0100
0000
0000
0000
,
0010
0000
0000
0000
,
1000
0000
0001
0000
,
1000
0000
0010
0000
,
0110
0000
0100
0000
,
0020
0000
0130
0000
,
1000
0000
0001
0000
,
0200
0000
0301
0000
,
0010
0000
0010
0000
,
1000
0000
1000
0000
,
0010
0000
0001
0000
,
2000
0000
3001
0000
,
0100
0000
0010
0000
,
0200
0000
0310
0000
,
0001
0000
1000
0000
,
0020
0000
1030
0000
,
0001
0000
0001
0000
,
1000
0000
0010
0000
,
0100
0000
0001
0000
,
0010
0000
0000
0000
,
2020
0000
3030
0000
,
0101
0000
0010
0000
,
0001
0000
0001
0000
,
2000
0000
3001
0000
,
0010
0000
0100
0000
,
0110
0000
0100
0000
,
0001
0000
1000
0000
,
0020
0000
1030
0000
,
0200
0000
0000
0000
,
0000
0302
0000
0000
0000
0000
0000
0000
,
0003
2000
0000
0000
0000
0000
0000
0000
,
3000
2002
0000
0000
0000
0000
3003
0000
,
0000
0020
0000
0000
0000
0000
0030
0000
,
0000
0200
0000
0000
0000
0000
0300
0000
,
0000
2002
0000
0000
0000
0000
3003
0000
;

//---------------dance-single - ----------------
#NOTES:
     dance-single:
     :
     Medium:
     5:
     0.269127,0.371573,0.083266,0.281022,0.000000,181.000000,173.000000,8.000000,27.000000,0.000000,0.000000,0.269127,0.371573,0.083266,0.281022,0.000000,181.000000,173.000000,8.000000,27.000000,0.000000,0.000000:
// measure 0
1000
1000
1000
1000
1000
0000
0000
0000
,  // measure 1
0001
0001
0001
0001
0001
0000
0000
0000
,  // measure 2
0100
0010
0100
0010
0100
0000
0000
0000
,  // measure 3
0010
0100
0010
0100
0010
0000
0000
0000
,  // measure 4
2000
0000
3001
0000
,  // measure 5
0100
0001
0100
0001
0100
0000
0000
0000
,  // measure 6
0001
0100
0001
0100
0001
0000
0000
0000
,  // measure 7
1000
0001
1000
0001
1000
0000
0000
0000
,  // measure 8
0020
0000
0130
0000
,  // measure 9
0100
0010
0010
0010
0100
0000
0000
0000
,  // measure 10
0100
0001
0001
0100
0100
0000
0000
0000
,  // measure 11
0000
0000
0200
0300
,  // measure 12
0001
0100
0001
0000
0100
0000
0010
0000
,  // measure 13
1000
0001
1000
0000
0010
0000
0100
0000
,  // measure 14
0010
0100
0010
0000
0100
0000
0001
1000
,  // measure 15
0001
0001
0001
0000
0100
0000
0000
0000
,  // measure 16
0010
0100
0010
0000
1000
0000
0001
0000
,  // measure 17
0100
0001
0100
0000
0010
0000
1000
0000
,  // measure 18
0100
0010
0100
0000
1001
0000
0000
0000
,  // measure 19
0001
0001
0001
0000
1000
0000
0000
0000
,  // measure 20
0020
0030
0200
0300
,  // measure 21
2002
3003
0100
0010
,  // measure 22
0020
0030
2000
3000
,  // measure 23
0002
0000
0103
0000
,  // measure 24
0110
0000
0000
0000
1000
0000
0001
1000
,  // measure 25
0001
0000
0100
0000
,  // measure 26
0020
0030
0200
0300
,  // measure 27
0002
0000
1003
0000
,  // measure 28
0100
0010
0001
0000
,  // measure 29
2002
0000
3003
0000
0010
0000
0100
0010
,  // measure 30
0100
0000
0000
0000
0001
0000
1000
1000
,  // measure 31
0020
0000
1030
0000
,  // measure 32
0020
0000
0030
0000
1000
0000
0010
0100
,  // measure 33
0001
0000
0000
0000
1000
0000
1000
0001
,  // measure 34
1000
0000
0000
0000
0010
0000
0100
0010
,  // measure 35
0100
0000
0000
0000
,  // measure 36
1001
0000
0100
0010
0001
0000
0010
0100
,  // measure 37
1000
0000
0010
0010
0010
0000
1000
0001
,  // measure 38
1000
0000
0000
0000
0110
0000
1000
1000
,  // measure 39
2000
0000
3001
0000
,  // measure 40
0100
0000
0001
0010
0001
0000
1000
0010
,  // measure 41
1000
0000
0000
0000
0011
0000
0100
0010
,  // measure 42
0100
0000
0001
1000
,  // measure 43
0020
0000
1030
0000
,  // measure 44
0220
0000
0000
0000
,  // measure 45
0330
0002
0000
0000
0000
0000
0000
0000
,  // measure 46
0000
2003
0000
0000
0000
0000
0000
0000
,  // measure 47
0000
3002
0000
0000
0000
0000
0000
0000
,  // measure 48
0000
0203
0000
0000
0000
0000
0000
0000
,  // measure 49
0300
0002
0000
0000
0000
0000
0000
0000
,  // measure 50
0003
2000
0000
0000
0000
0000
0000
0000
,  // measure 51
3000
0000
0000
0000
;

//---------------dance-single - ----------------
#NOTES:
     dance-single:
     :
     Hard:
     9:
     0.486212,0.690064,0.093674,0.135307,0.265409,327.000000,318.000000,9.000000,13.000000,0.000000,0.000000,0.486212,0.690064,0.093674,0.135307,0.265409,327.000000,318.000000,9.000000,13.000000,0.000000,0.000000:
1000
0001
1000
0001
0100
0000
0000
0000
,
0010
1000
0010
1000
0100
0000
0000
0000
,
0010
0001
0010
0001
0100
0000
0000
0000
,
0100
0001
0010
0001
0010
0000
0000
0000
,
1000
0001
0100
0001
0100
0000
0000
0000
,
0010
0000
1000
0000
0010
0000
1000
0000
0010
0000
0000
0000
0000
0000
0000
0100
,
0010
0100
0010
0100
0010
0000
0010
0000
,
0100
0001
0001
0100
0001
0000
0000
0000
,
1000
0001
0001
1000
0001
0000
0000
0000
,
0010
0100
0010
0010
0010
0000
0000
0000
,
0100
0100
0001
0001
0001
0000
0000
0000
,
0000
0000
0200
0300
,
0011
0000
0001
0000
0010
0000
0001
0010
0001
0000
0000
0000
0001
0000
0000
0000
,
1000
0000
0010
0000
1000
0000
0010
0000
1000
0000
0000
0000
0010
0100
0010
0000
,
0100
0000
0010
0000
0100
0000
0001
0010
0100
0000
0000
0000
0001
0000
0001
0000
,
1000
0010
1000
0100
0001
0000
0000
1000
,
1001
0000
0100
0000
0010
0000
0100
0001
0001
0000
0000
0000
1000
0000
0000
0000
,
0010
0000
0010
0000
1000
0000
1000
0000
1000
0000
0000
0000
0001
0100
0001
0000
,
0100
0100
0100
0010
0010
0000
0000
0000
,
1010
1000
0010
0001
0010
0000
0000
0000
,
0101
0000
0001
0100
0001
0000
0001
0000
0100
0000
0000
0000
0010
0000
0000
0000
,
2000
0000
0001
0000
0001
0000
0001
0000
3001
0000
0000
0000
0100
0010
0100
0000
,
0001
0000
0001
0000
0001
0000
1000
0000
1000
0000
0000
0000
0010
0000
0100
0001
,
0200
0001
0001
0001
0301
0000
0000
0100
,
0010
0000
1000
0000
0001
0000
1000
1000
0010
0000
0000
0000
0100
0000
0001
0100
,
0002
1000
0100
1000
0103
0000
0001
0100
,
0001
0000
1000
0010
1000
0000
0001
0000
0001
0000
0000
0000
0000
0000
0000
0000
,
0020
1000
1000
1000
0130
0000
0000
0000
,
0110
0000
0000
0000
0100
0000
0010
0000
0100
0000
0000
0000
0010
0000
1000
0010
,
0100
0000
0001
0000
0001
0000
1000
0000
1000
0000
0000
0000
0010
0100
0010
0000
,
1000
0000
0001
0000
0010
0000
0001
0100
0001
0000
0000
0000
0110
0000
0100
0010
,
0010
1000
1000
1000
1000
0000
0000
0010
,
0001
0000
1000
0010
1000
0000
0001
0010
0001
0000
0000
0000
0100
0000
0000
0100
,
0010
0000
0100
0000
0010
0000
0010
0000
0100
0000
0000
0000
0001
0010
0001
0000
,
1000
0000
0001
0000
0001
0000
0001
0000
1000
0000
0000
0000
0000
0000
0100
0010
,
0000
0000
0000
0000
,
1001
0000
1000
0000
1000
0001
0000
0100
0010
0000
0100
0010
0000
0000
0001
0001
,
1000
0000
1000
0000
1000
0001
0000
0100
0010
0000
0100
0010
0100
0000
0010
0100
,
0010
0000
0010
0000
1000
0010
0000
1000
0001
0000
1000
0010
0000
0100
0010
0100
,
0010
0000
1000
0000
0001
0001
0000
1000
0010
0000
1000
0010
0000
0100
0001
0100
,
0001
0000
1000
0000
0010
0000
0100
0000
0020
0000
0000
0000
0130
0001
0100
0001
,
0100
0000
0010
0000
0010
0000
1000
0001
1000
0000
0010
0000
0010
0100
0010
0000
,
1000
0001
1000
0000
0001
0000
0010
0000
0110
0000
0001
0100
0001
0100
0001
0000
,
0110
0000
1000
0000
1000
0010
0000
1000
0010
0000
0100
0001
0100
0010
0100
0010
,
0200
0000
0000
0000
,
0300
0002
0000
0000
0000
0000
0000
0000
,
0000
2003
0000
0000
0000
0000
0000
0000
,
0000
3020
0000
0000
0000
0000
0000
0000
,
0000
0230
0000
0001
0000
0000
0000
0001
,
0000
0320
0000
1000
0000
0000
0000
1000
,
0000
0230
0000
0000
0000
0000
0000
0000
,
0300
0000
0000
0000
;
