#TITLE:Still in Love;
#SUBTITLE:;
#ARTIST:Jason Chen;
#TITLETRANSLIT:;
#SUBTITLETRANSLIT:;
#ARTISTTRANSLIT:;
#GENRE:;
#CREDIT:;
#BANNER:Jason Chen - Still in Love.jpg;
#BACKGROUND:;
#LYRICSPATH:;
#CDTITLE:;
#MUSIC:Jason Chen - Still in Love.mp3;
#OFFSET:-0.054000;
#SAMPLESTART:53.000000;
#SAMPLELENGTH:13.000000;
#SELECTABLE:YES;
#BPMS:0.000000=144.985992
;
#STOPS:
;
#BGCHANGES:;
#KEYSOUNDS:;
#ATTACKS:;

//---------------dance-single - ----------------
#NOTES:
     dance-single:
     :
     Easy:
     2:
     0.127214,0.167711,0.059367,0.059367,0.000000,90.000000,84.000000,6.000000,6.000000,0.000000,0.000000,0.127214,0.167711,0.059367,0.059367,0.000000,90.000000,84.000000,6.000000,6.000000,0.000000,0.000000:
0000
0000
0000
0000
,
0000
0000
0000
0000
,
0000
0000
0000
0000
,
0000
0000
0000
0000
,
0000
0000
0100
0000
,
0010
0000
0100
0000
,
0001
0000
1000
0000
,
0010
0000
0100
0000
,
0010
0000
1001
0000
,
0010
0000
0000
0000
,
0100
0000
0000
0000
,
0001
0000
1000
0000
,
0001
0000
0100
0000
,
0010
0000
0000
0000
,
0100
0000
0001
0000
,
1000
0000
0010
0000
,
0100
0000
0110
0000
,
1000
0000
0000
0000
,
0001
0000
0000
0000
,
1000
0000
0010
0000
,
1000
0000
0100
0000
,
0010
0000
0010
0000
,
0100
0000
0001
0000
,
0100
0000
0010
0000
,
1000
0000
0001
0000
,
0000
0000
0100
0000
,
0000
0000
0010
0000
,
0000
0000
0100
0000
,
0001
0000
0100
0000
,
0001
0000
1000
0000
,
0010
0000
0100
0000
,
0001
0000
0001
0000
,
0100
0000
0110
0000
,
0010
0000
0000
0000
,
0010
0000
0100
0000
,
0001
0000
0000
0000
,
1000
0000
1001
0000
,
0010
0000
0000
0000
,
0100
0000
0010
0000
,
0010
0000
0100
0000
,
0001
0000
2020
0000
,
3030
0000
0010
0000
,
0100
0000
0110
0000
,
0001
0000
2000
0000
,
3000
0000
0001
0000
,
0010
0000
1000
0000
,
0100
0000
0001
0000
,
0001
0000
1000
0000
,
0010
0000
0200
0000
,
0300
0000
0001
0000
,
0000
0000
1000
0000
,
0000
0000
0020
0000
,
0000
0030
0100
0000
,
0000
0000
0010
0000
,
0000
0000
1000
0000
,
0000
0000
0020
0000
,
0000
0030
0100
0000
;

//---------------dance-single - ----------------
#NOTES:
     dance-single:
     :
     Medium:
     4:
     0.193648,0.225593,0.059367,0.108839,0.000000,137.000000,131.000000,6.000000,11.000000,0.000000,0.000000,0.193648,0.225593,0.059367,0.108839,0.000000,137.000000,131.000000,6.000000,11.000000,0.000000,0.000000:
0000
0000
0000
0000
,
0000
0000
0000
0000
,
0000
0000
0000
0000
,
0000
0000
0000
0000
,
0000
0000
0110
0000
,
0010
0000
0100
0000
,
0001
1000
0001
0000
,
0200
0000
0320
0000
,
2030
0000
0000
0000
3001
0000
0000
0100
,
0000
0000
0001
0000
0010
0000
0000
0100
,
0000
0000
0001
0000
1000
0000
0000
0010
,
0000
0000
0000
0100
0000
0000
0010
0000
,
0100
0000
0101
0000
,
0010
0000
0000
0100
0000
0000
0001
0000
,
0100
0001
1000
0000
,
0010
0000
0100
0000
,
0010
0100
0220
0330
,
1000
0000
0001
0000
,
0010
0000
1000
0000
,
0010
0000
0100
0010
,
0100
0010
0100
0000
,
0001
0000
1000
0000
,
0010
0100
0010
0000
,
0100
0001
0010
0000
,
1000
0000
2002
3003
,
0010
0000
0000
0100
0000
0000
0010
0000
,
0100
0000
1001
0000
,
0010
0000
0000
1000
0000
0000
0000
0000
,
0001
0010
0100
0000
,
0100
0000
0001
0000
,
1000
0100
0001
0000
,
0100
0000
0010
0000
,
0100
0000
0010
0000
1001
0000
0000
0010
,
0000
0000
0000
0100
0000
0000
0010
0000
,
1000
0000
0010
0000
0100
0000
0000
0010
,
0000
0000
0000
0100
0000
0000
0000
0000
,
0010
0000
0100
0000
0010
0000
0000
0100
,
0000
0000
0000
0010
0000
0000
0100
0000
,
0001
0000
0000
0000
1000
0000
0000
0010
,
0000
0000
0000
0100
0000
0000
0000
0000
,
0010
0010
0010
0000
,
0100
0100
0100
0000
,
1000
0010
1000
0000
,
0010
0100
0020
0000
,
0130
0000
0001
0000
,
1000
0100
1000
0000
,
0010
0100
0010
0000
,
0100
0000
0000
0010
0000
0000
0000
0100
,
0000
0000
0000
0010
0000
0000
0000
1000
,
0000
0000
0000
0000
0010
0000
0000
0100
,
0000
0000
0010
0000
0010
0000
0000
0100
,
0000
0000
0010
0000
,
1000
0000
0010
0000
,
0000
0000
0100
0000
,
0010
0100
0010
0000
,
0000
1000
0020
0000
,
0230
0000
0302
0000
,
0003
0000
0000
0000
;

//---------------dance-single - ----------------
#NOTES:
     dance-single:
     :
     Hard:
     6:
     0.337824,0.393056,0.069261,0.187994,0.014842,239.000000,232.000000,7.000000,19.000000,0.000000,0.000000,0.337824,0.393056,0.069261,0.187994,0.014842,239.000000,232.000000,7.000000,19.000000,0.000000,0.000000:
// measure 0
0000
0000
0000
0000
,  // measure 1
0000
0000
0000
0000
,  // measure 2
0000
0000
0000
0000
,  // measure 3
0000
0000
0000
0000
,  // measure 4
0000
0000
0000
0000
0100
0000
0000
0001
,  // measure 5
0000
0100
0001
0100
0001
0000
0010
0000
,  // measure 6
1000
0100
0010
0000
,  // measure 7
0100
0001
0001
0100
0002
0000
0000
1000
,  // measure 8
1003
0000
0001
0000
1001
0000
0000
0100
,  // measure 9
0000
0000
0000
0020
0000
0000
0000
0000
0030
0000
0000
0000
0001
0000
1000
0000
,  // measure 10
0000
0001
0000
0000
0100
0000
1000
0010
,  // measure 11
0000
0100
0001
0100
0000
0010
0000
0100
,  // measure 12
0010
0100
0000
0010
0100
0000
0000
0001
,  // measure 13
0000
1000
0010
2000
3000
0010
0000
0100
,  // measure 14
0000
0010
0100
0010
0100
0000
0000
0010
,  // measure 15
0100
0000
0000
0001
0000
1000
0010
0000
,  // measure 16
0100
0000
0010
0000
0110
0000
0100
0010
,  // measure 17
0000
0000
0000
0200
0000
0000
0000
0000
0310
0000
0000
0000
1000
0000
0001
0000
,  // measure 18
0000
0100
0000
0000
0010
0000
1000
0001
,  // measure 19
0000
0100
0000
0100
0000
0010
0000
0010
,  // measure 20
1000
0010
0000
0000
0101
0000
0100
0010
,  // measure 21
0000
0000
0100
0001
0000
0100
0000
0010
,  // measure 22
0000
1000
0000
0020
0000
0000
0030
0100
,  // measure 23
0010
0000
0000
0100
0000
0001
0001
0000
,  // measure 24
1000
0001
0100
0000
0220
0000
0330
0000
,  // measure 25
0001
0100
0000
0010
0000
0100
0000
0001
,  // measure 26
0000
1000
0000
0000
0010
0000
1000
0010
,  // measure 27
0000
1000
0020
0000
0000
0130
0100
0000
,  // measure 28
0100
0010
0010
0100
0000
0010
0000
1000
,  // measure 29
0000
0100
0000
0010
0000
0000
1000
0200
,  // measure 30
0000
0300
1000
0020
0000
0000
0030
0100
,  // measure 31
0010
0000
0000
0100
0000
0010
0010
0000
,  // measure 32
0100
0010
0100
0000
0101
0000
0010
0100
,  // measure 33
0000
0100
0000
0010
0000
0100
0000
0010
,  // measure 34
1000
0010
1000
0000
0010
0000
0100
0010
,  // measure 35
0000
0100
0000
0002
0000
0003
0000
0010
,  // measure 36
1000
0100
0010
0000
0001
0000
1000
1000
,  // measure 37
0000
0010
0000
0110
0000
0100
0000
0010
,  // measure 38
0100
0010
0100
0000
0110
0000
1000
0001
,  // measure 39
0000
0010
0100
0020
0000
0030
0000
1000
,  // measure 40
0001
0100
0010
0000
0200
0000
0300
0010
,  // measure 41
0100
0010
1000
0000
0001
0000
0000
0000
,  // measure 42
0100
0001
0010
0000
0010
0000
0000
0001
,  // measure 43
0010
0100
1000
0000
0020
0000
0030
0100
,  // measure 44
0000
0000
0000
0010
0100
0000
0010
1000
,  // measure 45
0000
0010
0000
0200
0000
0300
0001
0001
,  // measure 46
0000
1000
0000
0010
0100
0000
0000
0010
,  // measure 47
0100
0010
0000
1000
0000
0010
0000
0100
,  // measure 48
0000
0001
0000
2000
0001
0000
0000
0010
,  // measure 49
3000
0100
0010
0100
0010
0000
0000
0100
,  // measure 50
0000
0000
0010
0100
0010
0000
0000
0100
,  // measure 51
0000
0001
0010
0001
0010
0000
0000
0100
,  // measure 52
0000
1000
0010
1000
0010
0000
0000
0010
,  // measure 53
0000
1000
0010
1000
0100
0000
0100
0000
,  // measure 54
0010
1000
0100
0000
,  // measure 55
0000
0000
0100
0000
1000
0000
0100
0000
2000
0000
0000
0010
3000
0000
0200
0000
,  // measure 56
0000
0300
0001
0200
0000
0000
0300
0000
;
