#TITLE:Stay With Me;
#SUBTITLE:;
#ARTIST:glimmerxp;
#TITLETRANSLIT:;
#SUBTITLETRANSLIT:;
#ARTISTTRANSLIT:;
#GENRE:;
#CREDIT:;
#BANNER:;
#BACKGROUND:;
#LYRICSPATH:;
#CDTITLE:;
#MUSIC:glimmerxp - stay with me.ogg;
#OFFSET:-0.065000;
#SAMPLESTART:15.050000;
#SAMPLELENGTH:21.000000;
#SELECTABLE:YES;
#BPMS:0.000000=128.000000
;
#STOPS:192.000000=0.234000,
192.500000=0.234000
;
#BGCHANGES:;
#KEYSOUNDS:;
#ATTACKS:;

//---------------dance-single - ----------------
#NOTES:
     dance-single:
     :
     Hard:
     9:
     0.500850,0.550270,0.233730,0.335987,0.178950,480.000000,448.000000,32.000000,46.000000,0.000000,0.000000,0.500850,0.550270,0.233730,0.335987,0.178950,480.000000,448.000000,32.000000,46.000000,0.000000,0.000000:
2000
0000
3100
0010
0002
0000
0013
0100
,
2000
0000
3000
0020
0030
0200
0301
1000
,
2000
0000
3010
0100
0002
0000
1003
0010
,
0200
0000
0300
0200
0300
0001
0100
0001
,
2000
0000
3100
0010
0002
0000
0103
1000
,
0200
0000
0301
0010
0002
0000
0103
0002
,
0000
0000
0000
0003
,
0100
0010
0100
0010
0100
0000
0010
0100
0010
0100
0010
0000
0000
0000
0000
0000
,
0101
0000
1000
0010
0100
0000
0001
0001
,
0000
0000
0001
0100
0000
0001
1000
0010
,
0110
0000
0001
1000
0010
0010
0100
0200
,
0300
0001
0001
0101
0000
1000
0010
0100
,
1001
0000
0010
0010
0000
0100
0010
0010
,
0000
0000
1000
0001
0000
0000
0001
1000
,
0110
0000
0000
0001
1000
0010
0010
0000
,
0000
0000
0000
0100
0000
0000
0100
0000
0000
0100
0000
0000
1001
0000
0000
0000
0010
0000
0000
0000
0100
0000
0000
0000
,
1010
0000
0100
0001
0010
0001
0001
1000
,
0000
0000
0010
0100
0000
0001
0001
1000
,
1001
0000
0010
0100
0010
0000
1000
0010
,
1000
0000
0001
0010
0000
0100
0010
1000
,
0011
0000
0001
1000
0010
0000
0100
0010
,
0100
0000
0001
0200
0000
0300
0100
0002
,
1003
0000
0000
0000
0000
0000
0100
0000
0000
0010
0000
0000
0010
0000
1000
0000
0001
0000
1000
0000
0001
0000
1000
0000
,
0001
0000
0000
0100
0010
0100
0010
0000
0101
0000
0011
0000
,
1001
0000
0001
1000
0101
0000
0001
0010
,
1000
0000
0000
0000
0000
0000
0010
0000
0000
0001
0000
0000
0110
0000
0000
0000
0000
0000
0001
0000
1000
0000
0001
0000
,
1000
0000
0010
0001
0100
0100
0001
1000
,
0001
0000
1000
0000
0010
0000
0100
0000
0100
0000
0000
0000
0001
0100
0001
0000
,
2000
0000
3001
0100
0001
1000
1000
0010
,
0200
0000
0000
0000
0000
0000
0301
0000
0000
0010
0000
0000
0002
0000
0000
0000
0000
0000
1003
0000
0010
0000
1000
0000
,
0010
0000
0100
0010
0110
0000
1000
0001
,
1001
0000
0000
0000
0000
0000
0100
0000
0000
0001
0000
0000
0200
0000
0000
0000
0000
0000
0301
0000
1000
0000
0001
0000
,
1000
0020
2030
3002
,
0203
0000
0000
0000
0000
0000
0301
0000
0000
1000
0000
0000
0002
0000
0000
0000
0000
0000
1003
0000
0100
0000
1000
0000
,
0002
0000
1003
0010
0200
0001
0301
1000
,
0020
0000
0100
0000
0130
0000
0001
0000
0002
0000
0000
0000
1003
0001
1000
0000
,
0020
0000
0130
0001
1001
0010
0100
1000
,
0002
0000
0000
0000
0000
0000
0103
0000
0000
0001
0000
0000
0110
0000
0000
0000
0000
0000
1000
0000
0001
0000
0100
0000
,
0002
0000
1003
0010
0110
0010
0100
0001
,
1001
0000
0000
0010
0000
0000
0100
0000
0000
0001
0000
0000
0001
0000
0000
0000
1000
0000
0000
0000
0010
0000
0000
0000
,
0200
0000
0001
0001
0300
0000
0010
0100
,
0000
0000
0010
0100
0000
0000
0000
0000
,
2000
0001
0000
3001
,
0000
0010
0100
0010
,
0010
1000
0100
0010
1000
0010
1000
0100
,
0010
0001
1000
0100
0010
0001
0010
0001
,
2000
0010
0010
0010
3020
0100
0100
0000
,
1030
0001
1000
0001
1000
0000
0001
1000
0001
1000
0001
0000
0000
0000
0000
0000
,
0110
0110
0101
0000
0100
0001
0000
0000
,
0100
0010
0000
0010
0100
0010
1100
0000
,
0100
0001
0001
0100
0110
0010
0000
0100
,
0100
0001
0000
1000
0100
0001
0101
0000
,
0010
2000
3010
0000
0100
0100
0000
0010
,
0010
0010
0000
0100
0001
0010
0101
0000
,
0010
0000
1000
0000
0010
0000
1000
0010
1000
0000
0000
0000
0000
0000
0010
0000
,
0100
0000
0000
0100
0000
0000
0010
0000
0000
0000
1000
0000
0000
0000
0010
0000
0000
0000
1100
0000
0000
0000
0000
0000
,
0010
0100
0011
0000
0001
2000
3000
0000
,
0010
0110
0000
0001
1000
0001
1010
0000
,
0100
0001
0010
0001
1000
0010
0000
0100
,
0010
0010
0100
0001
1000
0001
0110
0000
,
0001
0001
1000
0000
1000
1000
0001
0000
,
0010
0200
0310
0000
0100
0001
0010
0000
,
0001
0000
0000
0001
0000
0000
1000
0000
0001
0000
1000
0000
0001
0000
0100
0000
0010
0000
0100
0000
0010
0000
1000
0000
,
0001
1000
0010
1000
0000
0100
0000
0010
0000
0100
0000
0000
,
1000
0001
0100
0000
0010
1000
0001
0000
,
0001
0000
1000
0000
0010
0000
0000
0000
0010
0100
0010
0100
0010
0000
0000
0000
,
1000
0001
0001
0000
0010
0010
0001
0000
,
1000
0000
0100
0000
1000
0000
0000
0000
0010
0100
0010
0000
0100
0000
0000
0000
,
0001
0010
0100
0000
1000
0100
0001
0000
,
0001
0000
1000
0000
0010
0000
0000
0000
0100
0000
0001
0100
0001
0000
0000
0000
,
2000
0000
3200
0000
0310
0001
0020
0000
,
0032
0000
2003
0000
3010
0200
0300
0000
;

//---------------dance-single - ----------------
#NOTES:
     dance-single:
     :
     Easy:
     3:
     0.200340,0.262946,0.175298,0.219122,0.000000,192.000000,168.000000,24.000000,30.000000,0.000000,0.000000,0.200340,0.262946,0.175298,0.219122,0.000000,192.000000,168.000000,24.000000,30.000000,0.000000,0.000000:
1000
0000
0100
0000
,
0010
0000
0100
0000
,
0010
0000
0100
0000
,
0001
0000
0010
0000
,
0110
0000
0010
0000
,
0100
0000
0010
0000
,
2000
0000
0000
0000
,
3000
0000
0000
0000
,
1001
0000
0010
0100
,
0000
0100
0010
0100
,
0010
0000
0011
0000
,
0001
0000
1000
0001
,
1000
0000
0101
0000
,
0020
0000
0230
0000
,
0302
0000
1003
0000
,
1000
0001
0001
1000
,
0010
0000
0101
0000
,
0020
0000
0130
0001
,
0100
0000
1001
0000
,
0010
0000
0001
0001
,
1000
0000
0001
0000
,
0020
0000
0230
0000
,
2300
0000
3001
0000
,
0001
0000
2002
3003
,
1001
0000
0010
0000
,
0100
0000
0001
0000
,
0110
0000
0001
0001
,
1000
0000
0001
1000
,
0001
0000
0011
0000
,
0100
0000
0010
0000
,
0101
0000
0011
0000
,
1100
0000
0101
0000
,
0102
0000
0203
0000
,
0320
0000
0032
0000
,
1003
0000
0011
0000
,
0100
0010
0100
0000
,
0220
0330
2000
3000
,
0002
0003
0020
0030
,
0200
0300
0002
0003
,
1000
0000
0001
0000
,
0022
0000
0000
0000
,
0033
0000
0000
0000
,
0100
0000
0010
0000
,
0100
0000
0001
0001
,
0001
0000
1000
1000
,
1000
0000
0010
0010
,
0100
0000
0001
0010
,
0001
1000
0010
0000
,
0100
0100
0100
0000
0000
0000
0010
0000
,
0000
1000
0001
0001
,
0000
0010
0100
0010
,
0000
1000
0000
1001
,
0000
0011
0000
0100
,
0000
0010
0100
0010
,
0000
1000
1000
0000
,
0001
0001
0000
0110
,
0000
0001
1000
0000
,
1000
0010
1000
0001
,
0000
0011
0000
1100
,
0000
0010
0100
0010
,
0000
0100
0000
0002
,
0000
2003
0000
3020
,
0000
0130
0000
0100
,
0100
0100
0000
0010
,
0000
0010
1000
0010
,
0000
0100
0001
0100
,
0000
0010
0000
0001
,
0000
1000
0000
0010
,
0001
0001
0000
1000
,
1000
0100
0000
1000
,
1000
1000
0000
0022
,
0033
0200
0300
0020
,
0030
0000
0000
0000
;

//---------------dance-single - ----------------
#NOTES:
     dance-single:
     :
     Medium:
     6:
     0.368334,0.366847,0.160690,0.277555,0.000000,353.000000,331.000000,22.000000,38.000000,0.000000,0.000000,0.368334,0.366847,0.160690,0.277555,0.000000,353.000000,331.000000,22.000000,38.000000,0.000000,0.000000:
// measure 0
2000
0000
3100
0020
0000
0030
0100
2000
,  // measure 1
0000
3000
0000
0010
0000
0100
0001
1000
,  // measure 2
0002
0000
0013
0200
0000
0300
1000
0020
,  // measure 3
0000
0030
0000
0100
0000
0001
0100
0001
,  // measure 4
0200
0000
0301
0020
0000
0030
0100
2000
,  // measure 5
0000
3000
0010
0002
0000
0003
0010
2000
,  // measure 6
0000
0000
0000
3000
,  // measure 7
0100
0100
0100
0010
0010
0010
0000
0000
,  // measure 8
0101
0000
1000
0010
0000
0000
0001
1000
,  // measure 9
0000
0000
0001
0100
0000
0001
1000
0010
,  // measure 10
0100
0000
0001
1000
0000
0000
0100
0010
,  // measure 11
0000
0001
0000
0100
0000
1000
0010
0100
,  // measure 12
0001
0000
0010
0010
0000
0000
0100
0100
,  // measure 13
0000
0000
1000
0002
0000
0003
0001
2000
,  // measure 14
0000
3000
0000
0001
1000
0010
0100
0000
,  // measure 15
0000
0100
0100
0000
1001
0000
0100
0000
,  // measure 16
1010
0000
0100
0002
0010
0003
0001
1000
,  // measure 17
0000
0000
0010
0100
0000
0001
1000
0001
,  // measure 18
0100
0000
0010
0200
0010
0300
0001
0010
,  // measure 19
0000
0000
1000
0100
0000
0010
0001
1000
,  // measure 20
0001
0000
0001
2000
0000
3000
1000
0020
,  // measure 21
0000
0030
0010
0200
0000
0300
0100
0002
,  // measure 22
0000
0003
0100
0010
0010
0000
1000
0000
,  // measure 23
0001
0000
0100
0010
0100
0010
0100
0000
,  // measure 24
1001
0000
0001
1000
0001
0000
0001
0010
,  // measure 25
1000
0000
0010
0001
0100
0000
1001
0000
,  // measure 26
1000
0000
0010
0100
0010
0000
0001
1000
,  // measure 27
0010
0000
0010
0100
0100
0000
0101
0000
,  // measure 28
2000
0000
3001
0100
0001
0000
1000
0010
,  // measure 29
0200
0000
0301
0010
0001
0000
1000
0000
,  // measure 30
1010
0000
0100
0010
0100
0000
0001
1000
,  // measure 31
0001
0000
0010
0100
0010
0000
1001
0000
,  // measure 32
0100
0020
2030
3200
,  // measure 33
2300
3002
0203
1300
,  // measure 34
0102
2003
3020
0230
,  // measure 35
0320
0000
0230
0000
0302
0000
1003
1000
,  // measure 36
0020
0030
1001
0100
,  // measure 37
0011
0100
1010
1000
,  // measure 38
0101
1000
0110
0100
,  // measure 39
0010
0100
0001
0010
,  // measure 40
0200
0001
0300
0010
,  // measure 41
0000
0100
0000
0000
,  // measure 42
1000
0001
1000
0001
,  // measure 43
0010
0100
0010
0010
,  // measure 44
0010
1000
0100
0000
1000
0010
1000
0000
,  // measure 45
0010
0100
0010
0000
1000
0100
1000
0000
,  // measure 46
0002
0000
1003
0000
,  // measure 47
1000
0000
0000
1000
0000
0000
0000
0000
,  // measure 48
0100
0010
0100
0000
0000
0001
0000
0000
,  // measure 49
0000
0100
0000
0010
0100
0010
1000
0000
,  // measure 50
0100
0001
0000
0000
0100
0010
0000
0100
,  // measure 51
0000
0001
0000
1000
0100
1000
0100
0000
,  // measure 52
0010
0001
0000
0000
0100
0100
0000
0000
,  // measure 53
0010
0010
0000
0000
0001
0010
0001
0000
,  // measure 54
0000
1000
0010
1000
0010
0000
0000
0010
,  // measure 55
0100
0100
0010
0000
0010
0000
1100
0000
,  // measure 56
0010
0100
0010
0000
0001
1000
0000
0010
,  // measure 57
0000
0110
0000
0001
1000
0001
0010
0000
,  // measure 58
0100
0001
0000
0000
1000
0010
0000
0100
,  // measure 59
0000
0010
0000
1000
0100
0010
0001
0000
,  // measure 60
0001
0001
0000
0000
1000
1000
0000
0000
,  // measure 61
0010
0100
0000
0000
0100
0010
0010
0000
,  // measure 62
0000
1000
1000
0000
0001
0000
0000
1000
,  // measure 63
0001
0100
1000
0000
0000
0000
0100
0000
,  // measure 64
1000
0001
0100
0000
0100
0001
1000
0000
,  // measure 65
1000
0001
0010
0000
0010
0000
0001
0000
,  // measure 66
1000
0001
0010
0000
0010
0001
1000
0000
,  // measure 67
0001
0100
0001
0000
0010
0100
0010
0000
,  // measure 68
0001
0110
1000
1001
,  // measure 69
0001
0000
0101
0000
0100
0001
0100
0000
,  // measure 70
0011
0100
0110
1000
,  // measure 71
1100
0000
1000
0000
0010
0200
0300
0000
;
