#TITLE:Qimranut;
#SUBTITLE:;
#ARTIST:Feryquitous;
#TITLETRANSLIT:;
#SUBTITLETRANSLIT:;
#ARTISTTRANSLIT:;
#GENRE:;
#CREDIT:;
#BANNER:;
#BACKGROUND:;
#LYRICSPATH:;
#CDTITLE:;
#MUSIC:Feryquitous - Qimranut (edit).mp3;
#OFFSET:-0.234000;
#SAMPLESTART:42.299999;
#SAMPLELENGTH:11.000000;
#SELECTABLE:YES;
#BPMS:0.000000=185.000000
;
#STOPS:
;
#BGCHANGES:;
#KEYSOUNDS:;
#ATTACKS:;

//---------------dance-single - ----------------
#NOTES:
     dance-single:
     :
     Easy:
     3:
     0.207529,0.301302,0.080706,0.179346,0.000000,162.000000,153.000000,9.000000,20.000000,0.000000,0.000000,0.207529,0.301302,0.080706,0.179346,0.000000,162.000000,153.000000,9.000000,20.000000,0.000000,0.000000:
0000
0000
0000
0000
,
0000
0000
0000
0000
,
0000
0000
0000
0000
,
0000
0000
0000
0000
,
0000
0000
0000
0000
,
0000
0000
0000
0000
,
0000
0000
0000
0000
,
0000
0000
0000
0000
,
0000
0000
0000
0100
0000
0010
0000
0100
,
0000
0002
0000
0000
0000
0103
0000
0000
,
0000
0000
1000
0000
0000
0010
0000
0100
,
0000
0020
0000
0000
0000
1030
0000
0000
,
0000
0000
0010
0000
0000
1000
0000
0001
,
0000
0200
0000
0000
0000
0301
0000
0000
,
0000
0000
0010
0000
0000
1000
0000
0001
,
0000
2000
0000
0000
0000
3100
0000
0000
,
0110
0000
0000
0010
0000
0000
0100
0000
,
0000
0001
0000
0010
,
0000
0000
0000
2000
,
0000
0000
3001
0000
,
0002
0003
0010
0000
,
0100
0010
0100
0000
,
0010
0000
0000
0100
0000
0000
0001
0000
,
0000
1000
0000
0000
0010
0000
0000
0000
,
0110
0000
0000
0100
0000
0000
0001
0000
,
0000
1000
0010
2000
,
3000
0000
0000
0010
,
0000
0100
0000
0010
,
0100
0000
0000
0001
,
0000
0000
1000
0000
,
0010
0000
0000
0100
0000
0000
0010
0000
,
0000
1000
0000
0000
0000
0000
1000
0000
,
2002
3003
0000
0010
,
1000
0000
0000
0010
0000
0000
0100
0000
,
0002
0003
0000
0200
,
0000
0302
0000
2003
,
0000
0000
3000
0020
,
0030
0000
0100
0010
,
0100
0000
0000
0001
0000
0000
0100
0000
,
0000
0001
0000
0000
0010
0000
0000
0000
,
1001
0000
0000
0100
0000
0000
0010
0000
,
0000
0100
0000
0000
0001
0000
0000
0000
,
1100
0000
0000
1000
0000
0000
0100
0000
,
0000
1000
0000
0000
0001
0000
0000
0000
,
0020
0000
0000
0000
,
0030
0100
0000
0010
,
0000
0000
0000
0100
,
0000
0010
0000
0010
,
0100
0000
0000
0001
0000
0000
0100
0000
,
0000
0002
0000
0000
0000
0003
1000
0000
,
1000
0000
0000
0010
0000
0000
0100
0000
,
0000
0010
0000
1000
,
0000
0001
0100
0000
,
0010
0000
0000
2002
,
3003
0000
0000
0000
0100
0000
0020
0030
,
0000
0000
0100
0000
,
0010
0000
0000
0100
0000
0000
0001
0000
,
0000
0000
0010
0000
,
0100
0000
0000
0100
0000
0000
0010
0000
,
0000
0010
0000
0000
1000
0000
0000
0000
,
0001
0000
0000
1000
0000
0000
0010
0000
,
0000
1000
0000
0000
0000
0000
0000
0000
,
0010
0000
0000
0110
,
0000
0000
1000
0000
,
0001
0000
0000
0100
0000
0000
0010
0000
,
0000
1000
0000
0000
0010
0000
0000
0000
,
0110
0000
0000
0100
,
0000
0000
0010
0000
,
0100
0000
0000
0010
,
0000
0000
1000
0000
,
0020
0000
0030
0100
,
0000
0000
0010
0000
,
0100
0000
0000
0001
,
0000
0000
0001
0000
,
1000
0000
0000
0010
,
0000
0000
0100
0000
,
0010
0000
0000
0010
,
0000
0000
0100
0000
,
0001
0000
0000
1001
,
0000
0000
0100
0000
,
0010
0000
0000
0100
,
0000
0000
0010
0000
,
0100
0000
0000
0010
,
0000
0000
0100
0000
,
0001
0000
0000
0000
;

//---------------dance-single - ----------------
#NOTES:
     dance-single:
     :
     Medium:
     5:
     0.280549,0.451953,0.107608,0.152444,0.000000,219.000000,207.000000,12.000000,17.000000,0.000000,0.000000,0.280549,0.451953,0.107608,0.152444,0.000000,219.000000,207.000000,12.000000,17.000000,0.000000,0.000000:
0000
0000
0000
0000
,
0000
0000
0000
0000
,
0000
0000
0000
0000
,
0000
0000
0000
0000
,
0000
0000
0000
0000
,
0000
0000
0000
0000
,
0000
0000
0000
0000
,
0000
0000
0000
0000
,
0000
0000
0002
1000
0000
1000
0000
1000
,
0000
0100
0000
0100
0003
0100
0000
0000
,
0000
0000
0002
0010
0000
0010
0000
0010
,
0000
0100
0000
0100
0003
0100
0000
0000
,
0000
0000
0200
0001
0000
0001
0000
0001
,
0000
0001
0000
0010
0300
0010
0000
0000
,
0000
0000
0020
0100
0000
0100
0000
1000
,
0000
1000
0000
1000
0030
1000
0000
0000
,
1000
0000
0000
0010
0000
0000
0100
0000
,
0000
0010
0000
0002
,
0000
0003
0000
0020
,
0000
0030
0000
0000
0010
0000
0001
0000
,
1000
0000
0000
0100
0000
0000
1000
0000
,
0000
0100
0000
0000
0100
0000
0000
0000
,
0010
0000
0010
0001
0000
0010
0001
0000
,
0010
0001
0000
0000
0100
0000
0000
0000
,
1000
0000
0000
0010
0000
0000
0001
0000
,
0000
0010
0100
0010
,
0000
0000
0000
0001
,
0000
0010
0000
0001
,
1000
0000
0000
0100
0000
0000
1000
0000
,
0000
1000
0000
0000
1000
0000
0010
0000
,
0001
0000
1000
0001
0000
1000
0001
0000
,
1000
0010
0000
0000
0000
0000
0010
0001
,
0010
0100
0000
0010
,
0001
0000
1000
0001
0000
0010
0000
0000
,
1001
0000
0000
1000
,
0000
2000
3002
2003
,
0000
0000
3000
0011
,
0000
0000
0100
0010
,
0100
0000
0010
1000
0000
0010
0000
1000
,
0000
0000
0000
0000
0000
0000
0010
0001
,
0010
0000
0100
0010
0000
0000
0110
0000
,
0000
0001
0000
0000
0010
0000
0100
1000
,
0100
0000
0001
0010
0000
0000
0011
0000
,
0000
0010
0000
0000
0002
0000
0023
0000
,
0230
0000
0000
0000
,
0300
0001
0000
1000
,
0000
0000
0000
0000
,
0000
0010
0010
0010
,
1000
0000
0000
0010
0000
0000
1000
0000
,
0000
0100
0000
0000
1000
0000
1001
0000
,
0010
0000
0000
0001
0000
0000
0010
0000
,
0000
0001
0000
1000
,
0000
0000
0010
0002
0000
0000
0000
0003
,
0000
0100
1000
0200
,
0010
0000
0300
0010
,
0000
0000
0000
0000
1000
0000
0100
0100
,
0100
0000
0000
0010
0000
0000
0001
0000
,
0000
0010
0000
0000
0110
0000
0000
0000
,
1000
0000
0001
0010
0000
0010
0001
0000
,
0010
0100
0000
0010
0001
0000
0010
0000
,
0011
0000
0000
0011
0000
0000
0010
0000
,
0000
0011
0000
0000
0100
0000
0000
0000
,
1100
0000
0000
1100
0000
0000
0100
0000
,
0000
1100
0000
0000
0020
0000
0030
0000
,
2000
0000
0000
0010
0000
0000
0010
0000
,
0000
3010
0000
0000
1000
0000
0000
0000
,
0010
0000
0000
0100
0000
0000
0010
0000
,
0000
0100
0000
0000
0001
0000
0000
0000
,
0010
0000
0000
0001
0000
0000
1000
0000
,
0000
0010
0000
0000
1000
0000
0000
0000
,
0002
0000
0000
0010
0000
0000
0013
0000
,
0000
1000
0000
0000
0010
0000
0000
0000
,
1000
0000
0000
0100
0000
0000
0010
0000
,
0000
0001
0000
0000
0010
0000
0000
0000
,
0001
0000
0000
0010
0000
0000
0100
0000
,
0000
1000
0000
0000
0100
0000
0000
0000
,
0010
0000
0000
0001
0000
0000
0010
0000
,
0000
0001
0000
0000
0010
0000
0000
0000
,
1000
0000
0000
0100
0000
0000
0100
0000
,
0000
0000
0000
0000
,
0001
0000
0000
0010
,
0000
0000
0010
0000
,
1000
0000
0000
0100
,
0000
0000
0010
0000
,
0001
0000
0000
0000
;

//---------------dance-single - ----------------
#NOTES:
     dance-single:
     :
     Hard:
     7:
     0.424026,0.527279,0.143477,0.134510,0.000000,331.000000,315.000000,16.000000,15.000000,0.000000,0.000000,0.424026,0.527279,0.143477,0.134510,0.000000,331.000000,315.000000,16.000000,15.000000,0.000000,0.000000:
0000
0000
0000
0000
,
0000
0000
0000
0000
,
0000
0000
0000
0000
,
0000
0000
0000
0000
,
0000
0000
0000
0000
,
0000
0000
0000
0000
,
0000
0000
0000
0000
,
0000
0000
0000
0000
,
0000
0000
0001
1000
0000
1000
0000
1000
,
0000
0100
0010
0100
0010
0100
0010
0100
,
0001
0000
0001
0010
0000
0010
0000
0100
,
0000
0010
0001
0010
0001
0100
0010
1000
,
0010
0000
0100
0010
0000
0100
0000
0100
,
0000
0010
0100
0010
0100
1000
0100
1000
,
0100
0000
0010
0001
0000
0010
0000
0010
,
0000
0010
0001
0010
0010
0010
0000
0000
,
1000
0010
1000
0100
0000
0000
0010
0001
,
0010
0100
0000
0000
0010
0000
0000
0000
,
0010
0001
0010
0001
0000
0000
0010
0100
,
0010
0100
0000
0000
0001
0000
0000
0000
,
1000
0100
1000
0100
0000
0000
1000
0100
,
1000
0100
0000
0000
0010
0000
0000
0000
,
0010
0001
0010
0001
0000
0010
0001
0010
,
0001
0010
0000
0100
0010
0100
0000
0000
,
1000
0010
1000
0010
0000
0000
0001
0010
,
0100
0010
0000
0010
0100
0010
0000
0000
,
0010
0100
0010
0001
0000
0000
1000
0001
,
1000
0010
0000
0100
0001
1000
0000
0000
,
1000
0001
0100
0001
0000
0000
1000
0001
,
1000
0010
0000
0000
1000
0000
0010
0000
,
0001
1000
0001
1000
0001
1000
0010
1000
,
0010
1000
0000
0000
0000
0000
0100
0001
,
0010
1001
0000
0010
,
0001
1000
0001
0010
0010
0001
0010
0002
,
0000
0000
0000
0003
0000
0000
1000
0000
,
0000
0002
0023
2030
,
0000
0000
3000
0011
,
0000
0000
0000
0000
0020
0030
0002
0003
,
2000
3000
1000
0010
0000
1000
0000
0010
,
0000
0000
0000
0000
0000
0000
0010
0001
,
0010
0001
1000
0010
0000
1000
0010
0000
,
0000
0011
0000
0000
0110
0000
1000
0100
,
0010
0001
0010
0100
0000
0010
0001
0000
,
0000
0110
0000
0000
0002
0000
0023
0000
,
0230
0000
0000
0000
,
0300
0001
0000
1001
,
0100
0001
0010
0001
0000
0100
0010
0000
,
0000
0010
0010
0010
,
1000
0010
0100
0001
0000
0000
0100
0000
,
0000
1000
0000
0000
1001
0000
0010
0001
,
0010
0000
0001
0010
0001
0000
0010
0100
,
0000
0100
0010
0000
0000
0000
2000
0000
,
0000
3000
0010
0010
0000
1000
1000
0000
,
0001
0001
0000
0000
0100
0010
1000
0010
,
2000
0000
3000
0110
,
0000
0000
0000
0000
1000
0000
0010
0100
,
0010
0000
1000
0010
0000
0100
0010
0000
,
0100
0001
0000
0000
0110
0000
0000
0100
,
0010
0000
1000
0001
0000
0010
0001
0000
,
1000
0010
0000
0010
0100
0010
0000
0000
,
0011
0000
0000
0011
0000
0010
0001
0000
,
0010
0001
0000
0000
0010
0001
0100
0000
,
0110
0000
1000
0100
0000
0010
0100
0000
,
0100
1000
0000
0000
0020
0000
1030
0000
,
2000
0000
0000
0010
0000
0000
0010
0000
,
0000
3010
0000
0010
0000
1000
0100
1000
,
0010
0000
0000
0100
0000
0000
0010
0000
,
0000
0100
0000
0000
0001
0000
0000
0000
,
0010
0000
0000
0001
0000
0000
1000
0000
,
0000
0110
0000
0100
1000
0100
1000
0000
,
0002
0000
0000
0010
0000
0000
0013
0000
,
0000
0010
0000
0000
0010
0001
0010
0000
,
1100
0000
0000
0100
0000
0000
0010
0000
,
0000
0001
0000
0000
0010
0000
0000
0000
,
0101
0000
0000
0010
0000
0000
0100
0000
,
0000
1000
0000
0000
0100
0000
0000
0000
,
0010
0000
0000
0001
0000
0000
0010
0000
,
0000
0001
0000
0000
0010
0000
0000
0000
,
1000
0000
0000
0100
0000
0000
1001
0000
,
0000
0000
0000
0000
0010
0100
0010
0001
,
0010
0000
0000
0001
0000
0000
0010
0000
,
0000
0001
0000
0000
1000
0000
0000
0000
,
1000
0000
0000
0100
0000
0000
0100
0000
,
0000
0010
0000
0000
0001
0000
0000
0000
,
0001
0000
0000
0000
;

//---------------dance-single - ----------------
#NOTES:
     dance-single:
     :
     Challenge:
     10:
     0.644366,0.903906,0.197281,0.134510,0.313856,503.000000,481.000000,22.000000,15.000000,0.000000,0.000000,0.644366,0.903906,0.197281,0.134510,0.313856,503.000000,481.000000,22.000000,15.000000,0.000000,0.000000:
// measure 0
0000
0000
0000
0000
,  // measure 1
0000
0000
0000
0000
,  // measure 2
0000
0000
0000
0000
,  // measure 3
0000
0000
0000
0000
,  // measure 4
0000
0000
0000
0000
,  // measure 5
0000
0000
0000
0000
,  // measure 6
0000
0000
0000
0000
,  // measure 7
0000
0000
0000
0000
,  // measure 8
0000
0000
0001
1000
0000
1000
0000
0001
,  // measure 9
0000
0000
0100
0000
0010
0000
0100
0010
0100
0010
0100
0010
0100
0001
0100
0001
,  // measure 10
0100
0000
0001
0010
0000
0001
0000
0001
,  // measure 11
0000
0000
0100
0000
0001
0000
0100
0001
0100
0001
0010
0001
0010
0001
1000
0001
,  // measure 12
1000
0000
0100
0010
0000
0100
0000
0001
,  // measure 13
0000
0000
0010
0000
0100
0000
0010
1000
0010
1000
0010
1000
0100
1000
0100
1000
,  // measure 14
0100
0000
0010
0001
0000
1000
0000
0010
,  // measure 15
0000
0000
0100
0000
0001
0000
0100
0010
0100
0010
0100
0010
0100
0000
0000
0000
,  // measure 16
1000
0010
1000
0110
0000
0000
0010
0001
,  // measure 17
0010
0001
0000
0100
0010
0100
0000
0100
,  // measure 18
0011
0001
0010
0001
0000
0000
0010
0100
,  // measure 19
0010
0100
0000
1000
0001
0001
0000
0000
,  // measure 20
1000
0100
1000
1100
0000
0000
1000
0100
,  // measure 21
1000
0100
0000
0100
0010
0010
0000
0000
,  // measure 22
0010
0000
0001
0000
0001
0010
0001
0000
1000
0000
1000
0000
0001
0010
0001
0000
,  // measure 23
0001
1000
0010
0000
0000
0000
0100
0000
0010
0100
0010
0100
0001
0000
0001
0000
,  // measure 24
1010
0010
1000
1000
0010
1000
0001
0001
,  // measure 25
1000
0000
0010
0000
0000
0000
0010
0100
0010
0100
0010
0000
0000
0000
1000
0000
,  // measure 26
0010
0100
0100
0001
0010
0001
1000
0001
,  // measure 27
0001
0000
0100
0000
0000
0000
0010
0100
0001
0100
0010
0000
0000
0000
0000
0000
,  // measure 28
1000
0000
0001
0010
0100
0000
1000
0000
0000
0000
0000
0000
1000
0000
0001
0010
,  // measure 29
0001
0000
0100
0000
0000
0000
0100
0001
0100
0010
0100
0000
0010
0000
0000
0000
,  // measure 30
0011
0000
0000
0000
1000
0010
1000
0000
0000
0000
1000
0100
0010
0000
0000
0000
,  // measure 31
0010
0001
1000
0000
0000
0000
0010
0100
0010
0100
0001
0000
0100
0000
0001
0000
,  // measure 32
0110
1001
0000
0010
,  // measure 33
0001
1000
0001
0010
0010
0001
0010
0002
,  // measure 34
1000
0000
0000
1003
0000
0000
1001
0000
,  // measure 35
0000
0000
0020
0000
0032
1003
2000
0010
,  // measure 36
3010
0000
0100
0001
0100
0000
0010
0000
1000
0100
1000
0000
0010
0000
0100
0010
,  // measure 37
0100
0000
0011
0000
0000
0000
1000
0100
1000
0010
0100
0001
0100
0001
0000
0000
,  // measure 38
0010
0000
0001
1000
0001
0000
0100
0000
0001
1000
0001
0000
0100
0000
0010
1000
,  // measure 39
0100
0011
0000
1000
0001
0000
0010
0001
,  // measure 40
0011
0000
0000
0000
1000
0000
0010
0000
0000
0000
1000
0010
0100
0000
0000
0000
,  // measure 41
0010
1000
0001
0000
0000
0000
0100
0010
0100
0000
0000
0000
1000
0010
1000
0010
,  // measure 42
1000
0000
0000
0000
0010
0000
0100
0000
0000
0000
0010
0001
0010
0000
0000
0000
,  // measure 43
0100
0010
0001
0000
0000
0000
0000
0000
0002
0000
0000
0000
0023
0000
0000
0000
,  // measure 44
0230
0000
0000
0001
0000
0000
0001
0000
,  // measure 45
0300
0000
0002
0000
0003
0000
1000
0100
,  // measure 46
0010
0001
0010
0001
0000
0010
0020
0000
,  // measure 47
0030
0010
0010
0010
,  // measure 48
1000
0000
0010
0000
0100
0000
0001
0000
0000
0000
0000
0000
0100
0010
0100
0000
,  // measure 49
0000
1000
0000
0010
1001
0000
0010
0001
,  // measure 50
0010
0000
0000
0000
0001
1000
0010
0000
0000
0000
0000
0000
0010
0000
0100
0000
,  // measure 51
0000
0100
0010
0100
0010
0100
0002
0000
,  // measure 52
0000
0000
0003
0000
0010
0000
0010
0000
0000
0000
0001
1000
0001
0000
0000
0000
,  // measure 53
0000
0100
0010
0000
0000
0000
0010
0000
0100
0000
0010
0000
1000
0000
0010
0000
,  // measure 54
2002
0000
0000
0003
3001
1000
0110
0000
,  // measure 55
0000
0000
0000
0000
0000
0000
0010
0001
0100
0000
0001
0000
0010
0001
0010
0000
,  // measure 56
0001
0000
1000
0001
0000
0100
0010
0000
,  // measure 57
0100
0001
0000
0000
0110
0000
0010
0100
,  // measure 58
0010
0000
1000
0001
0000
0010
0001
0000
,  // measure 59
1000
0010
0000
0010
0100
0000
0000
0100
,  // measure 60
0010
0000
0000
0000
0010
0000
0110
0000
0000
0000
0100
0010
0100
0000
0000
0000
,  // measure 61
1000
0000
0010
0000
0000
0000
0100
0001
0010
0000
0001
0100
0010
0000
0000
0000
,  // measure 62
1100
0000
0000
0000
1000
0100
1000
0000
0000
0000
0010
0000
0100
0000
0000
0000
,  // measure 63
0100
0010
0100
0000
0000
0000
0000
0000
0020
0000
0000
0000
1030
0000
0000
0000
,  // measure 64
0002
0000
0000
0010
0000
0000
0103
0000
,  // measure 65
0000
0000
0010
0000
0000
0000
0010
0000
0000
0000
1000
0100
1000
0100
1000
0000
,  // measure 66
0010
0000
0010
0100
0000
0100
0010
0000
,  // measure 67
0000
0000
0001
0100
0001
0100
0001
0000
0100
0000
0000
0000
0000
0000
0000
0000
,  // measure 68
0010
0000
0000
0000
1000
0001
1000
0000
0000
0000
0001
0000
1000
0000
0000
0000
,  // measure 69
0000
0000
0010
0000
0000
0000
0010
0000
1000
0000
0100
0000
1000
0010
1000
0000
,  // measure 70
0002
0000
0000
0010
0000
0000
0013
0000
,  // measure 71
0000
0010
0000
0100
0010
0001
0010
0000
,  // measure 72
1100
0000
0010
0100
0000
0000
0010
0000
,  // measure 73
0000
0011
0000
0000
0010
0100
0010
0100
,  // measure 74
0001
0000
0000
0110
0000
0000
0100
0000
,  // measure 75
0000
1010
0000
0000
0100
0001
0010
0001
,  // measure 76
1000
0000
0100
0001
0000
0000
0010
0000
,  // measure 77
0010
0001
0000
0010
0000
0100
0000
1000
,  // measure 78
0000
0000
0000
0100
0010
0100
1001
0000
,  // measure 79
0000
0000
0000
0000
0010
0001
0010
0001
,  // measure 80
0010
0100
1000
1000
0010
0100
0010
0010
,  // measure 81
0100
0001
0100
0001
0010
0001
1000
0001
,  // measure 82
1000
0010
0100
0100
0100
0010
0100
0100
,  // measure 83
0001
0010
1000
0010
0001
0100
0010
0000
,  // measure 84
0001
0000
0000
0000
;
