#TITLE:Paradies;
#SUBTITLE:;
#ARTIST:Ben Bada Boom;
#TITLETRANSLIT:;
#SUBTITLETRANSLIT:;
#ARTISTTRANSLIT:;
#GENRE:;
#CREDIT:;
#BANNER:;
#BACKGROUND:;
#LYRICSPATH:;
#CDTITLE:;
#MUSIC:Ben-Bada-Boom-Paradies (ddr mix).ogg;
#OFFSET:-0.062000;
#SAMPLESTART:31.365999;
#SAMPLELENGTH:12.500000;
#SELECTABLE:YES;
#BPMS:0.000000=184.000000
;
#STOPS:
;
#BGCHANGES:;
#KEYSOUNDS:;
#ATTACKS:;

//---------------dance-single - ----------------
#NOTES:
     dance-single:
     :
     Beginner:
     2:
     0.125886,0.221924,0.139138,0.129862,0.000000,95.000000,80.000000,15.000000,14.000000,0.000000,0.000000,0.125886,0.221924,0.139138,0.129862,0.000000,95.000000,80.000000,15.000000,14.000000,0.000000,0.000000:
0000
0000
0000
0000
,
0000
0000
0000
0000
,
0000
0000
0000
0000
,
0000
0000
0000
0000
,
0000
0000
0000
0000
,
0000
0000
0000
0000
,
0000
0000
0000
0000
,
0000
0000
0000
0000
,
0000
0000
0000
0000
,
0000
0000
0000
0000
,
0000
0000
0000
0000
,
0000
0000
0000
0000
,
1000
0000
0001
0000
,
0000
0000
1000
0000
,
0001
0000
0100
0000
,
0000
0000
1001
0000
,
0000
0000
0010
0000
,
0000
0000
0100
0000
,
0000
0000
0110
0000
,
0000
0000
0001
0000
,
0000
0000
0110
0000
,
0000
0000
1001
0000
,
0000
0000
0001
0000
,
0000
0000
1000
0000
,
1000
0000
1000
0000
,
0000
0000
0110
0000
,
0000
0000
0110
0000
,
0000
0000
1001
0000
,
0000
0000
0011
0000
,
0000
0000
1000
0000
,
0000
0000
0100
0000
,
0000
0000
0001
0000
,
1000
0000
1000
0000
,
0000
0000
1001
0000
,
0000
0000
1001
0000
,
0000
0000
0100
0000
,
0000
0000
0110
0000
,
0000
0000
0010
0000
,
0010
0000
0010
0000
,
0000
0000
0110
0000
,
0000
0000
2000
0000
,
3000
0000
0002
0000
,
0003
0000
2000
0000
,
3000
0000
0020
0000
,
0030
0000
0200
0000
,
0300
0000
0010
0000
,
0010
0000
0200
0000
,
0300
0000
0010
0000
,
0100
0000
0002
0000
,
0003
0000
1000
0000
,
0000
0000
0200
0000
,
0300
0000
1001
0000
,
0000
0000
0200
0000
,
0300
0000
0001
0000
,
0000
0000
2000
0000
,
3000
0000
0001
0000
,
1000
0000
1000
0000
,
1000
0000
1000
0000
,
0001
0000
0001
0000
,
0001
0000
0001
0000
,
0000
0000
0200
0000
,
0300
0000
0010
0000
,
0010
0000
0010
0000
,
0000
0000
0100
0000
,
0200
0000
0000
0000
,
0000
0000
0300
0000
,
0000
0000
0000
0000
,
0020
0000
0000
0030
,
0000
0000
1000
0000
,
0100
0000
0010
0000
,
0000
0000
1000
0000
,
0010
0000
1000
0000
,
0000
0000
1001
0000
,
0000
0000
0100
0000
,
0010
0000
0100
0000
,
0000
0000
0011
0000
,
0000
0000
1000
0000
,
0000
0000
0010
0000
,
0200
0000
0000
0000
,
0000
0000
0000
0300
;

//---------------dance-single - ----------------
#NOTES:
     dance-single:
     :
     Easy:
     4:
     0.215994,0.332887,0.139138,0.306103,0.000000,163.000000,148.000000,15.000000,33.000000,0.000000,0.000000,0.215994,0.332887,0.139138,0.306103,0.000000,163.000000,148.000000,15.000000,33.000000,0.000000,0.000000:
0000
0000
0000
0000
,
0000
0000
0000
0000
,
0000
0000
0000
0000
,
0000
0000
0000
0000
,
0002
0000
0000
0003
,
2000
0000
0000
3000
,
0000
0100
0010
0100
,
0000
0001
0001
0000
,
1001
0000
0200
0000
,
0300
0010
0100
0000
,
0001
0000
2000
0000
,
3020
0000
0000
0000
,
0230
0000
0302
0000
,
0003
1000
1000
0000
,
0010
0000
0100
0000
,
0200
0000
0300
0000
,
0010
1000
0001
0000
,
1010
0000
1001
0000
,
0001
1000
0010
0000
,
0110
0000
0110
0000
,
1000
0001
0100
0000
,
0101
0000
1001
0000
,
0010
0010
0100
0000
,
0110
0000
1001
0000
,
0100
0000
2000
3000
,
0000
1000
1000
0000
,
0001
0000
0001
0000
,
0000
1000
0001
0000
,
0100
0000
0202
0000
,
0303
1000
0001
0000
,
1000
0000
0010
0000
,
0100
0000
0010
0000
,
0100
0100
0100
0000
,
0001
0001
0001
0000
,
1000
1000
1000
0000
,
0001
0001
0001
0000
,
0100
0100
0010
0000
,
0000
0100
0010
0000
,
0001
0001
1000
0000
,
0000
0001
1000
0000
,
0000
0100
0100
0100
,
0000
0000
0020
0030
,
0000
1000
0001
1000
,
0000
0000
0002
0003
,
0000
0100
0200
0000
,
0300
0010
0010
0000
,
0000
1000
2000
0000
,
3000
0001
0001
0000
,
1000
0000
0220
0000
,
0330
0001
1000
0000
,
0000
0010
0010
0010
,
0000
0100
0100
0000
,
0000
0001
1000
0001
,
2000
0000
3000
0000
,
0000
0001
0100
0001
,
0200
0000
0300
0000
,
0020
0000
0230
0000
,
0300
0000
0100
0000
,
0000
0001
0001
0001
,
0000
1000
0010
0000
,
0000
0100
0200
0000
,
0300
0010
0010
0000
,
0000
1000
2000
0000
,
3000
0001
0001
0000
,
0200
0000
0320
0000
,
0030
0000
0000
0000
,
0000
0000
0000
0000
,
0002
0000
0003
0000
,
0200
0000
0300
0000
,
0020
0000
0030
0000
,
0200
0000
0300
0000
,
0002
0000
0003
0000
,
2000
0000
3000
0000
,
0000
0010
0010
0000
,
0110
0000
1001
0000
,
0000
1000
0001
0000
,
1001
0000
0110
0000
,
0000
0100
0010
0000
,
2000
0000
0000
3000
,
0002
0000
0000
0003
;

//---------------dance-single - ----------------
#NOTES:
     dance-single:
     :
     Medium:
     5:
     0.319354,0.371033,0.204068,0.222620,0.000000,241.000000,219.000000,22.000000,24.000000,0.000000,0.000000,0.319354,0.371033,0.204068,0.222620,0.000000,241.000000,219.000000,22.000000,24.000000,0.000000,0.000000:
// measure 0
0000
0000
0000
0000
,  // measure 1
0000
0000
0000
0000
,  // measure 2
0000
0000
0000
0000
,  // measure 3
0000
0000
0000
0000
,  // measure 4
0110
0000
0000
0000
,  // measure 5
0110
0000
0110
0000
,  // measure 6
0110
0000
1001
0000
,  // measure 7
1001
0000
1001
0000
,  // measure 8
1001
0100
0020
0000
,  // measure 9
0130
0001
0100
0010
,  // measure 10
2000
0000
3001
0010
,  // measure 11
0100
1000
0100
0001
,  // measure 12
0100
1000
0002
0000
,  // measure 13
1003
0010
0100
0010
,  // measure 14
0110
0000
1001
0000
,  // measure 15
0002
1000
1003
0000
,  // measure 16
0010
0100
0020
0130
,  // measure 17
0020
0030
1000
0001
,  // measure 18
0000
1000
0100
0001
,  // measure 19
0100
1000
0010
0100
,  // measure 20
0000
0100
0100
0001
,  // measure 21
0001
1000
0010
0100
,  // measure 22
0000
0001
0200
0310
,  // measure 23
0200
0300
0010
1000
,  // measure 24
0000
0001
1000
0001
,  // measure 25
1000
0001
1000
0000
,  // measure 26
0001
1000
0001
0001
,  // measure 27
2000
0000
3010
0000
,  // measure 28
0100
0100
0100
0001
,  // measure 29
1000
0001
0001
1000
,  // measure 30
0010
0000
0100
0000
0001
0000
0000
1000
,  // measure 31
0000
0010
0110
0000
,  // measure 32
1000
1000
1001
0001
,  // measure 33
2000
0000
3001
0001
,  // measure 34
0010
0100
2000
0001
,  // measure 35
3002
0000
1003
0000
,  // measure 36
0010
0100
0020
1000
,  // measure 37
2030
0000
3001
0001
,  // measure 38
0100
0010
2000
0001
,  // measure 39
3002
0000
1003
0010
,  // measure 40
0000
0000
1000
0010
,  // measure 41
0000
1000
0010
1000
,  // measure 42
0010
0100
0001
0100
,  // measure 43
0000
0001
0100
0000
,  // measure 44
1000
0100
0010
0001
,  // measure 45
1000
0000
0001
0000
,  // measure 46
0001
0010
0100
1000
,  // measure 47
0001
0000
0100
0000
,  // measure 48
1001
0000
0001
1000
,  // measure 49
0000
0001
0010
0001
,  // measure 50
1000
0100
1000
0010
,  // measure 51
0000
0100
0001
0000
,  // measure 52
1000
0100
0010
0001
,  // measure 53
1000
0000
0001
0000
,  // measure 54
0001
0010
0100
1000
,  // measure 55
0001
0000
0010
0000
,  // measure 56
0002
0000
2003
0000
,  // measure 57
3010
0000
0100
0100
,  // measure 58
0100
0001
0100
0001
,  // measure 59
0100
0010
1000
0001
,  // measure 60
1000
0010
0100
0000
,  // measure 61
0101
0000
0001
1000
,  // measure 62
0010
0100
0010
0000
,  // measure 63
1001
0000
1000
0001
,  // measure 64
2000
0000
3020
0000
,  // measure 65
0000
0000
0000
0000
,  // measure 66
0030
0000
0000
0000
,  // measure 67
0200
0000
0000
0000
,  // measure 68
0310
0000
0000
0100
0000
0000
0110
0000
,  // measure 69
0110
0000
1000
0001
,  // measure 70
0100
0000
0000
0010
0000
0000
0110
0000
,  // measure 71
0110
0000
0001
1000
,  // measure 72
0010
0000
0000
0100
0000
0000
0100
0000
,  // measure 73
0010
0000
1001
0000
,  // measure 74
1000
0000
0000
0010
0000
0000
0100
0000
,  // measure 75
0001
0000
0002
0000
,  // measure 76
1003
0000
0000
0010
0000
0000
0100
0000
,  // measure 77
0010
0000
0020
0000
,  // measure 78
1030
0000
0000
0001
0000
0000
0000
0000
,  // measure 79
1001
0000
2001
0000
,  // measure 80
3000
0000
0000
0000
;

//---------------dance-single - ----------------
#NOTES:
     dance-single:
     :
     Hard:
     8:
     0.520772,0.596900,0.408137,0.380309,0.018552,393.000000,349.000000,44.000000,41.000000,0.000000,0.000000,0.520772,0.596900,0.408137,0.380309,0.018552,393.000000,349.000000,44.000000,41.000000,0.000000,0.000000:
0000
0000
0000
0000
,
0000
0000
0000
0000
,
0000
0000
0000
0000
,
2000
0000
0000
3000
,
0002
0000
0023
0000
,
2030
0000
3020
0000
,
0130
0100
0100
0010
,
0010
0010
1000
0000
,
1001
0000
0110
0000
,
1000
0001
1001
0000
,
0200
0300
0000
0000
0110
0000
0000
0000
,
0002
0000
1003
0100
,
0101
0000
2000
0000
,
3001
1000
0001
0100
,
0110
1000
1002
0000
,
2003
0000
3001
0010
,
1100
0000
0010
0100
0010
0000
0001
1000
,
0002
0000
1000
0000
1003
0001
0100
0000
,
0000
0000
0010
0100
0020
0000
0130
0010
,
0200
0310
0110
1000
,
0001
0000
1000
0010
1001
0000
0001
0100
,
0020
0000
0000
0000
0130
0010
0100
0000
,
0001
0000
1000
0010
0200
0000
0310
0100
,
0002
0000
1000
0000
1003
0010
0200
0000
,
0300
0000
0110
0000
0210
0000
0310
0100
,
0020
0000
1030
0000
1001
0010
0100
0000
,
0101
0000
1000
0000
1000
0001
1000
0001
,
0001
0000
0100
0000
0101
0000
0010
0100
,
0110
0000
1000
0001
1000
0001
0100
0010
,
0200
0000
0010
0000
0301
1000
0010
0000
,
0110
0000
0001
0000
0100
0000
0010
0100
,
0000
0000
0100
0010
0010
0000
0000
0000
,
1001
0000
0001
1000
0002
0000
1003
0001
,
1000
1001
0011
0001
,
1100
0000
0010
0100
0020
0000
0130
0010
,
0100
0011
1001
0010
,
0110
0000
1000
0001
1000
0001
0100
0010
,
0200
0000
0310
0000
0110
0010
0010
0000
,
0100
0000
0001
1000
0001
1000
1000
0001
,
0200
0000
0301
0000
0110
0100
0100
0000
,
0001
0000
0100
0000
0010
0100
0000
0001
0000
0001
0000
0000
,
1000
0110
0110
0000
,
1000
0001
0100
0010
0001
0000
0100
0000
,
0001
0101
0101
0000
,
1000
0000
0010
0100
0002
0000
1000
1000
,
1003
0000
0010
0010
0100
0000
0001
1000
,
0010
0000
0100
0010
0010
0000
0100
0001
,
0001
0000
1000
0010
0001
0000
0000
0000
,
1000
0000
0011
0001
,
1000
0010
0100
0000
0011
0001
1000
0000
,
0001
1000
0001
1000
1000
0001
0001
0000
,
0100
0010
0100
0010
1000
0001
1000
0000
,
0011
0000
1000
0001
1000
0000
0001
1000
,
0001
0000
1000
0001
0100
0010
0100
0000
,
0001
1000
0010
0100
0001
0000
1000
0001
,
0010
0000
0001
1000
0001
0100
0010
0000
,
0100
0100
0100
0100
,
0100
0000
0010
0100
0000
0010
0100
0010
,
0100
0001
1000
1001
,
0001
0100
0110
0010
,
2000
3001
0002
1003
,
0020
0130
0002
1003
,
0010
0100
0001
0100
,
0010
0000
1000
0001
0100
0001
1000
0000
,
0002
0000
0103
0010
0100
0000
0010
0100
,
0020
0000
0000
0000
1030
0001
0100
0000
,
0002
0000
1000
0000
1003
0000
0010
0100
,
0002
0000
0000
0003
,
1001
0000
0100
0010
1001
0000
0001
0000
,
0220
0000
0330
0000
0010
0100
1000
0000
,
0010
0000
1000
0010
0001
0000
1000
0100
,
0020
0000
0000
0000
0031
1000
0010
0000
,
1000
0000
0000
0001
0100
0000
0101
0000
,
1010
0000
0100
0010
0200
0000
0310
0000
,
0110
0000
1000
0001
0001
0000
0100
0000
,
0010
1001
0110
0000
,
0100
0000
0000
0010
0100
0000
0100
0000
,
0110
0000
1000
0001
0100
0000
0000
0000
,
0001
0000
0000
1000
0020
0000
0230
0000
,
0302
0003
2000
0000
,
0000
0000
0000
0000
0000
0000
0000
3000
0000
0000
0000
0000
0000
0000
0000
0000
;

//---------------dance-single - ----------------
#NOTES:
     dance-single:
     :
     Challenge:
     8:
     0.632082,0.669947,0.278275,0.278275,0.000000,477.000000,447.000000,30.000000,30.000000,0.000000,0.000000,0.632082,0.669947,0.278275,0.278275,0.000000,477.000000,447.000000,30.000000,30.000000,0.000000,0.000000:
0000
0000
0000
0000
,
0000
0000
0000
0000
,
0000
0000
0000
0000
,
0000
0000
0000
0000
,
0000
0000
0001
0000
1000
0010
0100
0010
,
1000
0000
0001
0001
1000
1000
0001
0001
,
0010
0000
0100
1000
0100
1000
0001
0010
,
0001
0010
0100
1000
0010
0100
0010
0000
,
0101
0000
0001
1000
0002
0000
1003
0001
,
0000
1000
0010
0000
0100
0100
0010
0000
,
0110
0000
1000
0001
0010
0000
1000
0000
,
0002
0010
0100
1003
,
0002
0000
1000
0000
0103
0000
0010
0100
,
0000
0010
0100
0010
0100
0000
0001
1000
,
0001
0000
1000
0010
0001
0010
1000
0000
,
0001
0010
0001
0010
0001
0000
1000
0100
,
0011
0000
0001
0010
1001
0000
0100
0010
,
0200
0000
0310
0000
0010
0100
0010
0000
,
1001
0000
1000
0001
1000
0001
1000
0010
,
0001
0000
1000
0001
,
0101
0000
1000
0100
1000
0100
0010
0001
,
2000
0000
3001
0010
0001
0010
0001
1000
,
0010
0000
0100
0010
0100
0010
1000
0001
,
0100
0000
0001
1000
0010
0100
0010
0100
,
1000
0000
0000
0000
0001
0100
0001
0100
,
0001
0000
0010
1000
0010
0000
1010
0000
,
0100
0001
0000
0000
0100
0001
0100
0001
,
0100
0000
0010
1000
0010
0000
1000
0000
,
0101
0000
0001
1000
0020
0000
1000
0000
,
1030
0100
0010
0001
1000
0001
0100
0000
,
0001
0000
0100
0000
0010
0000
0100
0020
,
0000
0130
0010
0100
0110
0000
0000
0000
,
1001
1000
0100
0010
0001
1000
0010
0100
,
0002
0000
1003
0000
0001
0010
0100
0000
,
1001
0000
1000
0100
0010
0001
0010
0100
,
1000
0001
1000
0001
0100
0000
0001
0000
,
1001
0000
0010
0100
1000
0000
0100
0010
,
0002
0000
1003
0010
0100
0001
2000
0000
,
3000
0000
0100
0010
0001
1000
0010
0100
,
0002
0000
0000
0000
1003
0100
0010
0000
,
1000
0000
0001
0010
0200
0000
1300
0001
,
0000
0010
0001
0010
0001
1000
0010
0010
,
1000
0000
0001
0010
0001
1000
0100
1000
,
0000
1000
0100
1000
0010
0010
1000
0000
,
0011
1001
1100
1001
,
0101
0000
0010
0001
0010
0100
0010
0100
,
1000
0000
1000
0100
1000
0100
1000
0001
,
0010
0000
0001
1000
0001
0010
0001
1000
,
0010
0000
0100
0000
0100
0010
0100
0010
,
0100
0001
1000
0001
0010
0001
0100
0010
,
0100
0000
0001
1000
0001
1000
0010
0001
,
0010
1000
0100
0010
0001
0100
0010
1000
,
0001
1000
1000
0001
0100
0010
0100
0001
,
1000
1000
0010
0100
0100
0001
0100
0010
,
0100
0001
0001
0010
1000
0010
0001
0100
,
0010
0010
1000
0100
0100
0010
0001
0000
,
2000
0000
0001
0001
3000
0000
0010
0001
,
0010
0000
0001
1000
0001
0100
0010
0100
,
0001
0000
1000
0000
1100
0000
1010
0100
,
0010
0001
1000
0000
0001
0100
0001
0000
,
1000
0000
0001
0010
0200
0000
1300
0010
,
0200
0000
0301
0010
2000
0000
3010
0001
,
0200
0000
0302
0003
2000
3000
0020
0030
,
0200
0300
0020
0030
0200
0300
0002
0003
,
2000
3000
0010
0010
0010
0000
0100
0100
,
0100
0000
0001
1000
0001
1000
0001
0000
,
0000
0000
1000
0001
1000
0000
0001
0100
,
0002
0000
0000
0003
,
1001
0000
0010
0100
1001
0000
0010
0100
,
1001
0000
0100
0010
1001
0100
0010
0000
,
1001
0000
0010
0100
1010
0000
1000
0100
,
0011
0000
0001
1000
0001
1000
0001
0000
,
1100
0000
0010
0100
0010
0100
0010
0000
,
0100
0000
0010
1000
0200
0000
0310
0000
,
1000
0001
0000
0001
0100
0001
1000
0000
,
0010
0000
0100
0010
0100
0000
0000
0000
,
0110
0000
0100
0010
0100
0010
1000
0001
,
1000
0000
0001
1000
0020
0000
0030
0000
,
0110
0000
0100
0010
0000
0100
0010
0100
,
0010
0000
1000
0010
2002
0000
0000
0000
,
0000
3003
0000
0000
;
