#TITLE:MY LUV (SAINT PEPSI REMIX);
#SUBTITLE:;
#ARTIST:EEST COAST;
#TITLETRANSLIT:;
#SUBTITLETRANSLIT:;
#ARTISTTRANSLIT:;
#GENRE:;
#CREDIT:;
#BANNER:;
#BACKGROUND:;
#LYRICSPATH:;
#CDTITLE:;
#MUSIC:EEST COAST MY LUV (SAINT PEPSI REMIX).mp3;
#OFFSET:-0.249000;
#SAMPLESTART:51.932999;
#SAMPLELENGTH:12.000000;
#SELECTABLE:YES;
#BPMS:0.000000=116.000000
;
#STOPS:
;
#BGCHANGES:;
#KEYSOUNDS:;
#ATTACKS:;

//---------------dance-single - ----------------
#NOTES:
     dance-single:
     :
     Edit:
     7:
     0.429381,0.432118,0.198081,0.559795,0.107653,349.000000,326.000000,23.000000,65.000000,0.000000,0.000000,0.429381,0.432118,0.198081,0.559795,0.107653,349.000000,326.000000,23.000000,65.000000,0.000000,0.000000:
1000
0000
0000
0010
0000
0000
0100
0000
0001
0000
0000
0000
0002
0000
0003
0000
,
0000
0000
0000
1000
0000
0000
0010
0000
1000
0000
0000
0000
0001
0000
0000
0000
,
1000
0000
0000
0001
0000
0000
0100
0000
0010
0000
0000
0000
0200
0000
0300
0000
,
0000
0000
0000
0001
0000
0000
1000
0000
0001
0000
0000
0000
0100
0000
0000
0000
,
0011
0000
0000
1000
0000
0000
0001
0000
0010
0000
0000
0000
0210
0000
0300
0000
,
0001
0000
0000
0010
0000
0000
0100
0000
0010
0000
0000
0000
0110
0000
0000
0000
,
0010
0000
0000
1000
0000
0000
0010
0000
0100
0000
0000
0000
0020
0000
0030
0000
,
1000
0000
0000
0001
0000
0000
1000
0000
0100
0000
0000
0000
1000
0000
0000
0000
,
1002
0013
2000
3200
,
0310
0000
0001
0000
0100
0010
0100
0010
,
0200
0302
0103
1010
,
2000
0000
3200
0000
0310
0001
0010
0001
,
0020
0031
0200
0310
,
1000
0000
0100
0000
0010
0001
0010
0001
,
1000
0100
0010
0001
,
2000
0000
3100
0000
0010
0001
0010
0100
,
0010
0000
0001
1000
0100
0010
0002
0003
,
1000
0100
1000
0100
0010
0001
0020
0030
,
1000
0100
0001
1000
0100
0010
0002
0003
,
0010
0100
1000
0010
0100
0010
0020
0030
,
0001
0010
0001
0010
0100
1000
0200
0300
,
0011
0000
0101
0000
0100
0001
0200
0300
,
1001
0000
1010
0000
0100
0010
0200
0300
,
1000
0001
1000
0100
0020
0032
0203
0320
,
1030
0000
0001
0000
1000
0000
0001
1000
0001
0000
0010
0000
0020
0000
0000
0030
,
0001
0000
1000
0000
0001
0000
0100
0001
0010
0000
0010
0000
1000
0000
0100
0000
,
2000
0000
3010
0000
0200
0000
0310
0000
0200
0300
0000
0000
0001
0000
0010
0000
,
0001
0000
0100
0000
0010
0000
0100
0000
0200
0300
0000
0000
0100
0000
0010
0000
,
1000
0100
0020
0030
0001
0010
0001
0010
,
0002
2003
3200
0300
0010
0001
0010
0001
,
2000
3200
0302
0003
0100
0010
0100
0010
,
0002
0023
2030
3000
0010
0100
0010
0100
,
1001
0000
0100
0000
0010
0000
0100
0010
0100
0000
0000
0000
2000
0000
0000
0000
,
3010
0000
0010
0000
0100
0000
0001
0001
0100
0000
0000
0000
0010
0000
0001
0000
,
0002
1003
0100
1000
0010
0000
1000
0010
,
0110
0100
0100
0001
1000
0000
1000
0010
,
0101
0100
0010
0010
0100
0000
0100
0010
,
1000
0010
1000
0001
0001
0000
0001
0100
,
0010
0100
0010
1000
1000
0000
1000
0100
,
0010
0001
1000
0100
0002
0003
0001
0000
,
2020
0030
0002
0003
3002
0000
0203
0301
,
0020
0000
2030
0001
3020
0000
2030
0000
,
3200
0000
0000
0002
0003
0000
0302
0000
0000
2000
3000
0000
,
2003
0000
3020
1000
0230
0000
0300
0000
,
0010
0000
0000
0100
0000
0000
0001
0000
0000
0011
0000
0000
0001
0000
0000
0000
,
1000
0000
0000
0010
0000
0000
0100
0000
0210
0000
0000
0000
0000
0000
0300
0000
,
2000
0000
3000
0000
0002
0000
0003
0000
0100
0010
0100
0000
0010
0000
0000
0000
,
0020
0100
0130
0001
,
1001
0000
0010
0000
1100
0000
0010
0100
,
0101
0000
0000
0010
0000
0000
0100
0000
0110
0000
0000
0100
0000
0000
0001
0000
,
1000
0000
0010
0000
1100
0000
0010
0100
,
0011
0000
0000
1000
0000
0000
0100
0000
1000
0000
0000
0001
0000
0000
0010
0000
,
0110
0000
0000
0100
0000
0000
0001
0000
0000
0010
0000
0000
1000
0000
0010
0000
,
0100
0000
0000
1000
0000
0000
0100
0000
0002
0000
0000
0100
0000
0000
0010
0000
,
1003
0000
0100
0000
0001
0000
0100
0000
0010
0000
0000
0001
0000
0000
1000
0000
,
0210
0000
0301
0001
;
