#TITLE:Lost Story;
#SUBTITLE:;
#ARTIST:Hatsune Miku;
#TITLETRANSLIT:;
#SUBTITLETRANSLIT:;
#ARTISTTRANSLIT:;
#GENRE:;
#CREDIT:;
#BANNER:;
#BACKGROUND:Lost Story-bg.png;
#LYRICSPATH:;
#CDTITLE:;
#MUSIC:Lost Story.ogg;
#OFFSET:0.411000;
#SAMPLESTART:20.488001;
#SAMPLELENGTH:18.000000;
#SELECTABLE:YES;
#BPMS:0.000000=180.000000
;
#STOPS:
;
#BGCHANGES:;
#KEYSOUNDS:;
#ATTACKS:;

//---------------dance-single - ----------------
#NOTES:
     dance-single:
     :
     Challenge:
     10:
     0.831013,1.032534,0.540159,0.083101,0.469523,700.000000,635.000000,65.000000,10.000000,0.000000,0.000000,0.831013,1.032534,0.540159,0.083101,0.469523,700.000000,635.000000,65.000000,10.000000,0.000000,0.000000:
// measure 0
0000
0000
0000
0000
,  // measure 1
0000
0000
0000
0000
,  // measure 2
0000
0000
0000
0000
,  // measure 3
0000
0000
0000
0000
,  // measure 4
0000
0000
0000
0000
0010
0100
0010
1000
,  // measure 5
0010
0100
0010
1000
0001
0010
0001
0100
,  // measure 6
0001
1000
0001
0010
0100
0010
0001
0100
,  // measure 7
1000
0000
0100
0000
0001
0000
0010
0000
0200
0000
0000
0000
0000
0000
0000
0300
,  // measure 8
0000
0000
0000
0000
1000
0001
1000
0001
0100
0000
0000
0000
1001
0000
0010
0000
,  // measure 9
1001
0100
0011
0001
0011
0000
1100
0100
,  // measure 10
1010
0100
0011
0001
0110
0100
1100
0010
,  // measure 11
1001
0100
0011
0001
1001
0000
1001
0000
,  // measure 12
0010
0001
0010
0001
0010
0001
0000
0000
0110
0000
0010
0000
0110
0000
0001
0000
,  // measure 13
0110
1000
0110
0001
1100
0001
1100
0001
,  // measure 14
0110
0000
1000
0100
1000
0000
0001
0000
0110
0000
1000
0000
1010
0000
0001
0000
,  // measure 15
1010
0000
0100
0000
1001
0000
0010
0000
1001
0000
0000
0000
0000
0000
0100
0010
,  // measure 16
0100
0000
0000
0000
0010
0000
0100
0000
0110
0000
0000
0000
0100
0000
0010
0100
,  // measure 17
0010
0000
0000
1000
0001
0100
0010
0100
0000
0000
0000
0000
1100
0000
0010
0000
,  // measure 18
0001
0000
0100
0000
0100
0000
0010
0000
0110
0000
0000
0000
0100
0000
0010
1000
,  // measure 19
0010
0000
0000
0100
0001
1000
0001
0100
0000
0000
0000
0000
0010
0001
0010
0001
,  // measure 20
0100
0010
0100
0010
0100
0000
0000
0000
1001
0000
0010
0000
0100
0000
0010
0100
,  // measure 21
0010
0000
1100
0200
0000
0300
0010
0002
,  // measure 22
0000
0000
0003
0000
1000
0000
0010
1000
0010
0000
0000
0000
0100
0001
0100
0010
,  // measure 23
0100
0000
0000
0000
0001
0010
0001
0000
0000
0000
0000
0000
0100
0000
0000
0000
,  // measure 24
0110
0000
0100
0010
0100
0010
0100
0001
1000
0000
0000
0000
1000
0000
0010
0100
,  // measure 25
0010
0000
0000
0100
0010
0100
0010
0100
0000
0000
0000
0000
0011
0000
0100
0000
,  // measure 26
1100
0000
0010
0000
0011
0000
0100
0000
0110
0000
0100
0001
0100
0000
0001
0010
,  // measure 27
0001
0000
0000
1000
0010
1000
0010
1000
0000
0000
0000
0000
0010
0000
1000
0000
,  // measure 28
0010
0000
0100
0000
0001
0100
0001
0100
0001
0000
0010
0000
0100
0000
0010
0100
,  // measure 29
0010
0000
0000
0000
0100
0001
0100
0001
1000
0000
0000
0000
1000
0001
1000
0001
,  // measure 30
1000
0000
0000
0000
0010
0100
0001
0100
0010
0000
0000
0000
0010
0000
1000
0000
,  // measure 31
0010
0000
0100
0000
0100
0000
0010
1000
0010
0000
1000
0000
0100
0000
0010
0000
,  // measure 32
0001
0000
0100
0001
0100
0000
0010
0000
0010
0000
0100
0000
0100
0000
0001
1000
,  // measure 33
0001
0000
0100
0000
0010
0000
0100
0010
0100
0000
0100
0000
0001
0000
1000
0000
,  // measure 34
1000
0000
0100
0010
0001
0000
0000
0000
1000
0000
0010
0000
0010
0000
0100
0010
,  // measure 35
0100
0000
0010
0000
0010
0000
0010
1000
0010
0000
1000
0000
0001
0000
0100
0000
,  // measure 36
0010
0000
0100
0001
0100
0000
0000
0000
0011
0000
0000
0000
0010
0000
0100
0000
,  // measure 37
0010
0000
0100
0000
1000
0000
0010
1000
0010
0000
0100
0000
0100
0000
0001
0000
,  // measure 38
0001
0000
0010
0000
0100
0000
1001
0000
0010
0001
0010
0000
0100
0000
0110
0000
,  // measure 39
0000
0000
0000
0000
1000
0000
0010
0100
0010
0000
1000
0000
0001
0000
0000
0000
,  // measure 40
1000
0000
0010
0100
0010
0000
0101
0000
0000
0000
0010
0000
1000
0000
0100
0000
,  // measure 41
0000
0000
0010
0000
0100
0000
0110
0000
0000
0000
0001
1000
0001
0000
0000
0000
,  // measure 42
1000
0010
0100
0110
0000
0000
0100
0101
,  // measure 43
0000
0010
0100
0000
0000
0010
0100
0000
0000
0001
1000
0000
0000
0001
0010
0000
,  // measure 44
0000
0010
0001
0000
0000
0000
0100
0000
0000
0000
0000
0000
0010
0000
0010
1000
,  // measure 45
0001
0000
0000
0000
0100
0000
0010
0000
0000
0000
0010
0100
0010
0000
0000
0000
,  // measure 46
1000
0000
0001
0000
0010
0000
0110
0000
1000
0100
0010
0000
0001
0000
0001
0000
,  // measure 47
1000
0100
0010
0000
0010
0000
0110
0000
0000
0000
0000
0000
0001
0000
1000
0001
,  // measure 48
0100
0000
0000
0000
1000
0000
1001
0000
0001
0100
0010
0000
0100
0000
0001
0000
,  // measure 49
0100
0010
1000
0000
0100
0000
0100
0000
0000
0000
0100
0000
0100
0000
0010
0000
,  // measure 50
0000
0000
0000
0000
0010
0000
1000
0000
0010
0000
0000
0000
0100
0000
0001
0100
,  // measure 51
0001
0100
0000
0010
0000
0100
0000
0001
,  // measure 52
0000
0000
0010
0000
0000
0000
0110
0000
0000
0000
0000
0000
1000
0000
0010
1000
,  // measure 53
0010
0000
0000
0000
0010
0000
0100
0000
0010
0000
0100
0010
0100
0000
0001
0100
,  // measure 54
0010
0000
0010
0010
0010
0000
0000
0000
,  // measure 55
2000
0000
3002
0000
,  // measure 56
0013
0000
0000
0000
0002
0000
0000
0100
,  // measure 57
0203
0000
0310
0000
,  // measure 58
2000
0000
0000
0000
0000
0000
0000
0000
3010
0000
0000
0000
0100
0000
0010
1000
,  // measure 59
0001
0000
0001
0001
0000
1000
1000
0010
,  // measure 60
0000
0000
0000
0000
0100
0000
0010
0000
0110
0000
0000
0000
0001
1000
0001
0000
,  // measure 61
0100
0000
0000
0000
0010
0000
1000
0100
0010
0000
0000
0000
0010
0000
0100
0000
,  // measure 62
0010
0000
0000
0000
0001
0000
0100
0000
0010
0000
0100
0010
0100
0000
0001
0010
,  // measure 63
0100
0001
0100
0001
0000
0000
1000
0010
,  // measure 64
0100
0000
0000
0000
0100
0000
0010
0000
0110
0000
1000
0100
0010
0000
0100
1000
,  // measure 65
0010
0100
0001
0100
0000
0010
0100
0010
,  // measure 66
1000
0000
0100
0000
0010
0000
0001
0000
0011
0000
1000
0010
1000
0000
0100
0010
,  // measure 67
0100
0000
0000
0000
1000
0010
0100
0001
0100
0000
0000
0000
0001
0010
0001
1000
,  // measure 68
0001
0000
0100
0000
0001
0000
0001
0000
0001
0000
0000
0000
1000
0001
1000
0100
,  // measure 69
1000
0001
0100
0001
0100
0000
0010
0000
0000
0000
0000
0000
0010
0000
0100
0010
,  // measure 70
0100
0000
0000
0000
0001
1000
0001
0100
0001
0000
1000
0000
0001
0000
0010
0001
,  // measure 71
0100
0000
0010
0100
0010
0000
0100
0000
0000
0000
0000
0000
0010
0000
0010
0000
,  // measure 72
0100
0000
0001
0010
0001
0000
1000
0000
1001
0000
0010
0000
0100
0000
0010
1000
,  // measure 73
0100
0000
0001
0100
1000
0000
0010
0000
0000
0000
0000
0000
0001
0000
1000
0000
,  // measure 74
0001
0000
0100
0000
0010
0000
0101
0000
1000
0000
0010
0100
0010
0000
0100
0010
,  // measure 75
0100
0000
0001
0000
0001
0000
1000
0000
0000
0000
0000
0000
0010
0100
0010
1000
,  // measure 76
0010
1000
0001
0100
0001
0100
0001
0000
0020
0000
0000
0000
0031
0000
0100
0001
,  // measure 77
0100
0000
0001
0010
0001
0010
0100
1000
,  // measure 78
0010
0000
0100
0000
0001
0010
0001
1000
0001
0000
0001
0000
1000
0000
1000
0010
,  // measure 79
0100
0001
0001
0010
0100
0010
0001
0100
,  // measure 80
0010
0000
0001
0000
0010
0000
1000
0000
1001
0000
0001
0000
0001
0000
1000
0010
,  // measure 81
1000
0010
0100
0010
0101
0101
0011
0011
,  // measure 82
0110
0000
0110
0000
1100
0000
1100
0000
0110
0000
0000
0000
0001
0000
0100
0001
,  // measure 83
0100
0001
0011
0011
0000
1000
0001
1000
,  // measure 84
0010
0000
0010
0000
0100
0000
0011
0000
1001
0000
0000
0000
0100
0000
0001
1000
,  // measure 85
0001
1000
0100
1000
0100
0100
1000
0001
,  // measure 86
0001
0100
0010
0100
0020
0000
0000
0000
,  // measure 87
0000
0000
0000
0000
,  // measure 88
0000
0000
0000
0030
;

//---------------dance-single - ----------------
#NOTES:
     dance-single:
     :
     Hard:
     9:
     0.555592,0.700648,0.440437,0.257614,0.062326,468.000000,415.000000,53.000000,31.000000,0.000000,0.000000,0.555592,0.700648,0.440437,0.257614,0.062326,468.000000,415.000000,53.000000,31.000000,0.000000,0.000000:
0000
0000
0000
0000
,
0000
0000
0000
0000
,
0000
0000
0000
0000
,
0000
0000
0000
0000
,
0000
0000
0000
0000
0100
0000
0001
0001
,
0100
0010
1000
0010
1000
0000
0001
1000
,
0001
0010
0100
1000
0001
0000
0001
0010
,
0001
1000
0010
0100
0020
0000
0000
0000
,
0000
0030
0110
0101
,
0101
0101
1010
1010
,
1100
1100
0110
1001
,
1001
0000
1001
0000
0001
0010
0001
0000
,
0001
0010
0001
0010
0001
0000
0000
0000
1001
0000
0000
0000
1001
0000
0010
0000
,
0100
0010
0100
0010
0001
0000
0101
0010
,
1000
0010
1000
0100
0010
0000
1100
0100
,
0010
0001
0100
0000
0101
0000
0001
0000
,
0100
0000
0000
0000
0010
0000
0100
0000
0010
0000
0000
0000
0000
0000
0010
0100
,
0010
0000
0100
0100
0000
0000
0001
0000
,
0001
0000
0000
0000
1000
0000
0100
0000
1000
0000
0000
0000
0000
0000
1000
0010
,
1000
0000
0001
0001
0000
0000
0101
0000
,
0101
0000
0000
0000
0010
0000
0100
0000
0010
0000
0000
0000
0000
0000
0100
0001
,
0100
0000
0010
0010
0000
0000
1000
1000
,
0000
0001
1000
0001
2000
0000
0000
3000
,
0010
0000
0100
0010
0000
0000
0110
0000
,
0110
0000
1000
0010
0200
0000
0301
0001
,
0000
0000
0010
0010
0000
0000
1100
0000
,
1100
0000
0010
0100
0020
0000
0130
0100
,
0000
0000
0010
0010
0000
0000
1001
0000
,
1001
0000
0001
0100
0001
0000
0010
0020
,
0000
0030
0100
0200
0000
0300
0001
2000
,
0000
3000
0010
0100
0010
0000
1000
0001
,
0100
0000
0100
0001
0010
0010
0100
0000
,
0010
0100
0010
0000
1001
0000
0010
1000
,
0010
0000
0100
0010
0010
1000
0100
0000
,
0100
1000
1001
0000
0001
0000
0010
0001
,
1000
0000
0010
0100
0010
0100
0001
0000
,
0001
1000
0001
0000
1001
0000
0010
0010
,
0100
0000
0000
0010
1000
0010
1000
0000
,
0010
0000
0100
0020
0000
0030
1000
0001
,
0100
0000
0010
2000
0000
3000
0001
0000
,
0010
0000
0010
0002
0000
0003
1000
0200
,
0000
0300
1000
0001
0000
0000
1001
0000
,
0100
0000
0010
0200
0000
0300
0010
0001
,
0000
1000
0000
1010
0000
1010
0000
0110
,
0000
1001
0000
2002
0000
3003
1000
0100
,
0010
0000
0100
0010
0001
0000
0100
0010
,
0100
0000
0001
1000
1001
0000
0001
0100
,
0010
0000
0100
0010
0000
0010
0100
0000
,
0110
0000
1000
0001
0001
0000
0100
0010
,
0100
0000
0001
0020
0000
0030
0001
0001
,
0000
0000
1000
1000
0000
0000
0010
0100
,
0000
0001
0000
0010
0000
0100
0000
1000
,
0000
0010
0000
0100
0000
0000
0000
0010
,
0100
0000
0010
0100
1000
0000
0001
0000
,
0001
0000
1000
0001
2000
0000
0000
0000
,
3020
0000
0230
0000
,
0302
0000
0000
0000
2003
0000
0000
0001
,
3002
0000
2003
0000
,
3020
0000
0130
0000
,
0110
0000
0010
0000
0100
0000
0010
0100
,
0000
0100
0010
0000
1001
0000
0000
1100
,
1100
0000
0000
0011
0011
0000
0000
0000
,
0010
0000
0000
0000
0100
0000
0100
0000
1000
0000
0000
0000
0001
0010
0001
0010
,
0001
0000
1000
0001
0000
0000
0011
0000
,
0011
0000
0000
0000
0100
0000
0010
0000
0110
0000
0000
0000
0100
0001
0100
0001
,
0100
0000
0001
0100
0000
0000
0110
0000
,
1010
0000
0100
0001
0100
0000
0001
0200
,
0000
0300
0001
0020
0000
0030
0001
2002
,
0000
3003
0010
0010
0200
0000
0000
0000
,
0301
0000
1000
0001
0000
0000
0001
0000
,
1000
0010
1000
0010
1000
0010
1000
0010
1000
0000
0000
0000
0001
0000
0002
0000
,
0000
0003
1000
0010
0000
0000
0100
0000
,
0101
0000
0000
0000
0001
0000
0010
0000
0001
0000
0000
0000
1000
0010
1000
0010
,
1000
0000
0001
1000
0000
0000
0010
0000
,
0110
0000
1000
0001
1000
0000
0010
0010
,
0000
0000
0100
0100
0000
0000
0001
0001
,
0000
0000
1000
0001
0200
0000
0000
0000
,
0310
0000
0100
0100
,
0010
0000
0000
1000
1001
0000
0001
0010
,
0001
1000
0010
1000
0001
0000
0001
0010
,
0100
0010
0001
0000
1001
0000
0010
0100
,
1000
0010
0100
0000
0001
1000
0001
1000
,
0010
0100
0010
0100
0010
0000
1000
0100
,
0010
0100
1000
0001
0100
0000
0001
0010
,
0001
0100
0010
0000
0101
0000
1000
0001
,
1000
1000
0001
0000
1000
0010
0100
0001
,
0100
0001
0100
0000
0020
0000
0000
0000
,
0000
0000
0000
0000
,
0000
0000
0000
0030
;

//---------------dance-single - ----------------
#NOTES:
     dance-single:
     :
     Medium:
     7:
     0.460619,0.661902,0.315785,0.290855,0.000000,388.000000,350.000000,38.000000,35.000000,0.000000,0.000000,0.460619,0.661902,0.315785,0.290855,0.000000,388.000000,350.000000,38.000000,35.000000,0.000000,0.000000:
0000
0000
0000
0000
,
0000
0000
0000
0000
,
0000
0000
0000
0000
,
0000
0000
0000
0000
,
0000
0000
0100
0001
,
0100
0010
0100
0010
0100
0000
0001
0000
,
1000
0001
1000
0001
1000
0000
0001
0000
,
1000
0010
0100
0010
0200
0000
0000
0000
,
0000
0300
0110
0110
,
0110
0110
1001
1001
,
1001
1001
0101
0101
,
0101
0000
0101
0000
0001
0100
0001
0000
,
1000
0010
0010
0000
1000
0000
1001
0000
,
0010
0100
0010
0000
0100
0000
0101
0000
,
0001
1000
0010
0000
1000
0000
1010
0000
,
0010
0100
0010
0000
0100
0000
0101
0000
,
0100
0000
0010
0200
0000
0000
0310
0200
,
0000
0000
0310
0100
0000
0000
0001
0000
,
1000
0000
0001
0200
0000
0000
0301
0200
,
0000
0000
0301
1000
0000
0000
0100
0000
,
0010
0000
0010
2000
0000
0000
3001
0200
,
0000
0000
0310
0200
0000
0000
0301
0002
,
0000
0000
1003
0001
2000
0000
0000
3000
,
0010
0000
0100
0010
0000
0000
0100
0000
,
0100
0000
1000
0002
0000
0000
1003
0020
,
0000
0000
0130
0100
0000
0000
1000
0000
,
1000
0000
0001
0020
0000
0000
0031
0200
,
0000
0000
0310
1000
0000
0000
1000
0000
,
0001
0000
0001
0200
0000
0000
0310
0200
,
0000
0300
0010
2000
0000
3000
0010
0200
,
0000
0300
0010
0200
0010
0000
0000
0000
,
0001
0000
0310
0100
,
0010
0000
0000
0200
0000
0000
0010
0000
,
0010
0000
0300
0000
0010
1000
0010
0000
,
0100
0100
0001
0000
0001
0000
1000
0000
,
1001
0000
0000
0100
0010
0000
0100
0000
,
0001
0001
0001
0000
1000
0000
0010
0000
,
0110
0000
0000
0010
1000
0000
1000
0000
,
0010
0000
0100
0020
0000
0030
1000
0002
,
0000
0003
0010
0200
0000
0300
1000
0000
,
0010
0000
0100
0002
0000
0003
1000
0200
,
0000
0300
1000
0002
0000
0003
1000
0000
,
0100
0000
1000
0010
0000
0000
0010
0100
,
0000
0001
0000
0010
0000
0001
0000
0100
,
0000
0001
0000
2000
0000
3000
0000
0010
,
0010
0000
0100
0100
0000
0010
0100
0000
,
0010
0000
1000
0001
1000
0000
0001
0100
,
0000
0000
0100
0010
0100
0010
0100
0000
,
0110
0000
0001
1000
0001
0000
0010
0100
,
0000
0000
1000
0100
1000
0100
1000
0000
,
0001
0000
1000
0001
0000
0000
0010
0100
,
0000
1000
0000
0100
0000
0010
0000
0001
,
0000
0100
0000
0010
0000
0000
0000
0000
,
0100
0000
0010
0100
0000
0000
0010
0000
,
1000
0000
0001
1000
0002
0000
0000
0000
,
0023
0000
0230
0000
,
2300
0000
0000
0000
3001
0000
0000
1000
,
0001
0000
0100
0000
,
0010
0000
0110
0000
,
0100
0000
0010
0000
0100
0000
0010
0100
,
0000
0010
1001
0000
,
1100
0000
0011
0100
,
1000
0000
0010
0100
0000
0000
0001
0100
,
0000
0000
1000
0001
0000
0000
0010
0000
,
0011
0000
0100
0010
0100
0000
0001
0100
,
0000
0000
0001
0010
0000
0000
0100
0000
,
0010
1000
0010
0000
0101
0000
0001
0100
,
0000
0000
0001
1000
0000
0000
1000
0001
,
0000
0000
0100
0100
0100
0000
0000
0000
,
0001
0000
1000
0001
0000
0000
0101
0000
,
1000
0100
1000
0000
0101
0000
0001
0100
,
0001
0000
0100
0001
0000
0000
0100
0001
,
0100
0000
0001
0000
1010
0000
0100
0010
,
0100
0000
0001
1000
0000
0000
0010
0000
,
0110
0000
1001
0000
1100
0000
1000
0100
,
1000
0000
0001
0100
0000
0000
0001
1000
,
0001
1000
0202
0000
,
0303
0000
0100
0000
,
0010
0000
0000
2000
0000
0000
0001
0000
,
3001
1000
0010
0000
0101
0000
0001
0000
,
0001
1000
0100
0000
1001
0000
0010
0100
,
0010
0100
0010
0000
1000
0100
0001
0100
,
1000
1010
0110
0001
,
1000
0100
1000
0000
1001
0000
0001
0100
,
0001
0100
0001
0000
0101
0000
0100
0000
,
0010
0100
0010
0000
1000
0100
1000
0100
,
0001
0100
1000
0000
0020
0000
0000
0000
,
0000
0000
0000
0000
,
0000
0000
0030
0000
;

//---------------dance-single - ----------------
#NOTES:
     dance-single:
     :
     Easy:
     5:
     0.265924,0.366685,0.207753,0.207753,0.000000,224.000000,199.000000,25.000000,25.000000,0.000000,0.000000,0.265924,0.366685,0.207753,0.207753,0.000000,224.000000,199.000000,25.000000,25.000000,0.000000,0.000000:
0000
0000
0000
0000
,
0000
0000
0000
0000
,
0000
0000
0000
0000
,
0000
0000
0000
0000
,
0000
0000
0010
1000
,
0001
0001
1000
0000
,
0010
0000
0100
0001
,
0100
0010
2000
0000
,
0000
3000
1001
0000
,
0101
0000
0110
0000
,
0101
0000
1010
0000
,
1100
0000
0110
0000
,
2001
0000
3001
0001
,
1000
1000
0010
0010
,
0100
0100
0010
0100
,
0010
0100
0010
0000
,
0100
0000
1001
0000
,
0010
0000
0000
0100
0000
0000
0100
0000
,
0001
1000
1001
0000
,
0001
0000
0000
0001
0000
0000
1000
0000
,
1000
0001
1001
0000
,
1000
0000
0000
1000
0000
0000
0010
0000
,
0010
0000
0200
0000
,
0310
0000
0000
0010
0000
0000
0000
0000
,
1000
0000
1010
0000
,
0100
0000
0000
0100
0000
0000
0000
0000
,
0100
0100
0100
0000
,
0101
0000
0000
0001
0000
0000
0000
0000
,
0001
0010
0100
0000
,
1000
0000
0000
1000
0000
0000
0001
0000
,
0001
0001
2000
0000
,
0000
0000
3020
0000
,
0000
0000
0230
0000
,
0000
0000
0302
0000
,
0000
0000
1003
0000
,
0010
0000
0100
0100
,
0000
0100
0100
0001
,
0001
0000
0100
0001
,
0000
0000
1100
0000
,
0001
0000
0100
0010
,
0000
0100
0000
0000
0001
0000
1000
0000
,
0001
0000
0010
0001
,
0000
0010
0000
0000
0100
0000
0000
0000
,
1000
0000
1000
0010
,
0000
1000
0000
0000
0010
0000
0000
0000
,
0100
0000
0010
0100
,
0010
0100
0001
0000
,
0101
0000
0010
0100
,
1000
0001
1000
0000
,
1000
0000
0100
0010
,
0001
1000
0100
0000
,
0010
0000
0200
0000
,
0320
0000
0130
0000
,
0110
0000
0100
0001
,
0010
0001
0200
0000
,
0302
0000
2003
0000
,
3020
0000
2030
0000
,
3002
0000
0203
0000
,
0320
0000
0130
0000
,
0100
0010
0100
0000
,
0011
0000
1001
0000
,
1100
0000
2002
0000
,
3003
0000
0110
0000
,
0001
0000
0000
1000
0000
0000
0000
0000
,
0010
0100
0001
0000
,
0001
0000
0000
1000
0000
0000
0000
0000
,
0100
0100
0010
0000
,
0001
0000
0000
0001
0000
0000
1000
0000
,
0010
0000
0020
0000
,
0030
0000
0000
0100
0000
0000
0000
0000
,
0001
1000
1001
0000
,
1000
0000
0000
0001
0000
0000
0000
0000
,
0010
0100
0010
0000
,
1000
0000
0000
0010
0000
0000
0000
0000
,
0100
0100
0100
0000
,
0001
0000
0000
1000
0000
0000
0000
0000
,
0001
0000
2002
0000
,
0000
0000
3003
0000
,
0000
0000
0220
0000
,
0000
0000
0330
0000
,
1000
0000
0100
0010
,
0010
0001
1000
0000
,
0010
0000
0100
0001
,
0001
1000
0001
0000
,
0010
0000
1000
0001
,
0010
0100
1000
0000
,
0110
0000
2000
0000
,
0000
0000
0000
0000
,
0000
3000
0000
0000
;

//---------------dance-single - ----------------
#NOTES:
     dance-single:
     :
     Beginner:
     3:
     0.112780,0.182823,0.058171,0.083101,0.000000,95.000000,88.000000,7.000000,10.000000,0.000000,0.000000,0.112780,0.182823,0.058171,0.083101,0.000000,95.000000,88.000000,7.000000,10.000000,0.000000,0.000000:
0000
0000
0000
0000
,
0000
0000
0000
0000
,
0000
0000
0000
0000
,
0000
0000
0000
0000
,
0000
0000
0000
0000
,
0000
0000
0000
0000
,
0000
0000
0000
0000
,
0000
0000
0000
0000
,
0000
0000
1000
0000
,
0000
0000
0001
0000
,
0000
0000
0100
0000
,
0000
0000
0001
0000
,
0000
0000
1000
0000
,
0010
0000
1000
0000
,
0010
0000
1000
0000
,
0001
0000
0100
0000
,
0000
0000
1000
0000
,
1000
0000
0000
0000
,
0001
0000
0000
0000
,
0001
0000
0000
0000
,
1000
0000
1000
0000
,
0010
0000
0000
0000
,
0000
0000
0220
0000
,
0000
0000
0330
0000
,
0000
0000
1000
0000
,
0001
0000
0000
0000
,
1000
0000
0001
0000
,
0001
0000
0000
0000
,
0010
0000
0010
0000
,
0010
0000
0000
0000
,
0100
0000
0100
0000
,
0000
0000
0000
0000
,
0000
0000
0010
0000
,
0000
0000
0000
0000
,
0000
0000
0100
0000
,
0000
0000
0010
0000
,
0000
0000
0001
0000
,
0000
0000
1000
0000
,
0000
0000
0001
0000
,
0000
0000
1000
0000
,
0000
0000
0110
0000
,
0000
0000
0100
0000
,
0000
0000
0110
0000
,
0000
0000
0010
0000
,
0000
0000
1001
0000
,
0000
0000
1000
0000
,
1000
0000
1000
0000
,
0000
0000
0001
0000
,
0000
0000
1001
0000
,
0000
0000
0010
0000
,
0010
0000
1000
0000
,
0000
0000
0001
0000
,
0000
0000
0010
0000
,
0000
0000
0100
0000
,
0000
0000
2000
0000
,
0000
0000
3000
0000
,
0000
0000
0002
0000
,
0000
0000
0003
0000
,
0000
0000
2000
0000
,
0000
0000
3000
0000
,
0000
0000
0100
0000
,
0100
0000
0100
0000
,
0000
0000
1001
0000
,
0000
0000
0000
0000
,
0100
0000
0100
0000
,
0100
0000
0000
0000
,
0010
0000
0010
0000
,
0010
0000
0000
0000
,
0000
0000
1000
0000
,
1000
0000
0000
0000
,
0000
0000
0001
0000
,
0100
0000
0001
0000
,
0100
0000
0001
0000
,
0100
0000
0001
0000
,
0000
0000
1000
0000
,
0100
0000
1000
0000
,
0100
0000
1000
0000
,
0001
0000
1000
0000
,
0000
0000
0002
0000
,
0000
0000
0000
0000
,
1003
0000
2000
0000
,
0000
0000
0000
0000
,
3000
0000
0020
0000
,
0000
0000
0000
0000
,
0130
0000
0200
0000
,
0000
0000
0000
0300
,
0000
0000
0201
0000
,
0000
0000
0000
0000
,
0300
0000
0000
0000
;
