#TITLE:Just Chill;
#SUBTITLE:;
#ARTIST:Smooth;
#TITLETRANSLIT:;
#SUBTITLETRANSLIT:;
#ARTISTTRANSLIT:;
#GENRE:;
#CREDIT:;
#BANNER:;
#BACKGROUND:;
#LYRICSPATH:;
#CDTITLE:;
#MUSIC:Smooth - Just Chill.ogg;
#OFFSET:-0.036000;
#SAMPLESTART:37.799999;
#SAMPLELENGTH:10.600000;
#SELECTABLE:YES;
#BPMS:0.000000=76.986000
;
#STOPS:
;
#BGCHANGES:;
#KEYSOUNDS:;
#ATTACKS:;

//---------------dance-single - ----------------
#NOTES:
     dance-single:
     :
     Medium:
     4:
     0.229299,0.222134,0.050955,0.140127,0.019108,126.000000,122.000000,4.000000,11.000000,0.000000,0.000000,0.229299,0.222134,0.050955,0.140127,0.019108,126.000000,122.000000,4.000000,11.000000,0.000000,0.000000:
0100
0000
0000
0000
0000
0000
0000
0010
0000
0000
0000
0000
0000
0000
0000
0000
0100
0000
0000
0000
0000
0000
0000
0000
0000
0000
0000
1000
0000
0000
0000
0000
,
0001
0000
0000
0000
0000
0000
0000
1000
0000
0000
0000
0000
0000
0000
0000
0000
0010
0000
0000
0000
0000
0000
0000
0000
0001
0000
0000
0000
0000
0000
0000
0000
,
0200
0300
0100
0010
0010
0000
0100
0001
,
0100
0000
1000
1000
1000
0000
0001
0000
,
0110
0000
0010
0000
0100
0010
0100
0000
,
0010
0010
0100
0100
0000
0010
0000
0100
,
1000
0000
0001
0100
0001
0000
1000
0100
,
1000
0000
0200
0300
0010
0000
0101
0000
,
0010
0000
0100
0000
0001
0010
0100
0000
,
0010
0010
0000
0000
0100
0100
0010
0000
,
1000
0010
0100
0000
0010
0100
0010
0000
,
0001
1000
0001
0000
0001
0100
0010
0100
,
0110
0000
0001
0000
1000
0010
0100
0000
,
0100
0001
0100
0001
0010
0001
0100
0020
,
0030
0100
0000
0000
0010
1000
0000
0010
,
0100
0010
0000
0100
0100
0001
0000
2000
,
3000
0002
0103
0000
0010
0010
0010
0000
,
0100
0100
0010
0000
1000
0100
0010
0020
,
0030
1000
0000
0001
0000
0100
0010
0100
,
0010
0100
0001
0100
0001
0000
1000
0002
,
0003
0100
0000
0010
0100
0000
1000
0001
,
0100
0010
0100
0010
,
0202
0303
2000
3000
,
0002
0003
0000
0000
;

//---------------dance-single - ----------------
#NOTES:
     dance-single:
     :
     Hard:
     8:
     0.425842,0.399841,0.140127,0.280255,0.509554,234.000000,223.000000,11.000000,22.000000,0.000000,0.000000,0.425842,0.399841,0.140127,0.280255,0.509554,234.000000,223.000000,11.000000,22.000000,0.000000,0.000000:
// measure 0
1000
0000
0000
0000
0000
0010
0000
0000
0000
0100
0000
0001
0000
0000
0000
1000
0000
0000
0000
0000
0010
0000
0000
0100
,  // measure 1
0001
0000
0000
0000
0000
0000
0000
0000
0000
0000
1000
0000
0000
0000
0000
0000
0000
0000
0010
0000
0000
0100
0000
0000
0010
0000
0000
0000
0000
0000
0100
0000
0000
0001
0000
0000
0010
0000
0000
0001
0000
0000
0100
0000
0000
0010
0000
0000
,  // measure 2
0200
0000
0000
0001
0000
0000
0301
0000
0000
0000
0000
0000
0001
0000
0000
1000
0000
0000
0001
0000
0000
0000
0000
0000
0010
0000
0000
0000
0000
0000
0100
0000
0000
0000
0100
0000
0010
0000
0000
0000
0000
0000
0001
0000
0000
0010
0000
0000
,  // measure 3
0001
0000
0000
0000
0000
0000
0000
0000
0000
0000
1000
0000
0001
0000
0000
0000
0000
0000
0010
0000
0000
0100
0000
0000
0010
0000
0000
0000
0000
0000
1000
0000
0000
0000
0100
0000
0001
0000
0000
0000
0000
0000
0001
0000
0000
0100
0000
0000
,  // measure 4
0010
0000
0000
0000
0000
0000
0001
0000
0000
0000
0000
0000
0000
0000
0000
0010
0000
0000
0000
0000
0000
0000
0000
0000
0100
0000
0000
0000
0000
0000
0010
0000
0000
0100
0000
0000
0010
0000
0000
0000
1000
0000
0000
0000
0000
0000
0001
0000
,  // measure 5
0100
0001
0100
0000
0010
1000
0100
0000
0011
0000
0010
0000
1100
0000
1000
0001
,  // measure 6
0101
0000
0010
0000
0100
0010
0010
0000
0010
0000
0100
0000
0010
0100
0001
0000
,  // measure 7
0010
0001
0010
0100
0202
0303
0010
0000
,  // measure 8
0100
0000
0000
0020
0000
0000
0030
0000
0000
0010
0000
0100
0010
0000
0000
0101
0000
0000
0010
0000
1000
0000
0000
0100
,  // measure 9
0001
0000
0000
0200
0000
0000
0300
0000
0000
0010
0000
0000
1000
0000
0001
0000
0010
0000
0100
0000
0000
0000
0000
0000
,  // measure 10
1000
0000
0000
0000
0000
0000
0010
0000
0000
0000
0000
0000
0010
0000
0000
0100
0000
0000
0000
0000
0000
0000
0000
0000
0010
0000
0000
0100
0000
0000
0010
0000
0000
0100
0000
0000
0020
0000
0000
0030
0100
0000
0000
0000
0000
0000
0001
0000
,  // measure 11
1000
0000
0000
0000
0000
0000
0010
0000
0000
0000
1000
0000
0000
0000
0000
0000
0000
0000
0010
0000
0000
0100
0000
0000
0001
0000
0000
0000
0000
0000
0100
0000
0000
0000
0001
0000
0000
0000
0000
0000
0000
0000
1000
0000
0000
1000
0000
0000
,  // measure 12
0010
0000
0000
0000
0000
0000
0200
0000
0000
0000
0000
0000
0310
0000
0000
0000
0000
0000
0100
0000
0000
0000
0000
0000
0100
0000
0000
0000
0000
0000
0001
0000
0000
0100
0000
0000
0001
0000
0000
0000
1000
0000
0000
0000
0000
0000
0010
0000
,  // measure 13
0100
0000
0010
0100
0000
0001
0010
0000
0001
1000
0000
0010
0100
0000
0010
0100
0000
0100
0001
0000
0000
2020
0000
0000
,  // measure 14
3030
0000
0000
0000
0000
0000
0202
0000
0000
0000
0000
0000
0303
0000
0000
0000
0000
0000
0010
0000
0000
0001
0000
0000
0100
0000
0000
0000
0000
0000
0001
0000
0000
0000
0100
0000
0000
0000
0000
0000
0010
0000
0000
0000
0000
0000
0100
0000
,  // measure 15
0010
0000
0000
0000
0000
0000
1000
0000
0000
0000
0001
0000
0000
0000
0000
0000
0001
0000
0000
0000
0000
0000
0000
0000
0100
0000
0000
0010
0000
0000
1000
0000
0000
0001
0000
0000
0010
0000
0000
0100
0000
0000
0020
0000
0000
0000
0000
0000
,  // measure 16
0030
0000
0000
0200
0000
0000
0301
0000
0000
0001
0000
0010
0001
0000
0010
0001
0000
0000
1000
0000
0000
0000
0000
0000
,  // measure 17
0001
0000
1000
0010
0000
0100
0001
0000
0001
0010
0000
0010
0001
0000
1000
0001
0000
0100
0001
0000
0000
0002
0000
0000
,  // measure 18
1003
0000
0000
0020
0000
0000
0130
0000
0000
0100
0000
0000
0010
0000
0000
0100
0000
0010
0000
0000
0100
0000
0000
1000
,  // measure 19
0001
0000
0000
0000
0000
0000
0010
0000
0000
0000
0001
0000
0000
0000
0000
0000
1000
0000
0000
0000
0000
0000
0001
0000
0010
0000
0000
0001
0000
0000
1000
0000
0000
0010
0000
0000
1000
0000
0000
0000
0000
0000
0202
0000
0000
0000
0000
0000
,  // measure 20
0303
0000
0000
0220
0000
0000
0330
0000
0000
0100
0000
0010
0000
0000
0000
0100
0000
0000
0010
0000
1000
0000
0000
0001
,  // measure 21
0100
0000
0000
0000
0000
0000
0010
0000
0000
0000
0100
0000
0010
0000
0000
0000
0000
0000
1000
0000
0000
0000
0001
0000
0100
0000
0000
0000
0000
0000
0011
0000
0000
0000
0000
0000
1010
0000
0000
0000
0000
0000
0100
0000
0000
0001
0000
0000
,  // measure 22
0200
0301
0020
1030
,  // measure 23
0200
0301
0000
0000
;

//---------------dance-single - ----------------
#NOTES:
     dance-single:
     :
     Easy:
     2:
     0.105551,0.118471,0.050955,0.203822,0.000000,58.000000,54.000000,4.000000,16.000000,0.000000,0.000000,0.105551,0.118471,0.050955,0.203822,0.000000,58.000000,54.000000,4.000000,16.000000,0.000000,0.000000:
0100
0000
0000
0000
,
0100
0000
0010
0000
,
0100
0001
0001
0000
,
0001
1000
1000
0000
,
1001
0000
0010
0100
,
0010
0000
1000
0001
,
0001
0000
0100
0000
,
0010
0000
1000
0000
,
0001
0000
0010
0000
,
1000
0000
0010
0010
,
0100
0000
0010
0000
,
1000
0000
0010
0000
,
0200
0300
0002
0003
,
2000
3000
0020
0030
,
0200
0000
0302
0000
,
2003
0000
3010
0010
,
0010
0000
0200
0300
,
0002
0003
1000
0001
,
2000
0000
3002
0000
,
0023
0030
0010
0001
,
2000
3000
0010
0000
,
0101
0000
1010
0000
,
0201
0000
0302
0000
,
2000
3003
0000
0000
;
