#TITLE:Jacuzzi Love (Ocean View Cybermall Remix);
#SUBTITLE:;
#ARTIST:Mike Tenay;
#TITLETRANSLIT:;
#SUBTITLETRANSLIT:;
#ARTISTTRANSLIT:;
#GENRE:Vaporwave;
#CREDIT:;
#BANNER:;
#BACKGROUND:;
#LYRICSPATH:;
#CDTITLE:;
#MUSIC:Mike Tenay - Jacuzzi Love (Ocean View Cybermall Remix).mp3;
#OFFSET:-0.213000;
#SAMPLESTART:0.910000;
#SAMPLELENGTH:14.000000;
#SELECTABLE:YES;
#DISPLAYBPM:109.000000;
#BPMS:0.000000=109.249001
;
#STOPS:
;
#BGCHANGES:;
#KEYSOUNDS:;
#ATTACKS:;

//---------------dance-single - ----------------
#NOTES:
     dance-single:
     :
     Easy:
     3:
     0.190328,0.216498,0.122127,0.099922,0.000000,120.000000,109.000000,11.000000,9.000000,0.000000,0.000000,0.190328,0.216498,0.122127,0.099922,0.000000,120.000000,109.000000,11.000000,9.000000,0.000000,0.000000:
0000
0100
1001
0000
,
1010
0000
0101
0001
,
1000
0100
0010
0001
,
0100
0001
1000
0001
,
0101
0000
0010
0000
,
0020
0000
0230
0300
,
0002
0003
1000
0001
,
1000
0000
0001
1000
,
0001
0000
0100
0010
,
0100
0010
0100
0002
,
0000
1003
0000
0001
,
0100
0000
0001
1000
,
0010
0000
0100
0100
,
0100
0000
0010
0001
,
0010
0000
1000
1000
,
0001
0001
1000
0001
,
0100
0000
0010
0100
,
0100
0001
1000
0001
,
0200
0300
0001
0001
,
0001
0000
1000
1000
,
0100
0000
1000
0100
,
0100
0000
0010
0010
,
0001
0000
0200
0000
,
0320
0000
0130
0000
,
0100
0000
0001
0000
,
0001
0000
1000
0001
,
1000
0001
0100
0000
,
1001
0000
0100
0100
,
0100
0000
0110
0000
,
0010
0010
0010
0010
,
2000
0000
3000
0001
,
1000
0000
0010
1000
,
0010
0000
0100
0000
,
0010
0000
0100
0010
,
0200
0300
1001
0000
,
0100
0000
0010
0000
,
0110
0000
1000
0000
,
1010
0000
1100
0000
,
0001
0000
0101
0000
,
0001
0000
0000
0000
;

//---------------dance-single - ----------------
#NOTES:
     dance-single:
     :
     Medium:
     6:
     0.361623,0.391570,0.188742,0.077717,0.227601,228.000000,211.000000,17.000000,7.000000,0.000000,0.000000,0.361623,0.391570,0.188742,0.077717,0.227601,228.000000,211.000000,17.000000,7.000000,0.000000,0.000000:
0000
0110
0100
0000
,
0100
0000
0010
0110
,
1001
0000
0000
0110
0000
0000
0000
0000
0100
0000
0001
0000
0100
0000
0000
0000
,
0010
0000
0000
0100
0000
0000
0010
0000
0100
0000
0001
0000
0100
0000
0000
0000
,
1001
0000
0000
1001
0000
0000
0000
0000
0100
0000
0001
0000
0010
0000
0000
0000
,
0100
0000
0000
1000
0000
0000
0000
0000
0001
0000
0100
0000
0001
0000
0000
0100
,
0000
0100
0000
0100
0000
0000
0010
0000
0100
0000
0001
0000
0100
0000
0000
0000
,
1000
0000
0000
0001
0000
0000
0000
0000
0100
0000
0010
0000
0100
0000
0000
0000
,
0001
0000
0000
1000
0000
0000
0000
0000
0100
0000
0010
0000
0001
0000
0000
1000
,
0000
1000
0000
1000
0000
0000
0000
0000
0001
0000
0100
0000
0101
0000
0000
0000
,
0100
0000
0000
0101
0000
0000
0000
0000
1000
0000
0100
0000
2001
0000
0000
0000
,
3001
0000
0000
0100
0000
0000
0010
0000
0100
0000
0001
0000
0100
0000
0001
0000
,
1000
0000
0000
1001
0000
0000
0100
0000
1001
0000
0100
0000
0101
0000
0000
0000
,
0010
0000
0000
1000
0000
0000
0001
0000
0100
0000
0001
0000
0010
0000
0000
0000
,
0001
0000
0000
1001
0000
0000
1000
0000
0100
0000
0010
0000
0002
0000
0000
0000
,
0103
0000
0000
0100
0000
0000
0010
0000
0100
0000
0001
0000
2000
0000
0000
0000
,
3001
0000
0000
0100
0000
0000
0000
0000
0110
0000
0010
0000
1000
0000
0100
0000
,
0010
0001
1000
0001
0100
0010
0000
0000
,
0100
0000
0000
0010
0000
0000
0000
0000
0100
0000
0001
0000
0100
0000
0001
0000
,
1000
1000
0000
0000
0010
0100
0001
0000
,
1000
0000
0000
0100
0000
0000
0000
0000
1001
0000
0100
0000
0100
0000
0000
0000
,
0001
0000
0000
1000
0000
0000
0000
0000
1000
0000
0100
0000
0001
0000
0100
0000
,
1000
0000
0000
0001
0000
0000
0000
0000
0100
0000
0001
0000
1000
0000
0001
0000
,
0100
0000
0000
0001
0000
0000
0000
0000
0010
0000
1000
0000
0100
0000
0001
0000
,
1000
0000
0000
0010
0000
0000
0000
0000
0001
0000
1000
0000
0010
0000
0000
0000
,
0100
0000
0000
0101
0000
0000
0000
0000
1000
0000
0100
0000
0010
0000
0000
0000
,
1000
0000
0000
0100
0000
0000
0000
0000
1000
0000
0000
0000
0001
0000
0001
0000
,
1000
0000
0000
0001
0000
0000
0000
0000
1000
0000
0010
0000
0001
0000
0000
0000
,
1000
0000
0000
0200
0000
0000
0300
0000
0000
0000
0000
0000
0010
0000
0000
0000
,
0001
0000
0000
0100
0000
0000
0000
0000
0010
0000
0100
0000
0010
0000
0000
0000
,
0100
0000
0000
1001
0000
0000
0000
0000
0010
0000
1000
0000
0100
0000
0000
0000
,
0010
0001
0100
0000
0010
1000
0001
0100
,
0001
0000
0000
0100
0000
0000
0000
0000
0001
0000
0010
0000
1000
0000
0010
0000
,
0001
0000
0000
0100
0000
0000
0000
0000
0002
0000
0000
0000
2003
0000
0000
0000
,
3200
0000
0300
0000
1000
0000
0010
0100
,
0010
0000
0010
0100
0010
0010
0100
0000
,
0001
0000
0000
0001
0000
0000
1000
0000
0001
0000
1000
0000
0001
0000
0000
0100
,
0000
0100
0000
0100
0000
0000
0000
0000
0001
0000
0010
0000
0100
0000
0000
1000
,
0000
1000
0000
1000
0000
0000
0001
0000
0010
0000
0000
0000
0001
0000
0000
0000
,
0100
0000
0000
0001
0000
0000
0000
0000
0000
0000
0000
0000
0000
0000
0000
0000
;

//---------------dance-single - ----------------
#NOTES:
     dance-single:
     :
     Hard:
     9:
     0.574157,0.587356,0.366382,0.233152,0.804929,362.000000,329.000000,33.000000,21.000000,0.000000,0.000000,0.574157,0.587356,0.366382,0.233152,0.804929,362.000000,329.000000,33.000000,21.000000,0.000000,0.000000:
// measure 0
0000
0000
0000
0000
0100
0010
1000
0001
0010
0100
0000
1000
0000
0001
0000
0010
,  // measure 1
0100
0000
0000
1001
0000
0000
0000
0000
0011
0000
0010
0000
0100
0000
0010
0001
,  // measure 2
1000
0010
0100
0001
0000
1000
0010
0100
0010
1000
0000
0001
0000
0100
0000
0110
,  // measure 3
0000
0000
0000
1001
0000
0000
0000
0100
0010
0100
0001
0010
0000
0001
0000
0010
,  // measure 4
0100
0010
0000
0110
0000
0000
0000
0000
0100
0000
0010
0000
0100
0000
0000
0100
,  // measure 5
0000
0100
0000
0101
0000
0000
0000
0000
1000
0000
0100
0000
0010
0000
0100
1000
,  // measure 6
0000
1000
0000
1010
0000
0010
0100
0001
0010
0100
0000
1000
0000
1000
0000
1001
,  // measure 7
0000
0000
1000
0001
2000
0000
3000
0010
0100
0001
0000
1000
0020
1000
0000
1000
,  // measure 8
0000
1000
0000
1000
0030
0000
0000
0000
0100
0000
0010
0000
0001
0000
0000
0100
,  // measure 9
0010
0100
0000
1010
0000
0000
0000
0000
0011
0000
0011
0000
0011
0000
0001
0010
,  // measure 10
0001
0100
0001
0010
0000
0000
0000
0000
0010
0000
0001
0000
0010
0000
0000
0000
,  // measure 11
1100
0000
0000
1100
0000
0000
0000
0100
1000
0000
0100
0000
1000
0000
0000
0000
,  // measure 12
0011
0000
0000
0011
0000
1000
1000
0000
0010
0000
0100
0000
0001
0010
0100
2000
,  // measure 13
3000
0010
0100
0001
0000
0001
0001
0000
1000
0000
0100
0000
0100
0000
1000
0000
,  // measure 14
1000
0000
0020
2000
0030
3000
0000
1000
1000
0000
0001
0000
0010
0000
0000
0000
,  // measure 15
1100
0000
0000
0011
0000
0100
0100
0000
0001
0000
1000
0000
0001
0000
0000
0000
,  // measure 16
0011
0000
0000
0110
0000
1000
1000
0000
0010
0000
0100
0000
0000
0001
0010
0001
,  // measure 17
1000
0100
0010
0000
0002
0000
0000
0103
0100
0010
2000
0000
3001
0000
0010
0001
,  // measure 18
0010
0001
0000
0020
0000
0000
0030
0000
0001
0000
1000
0000
0001
0000
0010
0010
,  // measure 19
0000
0001
1000
1000
0100
0010
0010
0000
0001
0010
0100
0010
0001
1000
0010
1000
,  // measure 20
0001
0100
0001
0010
0000
0000
0010
0000
0001
0000
1000
0000
1010
0000
0001
0000
,  // measure 21
0011
0000
0000
0011
0000
0100
0100
0000
0011
0000
0001
0000
0110
0000
0100
0000
,  // measure 22
0011
0000
0000
1100
0000
0010
0010
0000
0010
0001
0010
0000
0010
0001
0100
0000
,  // measure 23
1010
0000
0000
1000
0100
0000
0000
0000
0011
0000
0010
0000
0100
0010
0100
0000
,  // measure 24
0010
0001
0010
0000
0100
1000
0100
0000
0010
0001
0010
0000
0001
0010
0001
0000
,  // measure 25
1100
0000
0000
0011
0000
0010
0010
0000
0100
0010
0001
0010
0100
0020
0130
0100
,  // measure 26
0100
0000
1000
0200
0000
0000
0300
0000
0001
0000
0000
0000
0010
0100
0000
0100
,  // measure 27
0000
0010
0000
0020
0000
0030
0002
0000
1000
0000
0010
0000
1000
0000
0003
0000
,  // measure 28
0010
0000
0000
2000
0000
0000
0000
0000
3001
0010
0000
0002
0000
0000
0000
0000
,  // measure 29
0100
0000
0000
0100
0000
0000
0000
0000
0100
0000
0100
0000
0203
0000
0000
0000
,  // measure 30
0301
0000
0000
0100
0000
0000
0000
0000
0010
0000
0001
0000
0010
0001
0000
0001
,  // measure 31
0000
0100
0000
0020
0000
0030
2000
0000
0100
0000
0001
0000
0100
0000
3000
0000
,  // measure 32
1000
0000
0000
0002
0000
0000
0000
0000
1003
0100
0000
2000
0000
0000
0000
0000
,  // measure 33
0010
0000
0000
0010
0000
0000
0000
0000
0010
0000
0010
0000
3010
0000
1000
0001
,  // measure 34
0010
0100
1000
0001
0000
1000
0001
0010
0002
0003
0100
0000
0010
0001
0000
1001
,  // measure 35
0000
1000
0100
1000
0000
0001
0010
0001
0000
0000
0010
0000
0100
0010
0000
1001
,  // measure 36
0000
0000
0100
0002
0000
0000
0100
0000
0100
0000
0100
0000
0103
0000
0000
0010
,  // measure 37
0000
0001
0000
1000
0000
1000
0010
0000
0010
0000
0001
0000
0001
0000
0000
1000
,  // measure 38
0000
0010
0000
1000
0000
0001
0010
0100
1000
0000
0010
0000
0100
0001
0000
0010
,  // measure 39
0001
0000
0100
0001
0000
0000
0000
0000
0000
0000
0000
0000
0000
0000
0000
0000
;
