#TITLE:Higurashi no Naku Koro ni Chikai Main Theme;
#SUBTITLE:;
#ARTIST:Eiko Shimamiya;
#TITLETRANSLIT:;
#SUBTITLETRANSLIT:;
#ARTISTTRANSLIT:;
#GENRE:;
#CREDIT:;
#BANNER:Higurashi no Naku Koro ni Chikai Main theme Chikai.png;
#BACKGROUND:;
#LYRICSPATH:;
#CDTITLE:;
#MUSIC:Higurashi no Naku Koro ni Chikai Main theme Chikai.ogg;
#OFFSET:-0.465000;
#SAMPLESTART:10.077001;
#SAMPLELENGTH:12.800000;
#SELECTABLE:YES;
#BPMS:0.000000=124.000000
;
#STOPS:
;
#BGCHANGES:;
#KEYSOUNDS:;
#ATTACKS:;

//---------------dance-single - ----------------
#NOTES:
     dance-single:
     :
     Easy:
     3:
     0.206170,0.246682,0.131199,0.109333,0.000000,132.000000,120.000000,12.000000,10.000000,0.000000,0.000000,0.206170,0.246682,0.131199,0.109333,0.000000,132.000000,120.000000,12.000000,10.000000,0.000000,0.000000:
0000
0000
0000
0000
,
0000
0000
0000
0000
,
0100
0000
0000
0010
0000
0100
0000
0000
,
0010
0000
0000
0100
0000
0001
0000
0000
,
1000
0001
1000
0010
,
0101
0001
1000
0001
,
0000
0000
0100
0000
0000
0010
0000
0010
,
0000
0200
0300
0000
0010
0000
1000
0000
,
1001
0000
0100
0000
,
0020
0000
0030
1000
,
0001
1000
0000
0001
,
0002
0000
0003
0100
,
0010
1000
0000
0001
,
0202
0000
0303
0010
,
1000
0100
0000
0010
,
0000
0010
0000
0100
,
0010
0000
0100
0010
,
0110
0010
0000
0010
,
1000
0000
0001
0000
,
1001
0100
0000
0010
,
0000
0100
0000
0001
,
1000
0001
0000
1000
,
0010
0100
0010
0000
,
1000
0001
1000
0001
,
1001
0000
0000
0010
0000
0010
0000
0000
,
0200
0000
0301
1000
,
0001
0200
0300
0100
,
0010
1000
0001
0001
,
0000
1000
0010
0100
,
0000
0010
0000
0100
,
0000
0001
0000
1000
,
0001
0000
0101
0000
,
0010
0100
0000
0100
,
0010
0100
0000
0101
,
0000
0010
1010
0000
,
0110
0010
0100
0010
,
0100
0000
0010
1000
,
0000
0001
0000
0100
,
0100
0000
0010
0000
,
0200
0000
0302
0003
,
1000
1000
0000
0001
,
1001
0000
0010
0000
,
0100
0000
0100
0000
0000
0010
0000
0010
,
0000
2000
3000
0000
0001
0000
0000
0000
,
0101
0000
0000
0000
1000
0000
0000
0010
,
0000
0010
0000
0000
0000
0000
0000
0000
;

//---------------dance-single - ----------------
#NOTES:
     dance-single:
     :
     Medium:
     5:
     0.335807,0.323351,0.142132,0.065600,0.000000,215.000000,202.000000,13.000000,6.000000,0.000000,0.000000,0.335807,0.323351,0.142132,0.065600,0.000000,215.000000,202.000000,13.000000,6.000000,0.000000,0.000000:
0000
0000
0000
0000
,
0000
0000
0000
0000
,
0100
0000
0010
0000
0100
0010
0000
0100
,
0010
0000
0100
0001
0000
0100
0000
0010
,
0000
0100
0000
0001
0000
1000
0000
0001
,
1001
0000
0010
0000
0100
0010
0001
0000
,
0010
0000
0100
0000
0001
1000
0100
0000
,
0010
0000
0001
0000
1000
0010
0000
0100
,
0110
0000
0100
0000
0010
0100
0000
0010
,
0200
0000
0000
0000
0301
0000
1000
0010
,
0010
1000
0010
0000
0100
0000
0000
0000
,
0002
0000
0000
0000
1003
0000
0010
0100
,
0010
0100
0010
0000
0000
0000
0100
0000
,
0200
0000
0301
1000
,
1001
0101
0010
0100
,
0010
1000
0001
0100
,
0001
0000
0001
1000
0000
0010
0100
0010
,
0110
0000
0010
0000
0000
0100
0000
0010
,
1000
0010
1000
0100
0000
0010
0000
0000
,
0010
0001
0010
0000
0000
0000
0100
0010
,
0010
0010
0100
0000
,
0010
0100
0100
0000
0000
0010
0010
0000
,
0100
0000
0010
0100
0000
0000
1000
0000
,
1001
0101
0010
0100
,
0100
0110
0000
0000
0000
0000
0100
0010
,
0100
0000
0001
1000
0001
0000
0100
0010
,
0100
0000
0010
0010
0000
0000
0100
0000
,
0010
0000
1000
0001
0100
0000
0010
1000
,
1000
0000
0010
0100
0000
0100
0010
0100
,
0000
0001
1000
0010
0000
0100
0100
0100
,
0000
0010
0000
0010
0000
0100
0000
0100
,
0000
0001
0000
0001
0000
1000
0010
0000
,
1000
0000
0010
0100
0000
0010
0000
0000
,
1001
0000
0100
0100
0010
0000
0100
0010
,
0001
0000
1000
0010
0000
1000
0010
0000
,
0100
0000
0001
0001
1000
0000
1000
0001
,
0001
0000
0100
0010
0000
0100
0001
0100
,
0000
0001
0100
0001
0000
1000
0010
1000
,
0000
0010
0000
0010
0000
0200
0300
0002
,
0000
0003
0100
0010
0000
0000
0000
1000
,
0001
0000
0100
0000
0010
0000
0100
0001
,
0010
1000
1010
0100
,
0001
0000
0001
1000
0001
1000
0000
0001
,
0000
0001
0000
1000
0001
0000
0100
0010
,
0100
0000
0110
0000
0000
0101
0000
0101
,
0000
0002
0000
0000
0003
0000
0000
0000
;

//---------------dance-single - ----------------
#NOTES:
     dance-single:
     :
     Hard:
     7:
     0.410778,0.422844,0.240532,0.174932,0.005467,263.000000,241.000000,22.000000,16.000000,0.000000,0.000000,0.410778,0.422844,0.240532,0.174932,0.005467,263.000000,241.000000,22.000000,16.000000,0.000000,0.000000:
// measure 0
0000
0000
0000
0000
,  // measure 1
0000
0000
0000
0000
,  // measure 2
0100
0010
0000
0100
0001
0000
1000
0000
,  // measure 3
0010
0010
0000
0100
0100
0100
0000
0010
,  // measure 4
1000
0010
0000
0100
0001
0100
0000
0010
,  // measure 5
0110
0010
1000
0001
1000
0001
0001
0000
,  // measure 6
1000
0010
0100
0000
0100
0020
0030
0200
,  // measure 7
0300
0002
1003
0010
1000
0000
0001
0001
,  // measure 8
0001
0100
0000
0010
0000
0100
0010
0100
,  // measure 9
2001
0000
0001
0000
0000
0000
3001
1000
,  // measure 10
0001
1000
0010
0000
0100
0000
0010
0100
,  // measure 11
0002
0000
1000
0000
0000
0000
0103
0001
,  // measure 12
0100
0100
0001
0000
1000
0010
0010
0000
,  // measure 13
0210
0000
0001
0000
0000
0000
0301
0001
,  // measure 14
1000
1000
0100
0000
0010
0100
0010
0100
,  // measure 15
0000
0010
0100
0010
0000
1000
0001
1000
,  // measure 16
0000
0001
0000
0001
0000
0100
0100
0010
,  // measure 17
0110
0100
0001
0000
0000
0001
0000
1000
,  // measure 18
0010
1000
0010
0100
0000
0100
0001
0000
,  // measure 19
1001
0010
0100
0000
0000
0010
0000
0100
,  // measure 20
0001
0100
0001
0000
0001
0100
0000
0001
,  // measure 21
0101
0001
1000
0000
0010
0000
0000
0010
,  // measure 22
1000
0100
0010
0001
0000
1000
0000
1000
,  // measure 23
1001
0000
0100
0010
0000
0100
0100
0000
,  // measure 24
0001
1001
0000
0010
0000
0010
0100
0010
,  // measure 25
0100
0000
0011
0001
0200
0000
0301
1000
,  // measure 26
0001
1000
0100
0020
0000
0030
0001
0000
,  // measure 27
1000
0000
0010
0200
0310
0010
0100
0001
,  // measure 28
1000
1000
0001
0001
0000
1000
0010
1000
,  // measure 29
0000
0100
0001
0100
0000
1000
0001
0100
,  // measure 30
0000
0010
0010
0010
0000
0100
0001
0200
,  // measure 31
0000
0000
0300
0000
0001
0000
0100
0000
0000
0000
0000
0000
0000
0000
0000
0100
,  // measure 32
0001
0000
0001
0010
0000
0011
0000
0010
,  // measure 33
0001
0000
1010
0100
0001
0100
0010
0010
,  // measure 34
0100
0001
1000
0002
0000
0003
1000
0001
,  // measure 35
1000
0000
0010
0100
0010
1000
0010
0100
,  // measure 36
0001
0100
0001
0001
0000
1000
1000
1010
,  // measure 37
0000
0100
0100
0101
0000
0010
0010
0011
,  // measure 38
0000
0100
0010
0100
0000
0010
0000
0200
,  // measure 39
0000
0300
0010
0110
0000
0100
0000
0100
,  // measure 40
0002
0003
0100
0002
0003
0100
0010
0000
,  // measure 41
0110
0001
0000
1000
0000
0010
0100
0010
,  // measure 42
0000
0100
0010
0000
0000
0010
0000
1100
,  // measure 43
0000
0101
0000
0010
1000
0010
0000
0100
,  // measure 44
1001
0100
0010
0000
0000
0110
0000
0110
,  // measure 45
0000
2002
0000
0000
3003
0000
0000
0000
;

//---------------dance-single - ----------------
#NOTES:
     dance-single:
     :
     Challenge:
     9:
     0.568530,0.621829,0.338931,0.218665,0.300665,364.000000,333.000000,31.000000,20.000000,0.000000,0.000000,0.568530,0.621829,0.338931,0.218665,0.300665,364.000000,333.000000,31.000000,20.000000,0.000000,0.000000:
0000
0000
0000
0000
,
0000
0000
0000
0000
,
0100
0010
0100
0010
0000
1000
0000
0001
,
0110
0000
0010
0000
0100
0000
0010
0000
0100
0010
0100
0000
0000
0000
0010
0000
,
1000
0000
0010
0000
0100
0000
0100
0000
0001
0100
0001
0000
0000
0000
0010
0000
,
0110
0000
0001
0000
1001
0000
0001
0000
1000
0100
0001
0000
0001
0100
1000
0000
,
1000
0000
0110
0000
0100
0000
0000
0000
0010
0100
0020
0000
0030
0010
0200
0000
,
0300
0000
1002
0000
1003
0000
0010
0000
1000
0100
1000
0000
0001
0100
0001
0000
,
0001
0010
0100
0010
0001
0100
0010
0000
0100
0010
0100
0000
0010
0010
0100
0000
,
2001
0000
0001
0001
0000
0001
3001
1000
,
0001
0000
0100
0000
0010
0000
0100
0010
0100
0000
0000
0000
0010
0000
0100
0000
,
0102
0000
1000
1000
0000
0100
0103
0001
,
0100
0001
0100
0000
0001
0000
0001
0000
1000
0000
1000
0000
0010
0100
0010
0000
,
0210
0000
0001
0001
0000
1000
0301
0001
,
1000
0000
0100
0000
0100
0000
0010
0100
0010
0000
0100
0000
0010
0000
0001
0000
,
0000
0010
0100
1000
0000
1000
0001
1000
,
0000
0000
0001
0000
0000
0000
0101
0000
0000
0000
0100
0000
0100
0010
0100
0000
,
0101
0100
0001
0000
1000
0001
0000
1000
,
0010
0000
1000
0000
0010
0000
0100
0000
0000
0000
1000
0000
0001
0000
0100
0010
,
1001
0010
0110
0000
0100
0010
0000
0100
,
0001
0000
0100
0000
0001
0000
0000
0000
0001
0000
0100
0000
0001
0000
0100
0001
,
0101
0001
1010
0000
0010
0000
0010
0010
,
1000
0100
0010
0001
0000
1000
0000
1000
,
1001
0000
0100
0010
0000
0001
0100
0000
,
0001
1000
0001
0000
0000
0000
0010
0000
0000
0000
0010
0000
0200
0000
0320
0000
,
0130
0000
0010
0001
0200
0000
0301
1000
,
0010
0000
0100
0000
0100
0010
0200
0000
0000
0000
0300
0000
0001
0000
0010
0000
,
1000
0000
0010
1000
0010
0100
0010
0001
,
1001
0000
1001
0000
0101
0000
0101
0000
0000
0000
1000
0010
1000
0100
1000
0000
,
0000
0000
0100
0001
0100
0010
0100
0000
0000
0000
1000
0000
0001
0000
0110
0000
,
0000
0000
0010
0100
0010
0100
0010
0000
0000
0000
0100
0000
0001
0000
0200
0000
,
0001
0000
0301
0000
0001
0000
0200
0000
0000
0000
0301
0000
0100
0000
0001
0100
,
0001
0000
0000
0010
0001
0000
0010
0100
0000
0000
0011
0000
0000
0000
0010
0100
,
0010
0000
1000
0100
0001
0100
0010
0010
,
0100
1000
0100
0000
1000
0000
0102
0000
0000
0000
0003
0000
1000
0000
0001
0000
,
1001
0000
0010
0100
0010
1000
0010
0100
,
0001
0100
0001
0000
0001
0100
0010
0000
0000
0000
1000
0100
1000
0010
1000
0000
,
0000
0000
0100
0010
0100
0010
0001
0000
0000
0000
0010
0001
0010
0100
0001
0000
,
0000
0100
0010
0110
0000
0010
0000
0220
,
0000
0000
0330
0000
1000
0100
0010
0000
0010
0001
0100
0000
0010
0100
0001
0000
,
0002
0000
0003
0000
0100
0000
0200
0000
0300
0000
0100
0010
0100
0010
1000
0100
,
0011
0000
0001
0000
0000
0000
1000
0000
0010
1000
0010
0000
0100
0001
0100
0000
,
0010
0010
0100
0000
0110
0000
0000
0000
0010
0100
0010
0000
0000
0010
2000
0000
,
3000
0000
0101
0000
0010
0000
0100
0000
0001
1000
0001
0000
0010
0000
0100
0000
,
1001
0000
0100
0000
0110
0000
0100
0000
0010
0100
0010
0000
0000
0100
0020
0000
,
0030
2010
0000
0000
3000
0000
0000
0000
;
