#VERSION:0.83;
#TITLE:HONO HONO;
#SUBTITLE:;
#ARTIST:YASHI GANI;
#TITLETRANSLIT:;
#SUBTITLETRANSLIT:;
#ARTISTTRANSLIT:;
#GENRE:UKULELE;
#ORIGIN:;
#CREDIT:from pop n music 8;
#BANNER:8_UKELELE.png;
#BACKGROUND:;
#PREVIEWVID:;
#JACKET:;
#CDIMAGE:;
#DISCIMAGE:;
#LYRICSPATH:;
#CDTITLE:;
#MUSIC:YASHI GANI - HONO HONO.ogg;
#OFFSET:-0.021000;
#SAMPLESTART:85.733002;
#SAMPLELENGTH:12.000000;
#SELECTABLE:YES;
#BPMS:0.000=105.000;
#STOPS:;
#DELAYS:;
#WARPS:;
#TIMESIGNATURES:0.000=4=4;
#TICKCOUNTS:0.000=4;
#COMBOS:0.000=1;
#SPEEDS:0.000=1.000=0.000=0;
#SCROLLS:0.000=1.000;
#FAKES:;
#LABELS:0.000=Song Start;
#BGCHANGES:;
#KEYSOUNDS:;
#ATTACKS:
;

//---------------dance-single - ----------------
#NOTEDATA:;
#CHARTNAME:;
#STEPSTYPE:dance-single;
#DESCRIPTION:;
#CHARTSTYLE:;
#DIFFICULTY:Beginner;
#METER:2;
#RADARVALUES:0.095087,0.107735,0.008533,0.042667,0.000000,78.000000,77.000000,1.000000,5.000000,0.000000,0.000000,0.000000,0.000000,0.000000,0.095087,0.107735,0.008533,0.042667,0.000000,78.000000,77.000000,1.000000,5.000000,0.000000,0.000000,0.000000,0.000000,0.000000;
#CREDIT:;
#NOTES:
0000
0000
0000
0000
,
0000
0000
0001
0000
,
0000
0000
1000
0000
,
0001
0000
1000
0000
,
0010
0000
0100
0000
,
0001
0000
1000
0000
,
0000
0000
0001
0000
,
0100
0000
0001
0000
,
1000
0000
0001
0000
,
1000
0000
0100
0000
,
0000
0000
0100
0000
,
0010
0000
0001
0000
,
0000
0000
0001
0000
,
0001
0000
1000
0000
,
0000
0000
1000
0000
,
0100
0000
0010
0000
,
0000
0000
0001
0000
,
0010
0000
0100
0000
,
0010
0000
0000
0000
,
0001
0000
0001
0000
,
0001
0000
1000
0000
,
0002
0000
0003
0000
,
1000
0000
1000
0000
,
0000
0000
1000
0000
,
1000
0000
0001
0000
,
2000
0000
3000
0000
,
0001
0000
0100
0000
,
0001
0000
0100
0000
,
0000
0000
0100
0000
,
0100
0000
0100
0000
,
0000
0000
0010
0000
,
0010
0000
0001
0000
,
0000
0000
0010
0000
,
0010
0000
0010
0000
,
0000
0000
0100
0000
,
0100
0000
1000
0000
,
0000
0000
0110
0000
,
0000
0000
0100
0000
,
0100
0000
0100
0000
,
0000
0000
0001
0000
,
0001
0000
0001
0000
,
1000
0000
1000
0000
,
0000
0000
1000
0000
,
0001
0000
0100
0000
,
0001
0000
0100
0000
,
0000
0000
0002
0000
,
0003
0000
2000
0000
,
3000
0000
0001
0000
,
0001
0000
0100
0000
,
0000
0000
0100
0000
,
0200
0300
0001
0000
;

//---------------dance-single - ----------------
#NOTEDATA:;
#CHARTNAME:;
#STEPSTYPE:dance-single;
#DESCRIPTION:;
#CHARTSTYLE:;
#DIFFICULTY:Easy;
#METER:4;
#RADARVALUES:0.182859,0.193922,0.119468,0.119468,0.000000,150.000000,136.000000,14.000000,14.000000,0.000000,0.000000,0.000000,0.000000,0.000000,0.182859,0.193922,0.119468,0.119468,0.000000,150.000000,136.000000,14.000000,14.000000,0.000000,0.000000,0.000000,0.000000,0.000000;
#CREDIT:;
#NOTES:
0000
0000
0000
0000
,
0000
0000
0001
0000
,
1000
0000
1000
0001
,
0001
0001
1000
0000
,
0001
0100
0100
0100
,
0001
0000
1000
0010
,
0010
0000
0110
0000
,
0100
0001
0001
1000
,
1000
0000
0001
0010
,
0001
0010
0001
0000
,
1000
0000
1001
0000
,
0001
1000
0001
0000
,
1000
0001
1000
0000
,
0001
0100
0001
0100
,
0001
0000
1001
0000
,
1000
0100
1000
0100
,
1000
0000
0001
0100
,
0001
0000
0001
0100
,
0010
0000
0110
0000
,
0000
0000
0002
0000
,
0003
1000
1000
0001
,
0100
0001
1000
0000
,
0001
0100
0010
0100
,
0001
0000
2000
3000
,
0002
0003
1000
0000
,
0001
0100
0001
0100
,
0001
0000
0100
0010
,
0100
0010
0100
0000
,
0001
1000
0002
0003
,
2000
3010
0010
0010
,
0020
0030
0100
0100
,
0200
0300
0001
0001
,
0002
0003
1000
0010
,
2000
3010
0010
0010
,
0020
0030
0100
0001
,
1000
0000
0001
0010
,
0010
0000
2000
3000
,
0000
0000
1010
0000
,
1010
0000
0100
0000
,
0101
0000
0101
0000
,
0001
0000
0011
0000
,
1000
1000
1000
0000
,
0001
0000
1001
0000
,
0101
0000
0011
0000
,
0001
1000
0001
0000
,
1000
0100
0010
0000
,
0001
1000
2000
0000
,
3001
0000
0101
0000
,
0001
0000
0101
0000
,
0000
0002
0003
0100
,
0100
0002
0003
0000
;

//---------------dance-single - ----------------
#NOTEDATA:;
#CHARTNAME:;
#STEPSTYPE:dance-single;
#DESCRIPTION:;
#CHARTSTYLE:;
#DIFFICULTY:Medium;
#METER:7;
#RADARVALUES:0.315737,0.301657,0.128002,0.238936,0.110935,259.000000,244.000000,15.000000,28.000000,0.000000,0.000000,0.000000,0.000000,0.000000,0.315737,0.301657,0.128002,0.238936,0.110935,259.000000,244.000000,15.000000,28.000000,0.000000,0.000000,0.000000,0.000000,0.000000;
#CREDIT:;
#NOTES:
0000
0000
0000
0000
,
0000
0000
0000
0000
0001
1000
0000
0000
,
1000
0001
0000
0000
1000
0001
0100
0000
,
0001
0000
0000
0001
0000
0000
0001
0000
1000
0000
0000
0000
1000
0000
0001
0000
,
0100
0000
0000
0100
0000
0000
0100
0000
0010
0000
0000
0010
0000
0000
0100
0000
,
0001
0000
0000
0001
0000
0000
1000
0000
1000
0000
0000
0000
0010
0000
0100
0000
,
0010
0000
0100
0001
0100
0000
0001
0000
,
0100
0000
0000
0001
0000
0000
0001
0000
1000
0000
0000
0000
1000
0000
0100
0000
,
0010
0000
0000
0001
0000
0000
0001
0000
0001
0000
0000
1000
0000
0000
1000
0000
,
0001
0000
1000
0001
0100
0000
0010
0001
,
1000
0001
1001
0000
,
0001
0000
1000
0000
0101
0000
0001
1000
,
1000
0000
0001
0001
1000
0000
1000
1000
,
0001
0000
0001
0001
1000
0000
0100
0010
,
0001
0000
0001
0010
1000
0000
0000
0001
,
1000
0000
0100
0100
1000
0000
0100
0000
,
1100
0000
0000
0000
0000
0000
0000
0000
0101
0000
0000
0100
0000
0000
0000
0000
,
0002
0000
0003
0000
0000
0000
0000
0000
0001
0000
0000
0100
0000
0000
0000
0000
,
0020
0030
1000
0000
0110
0000
0000
0000
,
0200
0300
0002
1000
,
0003
1000
0001
1000
0001
0000
0100
0000
,
0100
0000
0000
0001
0000
0000
0100
0000
0100
0000
0000
0000
0001
0000
1000
0000
,
0001
0000
0000
1000
0000
0000
0001
0000
1000
0000
0000
0001
0000
0000
0100
0000
,
0001
0000
0000
0100
0000
0000
0001
0000
0002
0000
0000
0000
0003
0000
0000
0000
,
2000
0000
3001
1000
0002
0000
0003
0000
,
0001
0000
0000
1000
0000
0000
1000
0000
0001
0000
0000
0000
0100
0000
0001
0000
,
0100
0000
0000
0001
0000
0000
0100
0000
0100
0000
0000
0100
0000
0000
0010
0000
,
0010
0000
0010
0100
0002
0000
0003
0000
,
1000
0000
1000
0010
0200
0000
0320
0000
,
2030
0000
3010
0100
0010
0100
0010
0000
,
0220
0330
0200
0302
,
2003
0000
3001
0100
0002
0000
0003
0000
,
2200
3300
1010
0010
,
0200
0000
0310
0100
0001
0100
0010
0000
,
0200
0000
0300
0000
0001
1000
0001
1000
,
0002
1003
1001
0011
,
0010
0011
0002
0003
,
0200
0000
0000
0300
0010
0000
0100
0010
,
0100
0000
0000
0001
0000
0000
1000
0000
0001
0000
0000
0000
1000
0000
0001
0000
,
0100
0000
0000
0010
0000
0000
1000
0000
0001
0000
0000
1000
0000
0000
0001
0000
,
1000
0000
0000
0010
0000
0000
0010
0000
0010
0000
0000
0000
0100
0000
0010
0000
,
0100
0010
1000
0010
2000
3000
0001
0010
,
0001
0000
0000
0001
0000
0000
0001
0000
1000
0000
0000
0000
0001
0000
0001
0000
,
0010
0000
0000
0010
0000
0000
0100
0000
1000
0000
0000
0001
0000
0000
1000
0000
,
0001
0000
0000
0000
1000
0000
0100
0000
0010
0000
0000
0001
0000
0000
0001
0000
,
0001
0000
0000
0000
0001
0000
0010
0000
0001
0000
0000
1000
0000
0000
1000
0000
,
0100
0000
2000
3000
0002
0000
0100
0000
,
0103
0000
0000
0100
0000
0000
0100
0000
0100
0000
0000
0000
0001
0000
0000
0000
,
0101
0000
0101
0000
0101
0000
0000
0101
,
0000
0000
0100
0002
0000
0003
0100
0010
,
0100
0010
0000
0010
0100
0000
0000
0000
;

//---------------dance-single - ----------------
#NOTEDATA:;
#CHARTNAME:;
#STEPSTYPE:dance-single;
#DESCRIPTION:;
#CHARTSTYLE:;
#DIFFICULTY:Hard;
#METER:12;
#RADARVALUES:0.597341,0.560221,0.384005,0.281604,0.563207,490.000000,445.000000,45.000000,33.000000,0.000000,0.000000,0.000000,0.000000,0.000000,0.597341,0.560221,0.384005,0.281604,0.563207,490.000000,445.000000,45.000000,33.000000,0.000000,0.000000,0.000000,0.000000,0.000000;
#CREDIT:;
#NOTES:
// measure 0
0000
0000
0000
0000
,  // measure 1
0000
0000
0000
0000
0000
0000
0000
0000
0001
0000
1000
0001
0000
0000
0001
0000
,  // measure 2
1000
0001
1000
0000
0001
0000
1000
0000
1001
0000
0001
0100
0000
0000
0100
0000
,  // measure 3
0001
0000
0000
0001
0000
0001
1000
0000
0001
0000
0100
0001
0100
0000
0001
0000
,  // measure 4
0100
0000
0000
0100
0000
0100
0010
0000
0010
0000
0100
0010
0000
0000
0100
0000
,  // measure 5
0001
0000
1000
0001
0000
0001
1000
0000
1001
0000
0001
0100
0000
0000
0100
0000
,  // measure 6
0010
0100
0010
0000
0100
0000
0001
0000
0101
0000
0001
0010
0000
0000
0010
0000
,  // measure 7
0100
0000
1000
0001
0000
0001
0100
0000
0010
0000
0010
0100
0001
0000
0100
0000
,  // measure 8
0001
0000
0100
0001
0000
0100
0001
0000
0101
0000
0010
1000
0000
0010
1000
0000
,  // measure 9
0010
0000
1000
0001
1000
0000
0001
0100
0000
0000
0001
0010
0001
0000
1000
0000
,  // measure 10
0001
1000
0001
1000
0001
0000
0100
0000
0101
0000
0001
0100
0000
0000
0001
0000
,  // measure 11
0001
0000
0000
0000
1000
0000
0100
0000
0010
0000
0001
0010
0000
0100
1000
0000
,  // measure 12
1100
0000
0000
0000
0011
0000
0001
0000
1100
0000
0000
1000
0000
0000
1000
0000
,  // measure 13
0011
0000
0000
0000
0001
0000
0100
0000
0010
0000
0100
0010
0100
0000
0010
0100
,  // measure 14
0000
0010
0000
0100
0001
0000
0011
0000
1001
0000
1000
0001
0000
0000
0001
0000
,  // measure 15
0100
0000
0010
0000
0110
0000
0100
0000
0020
0000
0030
0200
0000
0300
0010
0000
,  // measure 16
0200
0000
0300
0000
0001
0000
0100
0000
0002
0000
0103
0001
0000
0000
0001
0000
,  // measure 17
2000
0000
3010
0100
0010
0000
0100
0000
0002
0000
0103
0010
0000
0000
0100
0000
,  // measure 18
0200
0000
0310
1000
0001
0000
1000
0001
0100
0000
0010
0000
0100
0000
0010
0100
,  // measure 19
0000
0100
0000
0100
0010
0000
0000
0000
0001
1000
0000
0001
1000
0000
0100
0010
,  // measure 20
0000
0100
0010
0000
0001
0000
1000
0000
0001
0000
0100
0010
0100
0000
0010
0000
,  // measure 21
1010
0000
0000
0101
0000
0001
0100
0000
0001
0000
1000
0001
1000
0000
0001
0000
,  // measure 22
1001
0000
0000
1100
0000
0100
1000
0000
0100
0000
0010
0100
0000
0000
0100
0000
,  // measure 23
0110
0000
0000
0001
0000
0000
1000
0000
0001
0000
1000
0010
1000
0000
0010
1000
,  // measure 24
0010
0000
0100
0010
0100
0010
0100
0000
0002
0000
0100
0000
0003
0000
0100
0000
,  // measure 25
0001
0000
1000
0001
0000
0001
1000
0000
0001
0000
0100
0001
0100
0000
0001
0000
,  // measure 26
0101
0000
0000
0101
0000
0100
0001
0000
0101
0000
0100
0001
0000
0000
0100
0000
,  // measure 27
0101
0000
0001
0010
0001
0000
0001
0020
0000
0000
0030
0000
1000
0100
1000
0000
,  // measure 28
0001
1000
0001
1000
0001
0000
0010
0000
0200
0000
1300
0100
2000
0000
3010
0000
,  // measure 29
2020
0000
0030
0000
3010
0000
0100
0000
0010
0000
0100
0010
0100
0000
0001
0000
,  // measure 30
2000
0000
0000
0000
3001
0000
0100
0000
0020
0000
1030
0001
1000
0000
0001
0000
,  // measure 31
0200
0000
0320
0000
0230
0000
0302
0000
0203
0000
0000
0320
0000
0000
0130
0010
,  // measure 32
0200
0000
0000
0000
0301
0000
0001
0000
1001
0000
1000
0001
1000
0000
0001
1000
,  // measure 33
0001
0000
0100
0001
0100
0000
0001
0000
0101
0000
0110
0000
0110
0000
1000
0000
,  // measure 34
0200
0010
0310
0001
0011
0001
0011
0010
,  // measure 35
0011
0000
0100
0000
0001
0100
0001
0000
0200
0000
0301
0100
0000
0000
0011
0000
,  // measure 36
0000
0100
0001
0100
0001
0000
1000
0010
0200
0000
0310
0100
0000
0000
0100
0000
,  // measure 37
0110
1001
0110
0110
2020
3030
0100
0010
,  // measure 38
0100
0001
0100
0001
0000
0100
0010
0000
1000
0000
0010
1000
0001
0000
0001
0000
,  // measure 39
0010
0000
0100
1000
0000
1000
0100
0000
0010
0000
0001
1000
0000
1000
0001
0000
,  // measure 40
1000
0100
1000
0100
1000
0100
1000
0000
0010
0100
0010
0100
0010
0100
0000
0010
,  // measure 41
0000
1000
0010
0000
1010
0000
0110
0000
0002
0000
1003
0000
0100
0000
0010
0000
,  // measure 42
0001
1000
0001
1000
0000
1000
0001
0000
1000
0000
0001
0100
0001
0000
0010
0000
,  // measure 43
0011
0000
0001
0010
0000
0001
0100
0000
0001
0000
1000
0001
0000
1000
0100
0000
,  // measure 44
0100
1000
0100
1000
0100
0000
1000
0000
0110
0000
0000
0011
0000
0000
0001
0000
,  // measure 45
0100
0000
0001
1000
0010
0000
0100
0000
0001
0000
1000
0001
0000
0000
1000
0000
,  // measure 46
2020
0000
3030
0000
1000
0100
1000
0000
0002
0000
0103
0010
0000
0000
0010
0100
,  // measure 47
0010
0000
0000
0101
0000
0001
0100
0000
1001
0000
0001
1000
0000
0000
1010
0000
,  // measure 48
0000
1000
0100
0010
0001
0100
0001
0000
0100
0001
0000
0100
0001
0000
1000
0010
,  // measure 49
0000
1000
0010
0000
0200
0000
0302
0000
0000
0000
0103
0010
0000
0000
0110
0000
,  // measure 50
0100
0001
0000
0001
0000
0100
0010
1000
0010
0000
0000
0000
0000
0000
0000
0000
;
