#TITLE:Gravity Outside;
#SUBTITLE:;
#ARTIST:xac;
#TITLETRANSLIT:;
#SUBTITLETRANSLIT:;
#ARTISTTRANSLIT:;
#GENRE:;
#CREDIT:;
#MUSIC:xac - Gravity Outside.mp3;
#BANNER:;
#BACKGROUND:;
#CDTITLE:;
#SAMPLESTART:71.500;
#SAMPLELENGTH:20.000;
#SELECTABLE:YES;
#OFFSET:-0.510;
#BPMS:0.000=172.000;
#STOPS:;
#BGCHANGES:;
#FGCHANGES:;

//--------------- dance-single - ----------------
#NOTES:
     dance-single:
     :
     Beginner:
     4:
     0.316403,0.424242,0.135439,0.135439,0,278,261,17,17,0,0,0.316403,0.424242,0.135439,0.135439,0,278,261,17,17,0,0:
0000
0000
0000
0000
,
0000
0000
1000
0000
0000
0010
0000
0000
,
0100
0000
0010
0000
0000
0100
0000
0000
,
0001
0000
1000
0000
0000
0001
0000
0000
,
0100
0000
0010
0000
0000
1000
0000
0000
,
0001
2000
0000
3010
,
0000
0002
0000
0103
,
0000
2000
0000
3100
,
0000
0020
0000
0031
,
0000
0100
0001
0000
,
0010
0100
0010
0000
,
0001
1000
0001
0000
,
0001
1000
0010
0000
,
0001
0100
0010
1000
,
0001
1000
0010
0010
,
0100
0000
1000
0000
0000
0010
0000
0000
,
1000
0000
0000
0100
0000
0000
1000
0000
,
0001
0000
0110
0000
,
0010
0000
0011
0000
,
0001
0000
1001
0000
,
0010
0000
0101
0000
,
0001
1000
0010
0000
,
0001
0001
0100
0000
,
0001
0100
0010
0000
,
0010
0100
0001
0000
,
0100
1000
0100
0001
,
1000
0100
0100
0000
,
0001
1000
0010
0100
,
0010
1000
2002
3003
,
0001
1000
0001
0000
,
0100
0010
0001
0000
,
0100
0010
0001
1000
,
0100
0020
0000
0000
,
0030
1001
1000
0001
,
0001
0010
0000
1000
,
0000
1001
0100
1000
,
0000
0110
0010
0100
,
0000
0101
0000
0100
,
0020
0000
0000
0030
,
1000
0010
0000
1000
,
0000
0001
0000
0010
,
1000
0110
0010
0000
,
0010
1100
0010
0000
,
0100
0110
1000
0000
,
0001
0101
0010
0000
,
0001
1001
1000
0000
,
1000
0101
0010
0000
,
0100
1001
0100
0000
,
1000
1001
0001
0000
,
0100
0001
0100
0010
,
0100
0001
0001
1000
,
0001
0010
0001
0100
,
0010
1000
0100
0000
,
0010
0110
0000
1000
,
0000
0010
0000
0100
,
0000
0011
0000
1000
,
0000
0100
0000
0002
,
0000
0003
1000
0000
1000
0000
0000
0000
,
0100
0010
0100
0001
,
1000
1000
0010
0000
,
1000
0100
0010
0001
,
0100
0010
0100
0100
,
0001
0100
0010
0000
,
1000
0001
0010
0100
,
0010
0100
0000
1000
,
0100
1000
1001
0000
,
0100
0001
0100
0010
,
0010
0100
0010
0000
,
1000
0001
0010
0000
,
0100
0001
0001
1000
,
1000
0100
0100
0010
,
0010
1000
0100
0010
,
0001
0200
0000
0300
,
0000
0000
0010
0000
0000
0010
0000
0000
,
0100
0000
0000
0001
0000
0000
1000
0000
,
0000
0200
0000
0000
0000
0000
0000
0000
,
0300
0020
0000
0000
,
0030
0000
0010
0000
0000
0001
0000
0000
,
0100
0000
0000
0010
0000
0000
1000
0000
,
0000
0002
0000
0000
0000
0000
0000
0000
,
0003
2000
0000
0000
,
3000
0000
0100
0000
0000
0010
0000
0000
,
1000
0000
0000
0001
0000
0000
0100
0000
,
0000
0002
0000
0000
0000
0000
0000
0000
,
0003
0200
0000
0000
,
0300
0000
0001
0000
0000
1000
0000
0000
,
0010
0000
0000
0100
0000
0000
0001
0000
,
0000
0020
0000
0000
0000
0000
0000
0000
,
0000
0000
0000
0030
;

//--------------- dance-single - ----------------
#NOTES:
     dance-single:
     :
     Easy:
     6:
     0.379001,0.494949,0.111538,0.167307,0.051785,333,319,14,21,0,0,0.379001,0.494949,0.111538,0.167307,0.051785,333,319,14,21,0,0:
0000
0000
0000
0000
,
0000
1000
0000
0100
,
0000
0100
0000
0010
,
0000
1000
0000
0001
,
0000
1000
0000
0010
,
0000
2000
0000
3010
,
0000
0002
0000
0103
,
0000
2000
0000
3010
,
0000
0020
0000
1030
,
0000
0110
0001
0010
,
0100
0000
0100
0000
0010
0000
0001
1000
,
0001
0000
1001
0000
1000
0000
0001
0100
,
0001
0000
0011
0000
0010
0000
0001
1000
,
0001
0100
0001
1000
,
0001
1000
0010
0010
,
0010
0000
0000
0000
1000
0000
0000
0010
0000
0000
1000
0000
0000
0010
0000
0000
,
0100
0000
0000
0010
0000
0000
0100
0000
0000
0010
0000
0000
1000
0000
0000
0010
,
0000
0010
0110
0100
,
0010
1000
0010
1000
,
0001
0010
0001
0000
1000
0000
0010
0000
,
0100
0100
0010
0010
,
0001
1000
0001
0000
0010
0000
0010
0000
,
0001
0010
0001
0010
0000
0010
0000
0000
,
0001
0100
0010
0010
,
0010
0100
0001
0001
,
0100
1000
0100
0001
,
1000
0000
0100
0000
0100
0010
0100
0000
,
1000
0010
0010
0100
,
0100
0010
2002
3003
,
0001
1000
0001
0010
,
0100
0010
0001
0010
,
0010
0100
1000
0010
,
1000
0020
0000
0000
,
0030
1001
1000
0001
,
0001
0010
0010
1000
,
1000
1001
0100
1000
,
0010
0110
0010
0100
,
0001
0100
0001
0000
0110
0000
0101
0000
,
0012
0010
0010
0013
,
0010
0000
0000
0000
0010
0000
0000
0010
0000
0000
1000
0000
0000
1000
0000
0000
,
0001
0000
0000
0001
0000
0000
0100
0000
0000
0100
0000
0000
0010
0000
0000
0000
,
1000
0000
0100
0000
0010
0010
0000
0100
,
0010
0000
1000
0000
0001
0100
0000
0010
,
0100
0000
0010
0000
1000
0100
0000
0100
,
0100
0000
1000
0000
0100
0010
0000
0001
,
0001
0000
0001
0000
1000
1000
0000
0010
,
0010
0000
0100
0000
0010
1000
0000
1000
,
0010
0000
1000
0000
0010
0010
0000
0010
,
0100
0000
0001
0000
0001
0010
0000
0010
,
0001
0000
0020
0030
0100
0010
0000
0010
,
0001
0000
2000
3000
0001
1000
0000
0010
,
0010
0000
0200
0300
0010
0100
0000
0001
,
1000
0000
0020
0030
0100
0001
0000
0100
,
0001
0011
0001
1000
,
1000
0010
0010
0100
,
0100
0000
0000
0000
1000
0000
0000
0100
0000
0000
1000
0000
0000
0001
0000
0000
,
1000
0000
0000
0010
0000
0000
1000
0000
0000
0001
0000
0000
2000
0000
0000
0000
,
0000
3000
1010
0000
1000
0000
0010
0000
,
0100
0010
0100
0001
,
1000
0001
1000
0000
0010
0000
0010
0000
,
1000
0100
0010
0001
,
0100
0010
0100
0100
,
0001
0100
0010
1000
,
1000
0001
0010
0100
,
0010
0110
0001
0010
,
0100
1000
0001
0100
,
0010
1000
0100
0010
,
0010
0100
0010
0000
1000
0000
0100
0000
,
0001
1000
0010
1000
,
0100
1000
1000
0010
,
0010
0100
0100
0001
,
0001
1000
0100
0010
,
0001
0020
0000
0030
,
0000
0000
0010
0000
0000
0010
0000
0000
,
0100
0000
0000
0100
0000
0000
0001
0000
,
0000
0200
0000
0000
0000
0000
0000
0000
,
0300
0020
0000
0000
,
0030
0000
0010
0000
0000
0001
0000
0000
,
0100
0000
0000
0010
0000
0000
1000
0000
,
0000
0002
0000
0000
0000
0000
0000
0000
,
0003
2000
0000
0000
,
3000
0000
0100
0000
0000
0100
0000
0000
,
1000
0000
0000
0100
0000
0000
0010
0000
,
0000
0002
0000
0000
0000
0000
0000
0000
,
0003
0200
0000
0000
,
0300
0000
0001
0000
0000
1000
0000
0000
,
0010
0000
0000
1000
0000
0000
0001
0000
,
0000
0020
0000
0000
0000
0000
0000
0000
,
0000
0000
0000
0030
;

//--------------- dance-single - ----------------
#NOTES:
     dance-single:
     :
     Medium:
     7:
     0.458671,0.565656,0.246977,0.270877,0.067719,403,372,31,34,0,0,0.458671,0.565656,0.246977,0.270877,0.067719,403,372,31,34,0,0:
0000
0000
0000
0000
,
0000
1000
0000
0100
,
0000
0100
0000
0010
,
0000
1000
0000
0001
,
0000
1000
0000
0010
,
0000
2000
0000
3010
,
0000
0002
0000
0103
,
0000
2000
0000
3010
,
0000
0020
0000
1030
,
0000
0000
0110
0000
0001
0100
0000
0010
,
1000
0000
0110
0000
0010
1000
0000
1000
,
0001
0000
1001
0000
1000
0001
0000
0100
,
0001
0000
0011
0000
1000
0100
0000
1000
,
0001
0000
0110
0100
0001
0001
1000
1000
,
0001
0000
1000
1000
0010
1000
0010
1000
,
0010
0000
0000
0000
1000
0000
0000
0010
0000
0000
1000
0000
0000
0001
0000
0000
,
0100
0000
0000
0010
0000
0000
1000
0000
0000
0100
0000
0000
1000
0000
0000
0011
,
0000
0000
0010
0000
0110
0000
0000
0100
,
0010
0100
0001
0000
0020
0000
0031
0000
,
0001
0010
0001
0000
1000
0000
0010
0100
,
0000
0200
0000
0000
0310
0000
0010
0000
,
0001
1000
0001
0000
0010
0000
0010
0100
,
0001
0010
0001
0010
0000
0220
0330
0000
,
1000
0000
0100
0000
0010
0020
0030
0020
,
0030
0200
0000
0000
0301
0000
0001
0000
,
0100
1000
0010
0000
0100
0001
0010
0000
,
0000
0010
0100
0100
0000
0020
0030
0000
,
1000
1000
0010
0000
0010
0200
0300
0200
,
0300
0020
0000
0030
1001
0000
0000
0000
,
0001
0001
1000
0001
0000
0200
0300
0020
,
0030
0000
0010
1000
0000
0020
0030
0000
,
0010
0100
0010
0000
1000
0020
0000
2030
,
0000
3020
0000
0000
0000
0000
0000
0030
,
0001
1001
1000
0001
,
0001
0000
0010
0001
0010
0000
0001
1000
,
0001
1001
0100
1000
,
0010
0110
0010
0100
,
0001
0100
1000
0000
0110
0000
0101
0000
,
0012
0010
0103
0001
,
0010
0000
0000
0000
0010
0000
0000
0100
0000
0000
1000
0000
0000
0001
0000
0000
,
0001
0000
0000
0100
0000
0000
1000
0000
0000
0100
0000
0000
0101
0000
0000
0000
,
1000
0000
0110
0010
0010
0010
0000
0100
,
0010
0000
1001
0001
0001
0100
0000
0010
,
0100
0000
0110
0010
1000
0100
0000
0100
,
0100
0000
1010
1000
0100
0010
0000
0001
,
0001
0000
1001
0001
1000
1000
0000
0010
,
0010
0000
1010
0010
0010
1000
0000
1000
,
0010
0000
1001
1000
0010
0010
0000
0010
,
0100
0000
0101
0001
0001
0010
0000
0100
,
0010
0000
0000
0000
0010
0000
0100
0010
0100
0000
0010
0000
0000
0000
1000
0000
,
0001
0000
0000
0000
1000
0000
0001
1000
0001
0000
1000
0000
0000
0000
0010
0000
,
0010
0000
0000
0000
1000
0000
0100
0010
0100
0000
0010
0000
0000
0000
1000
0000
,
1000
0000
0000
0000
0010
0000
0100
0001
0100
0000
0001
0000
0000
0000
0100
0000
,
0010
0000
0001
0001
0001
0001
1000
1000
,
1000
1000
0010
0010
0010
0010
0100
0100
,
0100
0000
0000
0000
1000
0000
0000
0100
0000
0000
0010
0000
0000
0001
0000
0000
,
0100
0000
0000
0010
0000
0000
1000
0000
0000
0001
0000
0000
2000
0000
0000
0000
,
0000
3000
1010
0000
1000
0000
0001
0100
,
0010
0000
0010
0000
0100
0000
0100
0001
,
1000
0001
1000
0000
1010
0000
0010
1000
,
1000
0000
0100
0001
0001
0000
0000
0100
,
0010
0020
0000
0200
0330
0000
0100
0001
,
0000
0100
0000
0020
0000
0030
0000
0000
,
0000
0001
1000
0010
0000
0010
0000
0010
,
0000
0110
0000
0000
0001
0000
1000
0000
,
1000
0000
0101
0000
0011
0000
0100
1000
,
0010
0000
1000
0000
0100
0000
0010
1000
,
0010
0100
1001
0000
1001
0000
0100
0001
,
0001
0000
1000
0000
0010
0000
0000
1000
,
0010
0010
0000
1000
0000
0010
0000
0100
,
0000
0001
0000
0100
0000
0010
0000
0100
,
0000
0010
1000
0000
1000
0000
0100
0000
,
0100
0000
0010
0001
0010
0001
0010
0000
,
0000
0000
0010
0000
0000
0010
0000
0000
,
0100
0000
0000
0100
0000
0000
0001
0000
,
0000
0200
0000
0000
0000
0000
0000
0000
,
0300
0020
0000
0000
,
0030
0000
0010
0000
0000
0001
0000
0000
,
0100
0000
0000
0010
0000
0000
1000
0000
,
0000
0002
0000
0000
0000
0000
0000
0000
,
0003
2000
0000
0000
,
3000
0000
0100
0000
0000
0100
0000
0000
,
0010
0000
0000
0100
0000
0000
0010
0000
,
0000
0002
0000
0000
0000
0000
0000
0000
,
0013
0200
0000
0000
,
0310
0000
0001
0000
0000
1000
0000
0000
,
0010
0000
0000
0100
0000
0000
0001
0000
,
0000
0020
0000
0000
0000
0000
0000
0000
,
0030
0200
0000
0300
;

//--------------- dance-single - ----------------
#NOTES:
     dance-single:
     :
     Hard:
     9:
     0.7102,0.848484,0.382415,0.143406,0.191208,624,576,48,18,0,0,0.7102,0.848484,0.382415,0.143406,0.191208,624,576,48,18,0,0:
0000
0000
0000
0000
,
0000
1000
1000
0100
,
1000
0100
1000
0010
,
1000
1000
0001
0010
,
0100
1000
0001
0001
,
0001
0000
1000
0100
0001
0010
0010
0100
,
1000
0000
0001
0010
0001
0100
0001
1000
,
0010
0000
1000
0100
0010
0001
0010
0001
,
0010
0000
1000
0001
0010
0100
1000
0010
,
1000
0000
0110
0010
0001
0100
0001
0010
,
0001
0000
0100
0010
0010
1000
0001
1000
,
0001
0000
0001
0001
1000
1000
0010
0100
,
0001
0000
0010
0010
1000
0100
1000
0001
,
1000
0000
0000
0000
0100
0010
0100
0000
0001
0000
0001
0000
1000
0000
0010
0000
,
0100
0000
0000
0000
1000
0001
1000
0000
0010
0000
1000
0000
0010
0000
1000
0000
,
0100
0000
0000
0000
1010
0000
0000
0010
0000
0000
1000
0000
0000
0011
0000
0000
,
0100
0000
0000
0010
0000
0000
1001
0000
0000
0110
0000
0000
1001
0000
0000
0011
,
0000
0000
0010
1000
0100
0200
0300
0100
,
0010
0100
1000
0100
0010
2000
3000
0000
,
0001
0010
0100
0000
1000
0100
0010
0000
,
1000
0100
0001
0010
0100
0020
0030
0100
,
0001
1000
1001
0000
0010
1000
0010
0100
,
0001
0010
0001
0010
0000
0220
0330
0000
,
1000
0010
0100
0001
0010
0020
0030
0010
,
0100
0100
0010
0001
1000
0200
0300
1000
,
0100
1000
0010
0010
0100
0002
0013
0100
,
0010
0010
0100
0100
0010
0020
1030
0010
,
1000
1000
0010
1000
0010
0200
0310
0100
,
0010
0100
0010
0100
1000
2000
3000
0100
,
0001
0001
1000
0001
1000
0200
0300
1000
,
0010
0000
0010
0100
0010
0000
1000
0000
0010
0100
0020
0000
0030
0000
0001
0000
,
0010
0100
0010
0001
1000
0020
0000
2030
,
0000
3020
0000
0000
0000
0000
0000
0030
,
0001
1000
1001
0000
1000
0001
0001
0010
,
0001
0100
0010
0000
0010
1000
0001
0000
,
0001
0000
1001
0010
0100
0010
1000
0001
,
0110
0000
0110
0010
0010
0100
0100
0001
,
0001
0000
1010
0010
0010
0100
0001
0010
,
0010
0000
0001
0100
0100
0001
0001
1000
,
0010
0000
0000
0000
0010
0000
0000
0100
0000
0000
1000
0000
0000
0001
0000
0000
,
0101
0000
0000
0101
0000
0000
1100
0000
0000
1100
0000
0000
1010
0000
0000
0000
,
1000
0001
0110
0010
0010
0011
0000
0100
,
0010
0010
1001
0001
0001
0110
0000
0010
,
0001
0001
0110
0010
1000
0011
0000
0100
,
0100
0010
1010
1000
0100
1010
0000
0001
,
0001
0000
0000
0000
1001
0000
0001
0010
0001
0000
1000
0000
0000
0000
0010
0100
,
0010
0000
0000
0000
1000
0000
0010
0100
0010
0000
1000
0000
0000
0000
1000
0100
,
0010
0000
0000
0000
1000
0000
1000
0100
0010
0000
0001
0000
0000
0000
0010
0001
,
0010
0000
0000
0000
0100
0000
1000
0001
1000
0000
0010
0000
0000
0000
0100
0010
,
0100
0000
0000
0000
0010
0000
0100
1000
0100
0000
0010
0000
0000
0000
0001
1000
,
0010
0000
0000
0000
1000
0000
0001
1000
0001
0000
0010
0000
0000
0000
0010
0100
,
0010
0000
0000
0000
1000
0000
0100
0010
0100
0000
0010
0000
0000
0000
1000
0010
,
1000
0000
0000
0000
1000
0000
0100
0010
0001
0000
0001
0000
0000
0000
0100
0000
,
0010
0000
0100
0000
0001
0000
0001
0010
0001
0000
0001
0000
1000
0000
1000
0010
,
1000
0000
1000
0000
0010
0000
0010
0100
0010
0000
0010
0000
0100
0000
0100
0001
,
0100
0000
0000
0000
1010
0000
0000
1010
0000
0000
1010
0000
0000
0110
0000
0000
,
0110
0000
0000
1001
0000
0000
0011
0000
0000
0011
0000
0000
1000
0100
1000
0100
,
1000
0100
1000
0000
1000
0000
0010
0000
1000
0000
0100
0000
0001
0000
0100
0000
,
0010
0000
0011
0010
0100
0010
0100
0001
,
1000
0000
1010
0100
1000
0010
0010
1000
,
1000
0000
0110
0001
0001
1000
1000
0100
,
0010
0000
0110
0001
1000
0010
0100
1000
,
0100
0000
0110
0100
0010
1000
0100
0010
,
0001
0000
1100
0010
0010
0010
0001
0010
,
0100
0000
1001
1000
0001
1000
1000
0010
,
1000
0000
0000
0000
0101
0000
0010
0000
0010
0001
0010
0000
0100
0000
1000
0000
,
0010
0000
0000
0000
1010
0000
0100
0000
0100
0001
0100
0000
0010
0000
1000
0000
,
0010
0000
0000
0000
1001
0000
1000
0000
1000
0100
1000
0000
0100
0000
0010
0000
,
0001
0000
0000
0000
1010
0000
0100
0000
0010
0001
0010
0000
0100
0000
1000
0000
,
0010
0000
0011
0000
0010
0000
0001
0100
,
0001
0000
0010
0100
0001
0000
0010
0100
,
0010
0000
0001
0001
1000
1000
0100
0100
,
0010
0000
0010
0000
0001
0010
0001
0010
0001
0010
0001
0010
0001
0010
0000
0000
,
0000
0010
0010
0001
,
0100
0100
0100
0001
,
0100
0000
0001
1000
1000
1000
0010
0100
,
0100
0000
0010
0001
0001
1000
1000
0001
,
0001
0010
0001
0100
,
0100
0010
0010
1000
,
0001
0000
1000
0010
1000
0010
0100
0010
,
0100
0000
1000
0001
0010
0001
0010
0001
,
0100
0100
0100
0010
,
0010
0100
0100
0010
,
0001
0000
0010
0100
0010
0100
0010
0100
,
0010
0000
0100
0010
0100
0010
0100
0010
,
0100
0001
0010
0001
,
0010
0100
0010
0001
,
0010
0100
0010
0200
,
0000
0020
0000
0330
;

//--------------- dance-single - ----------------
#NOTES:
     dance-single:
     :
     Challenge:
     10:
     0.920756,0.919191,0.382415,0.087637,0.434201,809,761,48,11,0,0,0.920756,0.919191,0.382415,0.087637,0.434201,809,761,48,11,0,0:
0000
0000
0000
0000
,
0000
0000
1000
0100
1000
0010
0100
0010
,
1000
0001
0100
0010
1000
0100
0010
0100
,
1000
0001
1000
0001
0001
0010
0010
0100
,
0100
1000
1000
0001
1000
1000
0001
0010
,
0001
0100
1000
0100
0001
0010
0010
0100
,
1000
0001
0011
0010
0001
0100
0001
1000
,
0010
1000
1000
0100
0010
0001
0010
0100
,
0010
0001
1001
0001
0010
0100
1000
0010
,
0100
1000
0110
0010
0001
0100
0001
0010
,
0001
0100
0100
0010
0010
1000
0001
1000
,
0010
0000
0001
0000
0001
0010
0001
0000
1000
0000
1000
0000
0010
0000
0100
0000
,
0001
0000
1000
0000
0010
0010
0010
0000
1000
0000
0100
0000
0001
0000
1000
0000
,
1000
0000
0001
0000
0100
0010
0100
0000
0001
0000
0001
0000
1000
0000
0010
0000
,
0100
0000
0010
0000
1000
0001
1000
0000
0010
0000
0001
0000
0010
0000
1000
0000
,
0100
0000
1000
0000
1010
0000
0000
0110
0000
0000
1001
0000
0000
0011
0000
0000
,
0110
0000
0000
1010
0000
0000
1001
0000
0000
1010
0000
0000
1001
0000
0000
0011
,
0001
0000
0100
0000
0010
0000
1000
0000
0100
0010
0100
0000
1000
0000
0100
0000
,
0010
0000
0100
0000
0001
0000
0100
0000
0100
0010
1000
0000
0000
0000
0010
0000
,
0001
0000
0010
0000
0100
0000
0100
0000
1000
0001
0100
0000
0001
0000
0100
0000
,
1000
0000
0100
0000
0001
0000
0010
0000
0100
0001
0010
0000
0001
0000
0100
0000
,
0001
0000
1000
0000
1001
0000
0001
0000
0010
0100
1000
0000
0010
0000
0100
0000
,
0001
0000
0010
0000
0010
0000
0001
0000
0100
0010
0100
0000
0010
0000
0001
0000
,
1000
0000
0010
0000
0100
0000
0001
0000
0010
0001
0010
0000
0010
0000
0010
0000
,
0100
0000
0100
0000
0010
0000
0001
0000
1000
0010
0100
0000
0010
0000
1000
0000
,
0100
0000
0100
0000
0010
0000
0010
0000
0100
0001
0100
0000
0010
0000
1000
0000
,
0010
0000
0010
0001
0100
0000
0100
0000
0010
0100
0010
0000
1000
0000
0010
0000
,
1000
0000
1000
0000
0010
0000
1000
0000
0010
1000
0100
0000
0010
0000
0001
0000
,
0010
0000
0010
0001
0010
0000
0100
0000
1000
0100
1000
0000
0010
0000
0100
0000
,
0001
0000
0001
0000
1000
0000
0001
0000
1000
0010
0100
0000
0010
0000
1000
0000
,
0010
0000
0010
0100
0001
0000
1000
0000
0010
0010
0010
0000
0100
0000
0001
0000
,
0010
0000
0100
0000
0010
0000
0001
0000
1000
0001
0020
0000
0230
0000
2300
0000
,
3200
0320
0032
2003
3020
0230
0301
0001
,
0001
1000
1001
1000
1000
0010
0001
0010
,
0001
0100
0010
0001
0010
1000
0001
0010
,
0001
0100
1001
0010
0100
0010
1000
0001
,
0100
0010
0110
0010
0100
0100
0100
0001
,
0001
0000
0100
0000
1010
0000
0010
0001
0010
0000
0100
0000
1000
0000
0010
0000
,
0010
0000
0100
0000
0001
0000
0100
0010
0100
0000
0001
0000
0001
0000
1000
0000
,
0010
0000
0010
0000
0011
0000
0000
0110
0000
0000
1100
0000
0000
1001
0000
0000
,
0101
0000
0000
1010
0000
0000
0011
0000
0000
0011
0000
0000
1010
0000
1000
0100
,
1000
0000
0001
0000
0110
0000
0010
0001
0010
0000
0001
0000
0000
0000
0100
0001
,
0010
0000
0010
0001
1000
0000
0001
0010
0001
0000
0100
0000
0000
0000
0010
1000
,
0001
0000
0001
0010
0100
0000
0010
0001
1000
0000
0010
0000
0000
0000
0100
0001
,
0100
0000
0010
0100
0010
0000
1000
0010
0100
0000
1000
0000
0000
0000
0001
0010
,
0001
0000
0000
0000
1001
0000
0001
0010
0001
0000
1000
0000
0000
0000
0010
0100
,
0010
0000
0010
0001
1000
0000
0010
0010
0100
0000
0001
0000
0000
0000
1000
0100
,
0010
0000
0100
0010
0001
0000
1000
0100
0010
0000
0001
0000
0000
0000
0010
0001
,
0010
0000
0100
0010
0100
0000
1000
0001
1000
0000
0010
0000
0000
0000
0100
0010
,
0100
0000
0010
0001
0010
0000
0100
1000
0100
0000
0010
0000
0000
0000
0001
1000
,
0010
0000
0100
0010
1000
0000
0001
1000
0001
0000
0010
0000
0000
0000
0010
0100
,
0010
0000
1000
0001
1000
0000
0010
0010
0010
0000
0100
0000
0000
0000
1000
0010
,
1000
0000
1000
0010
1000
0000
0100
0010
0001
0000
0001
0000
0000
0000
0100
0000
,
0010
0000
0100
0000
0001
0000
0001
0010
0001
0000
0001
0100
0001
0000
1000
0010
,
1000
0000
1000
0001
0010
0000
0010
0001
0100
0000
0001
1000
0001
0000
0001
0100
,
0001
0000
0000
0000
1010
0000
0000
0011
0000
0000
1010
0000
0000
0110
0000
0000
,
1001
0000
0000
1010
0000
0000
0010
0001
0000
0100
0010
0000
1000
0100
1000
0100
,
0010
0001
0010
0001
1000
0000
0010
0000
1000
0000
0100
0000
0001
0000
0100
0000
,
0010
1000
0011
0010
0100
0010
0100
0001
,
1000
0001
0011
0100
1010
0010
0010
0001
,
0001
0100
0110
0001
0001
1000
1000
1000
,
0010
0100
0110
0001
1000
0010
0001
1000
,
0100
0001
0011
0100
0010
1000
0100
0010
,
0001
1000
1100
0010
0010
0010
0001
0001
,
0100
0010
1001
1000
0001
1000
1000
0010
,
1000
0000
0010
0000
0101
0000
0010
0001
0010
0001
0010
0000
0100
0000
1000
0000
,
0010
0100
0010
0000
1010
0000
0100
0010
0100
0001
0100
0000
0010
0000
1000
0000
,
0010
0001
0010
0000
1001
0000
1000
0010
1000
0100
0010
0000
0100
0000
0010
0000
,
0001
1000
0001
0000
1010
0000
0100
0001
0010
0001
0010
0000
0100
0000
1000
0000
,
0010
0001
0010
0000
0011
0000
0100
0000
0010
0000
0100
0000
0001
0000
0100
0000
,
0001
1000
0010
0100
0001
1000
0010
0100
,
0010
0100
0001
0001
1000
1000
0100
0100
,
0010
0000
0010
0000
0001
0010
0001
0010
0001
0010
0001
0100
0001
0100
0000
0000
,
0000
0100
0000
0000
0010
0000
0001
0000
0010
0000
0010
0000
0001
0000
0010
0000
,
0100
1000
0100
1000
0100
0010
0001
0010
,
0100
0000
0010
0000
0001
0000
1000
0001
1000
0000
1000
0001
0010
0000
0100
0010
,
0100
0000
0010
0100
0010
0000
0001
1000
0001
0000
1000
0001
1000
0000
0001
0010
,
0001
0000
0010
0001
0010
0000
0001
0000
0001
0000
0001
0000
0100
0000
0100
0000
,
0100
0100
0010
0010
0010
0010
1000
1000
,
0001
0001
1000
0010
1000
0010
0100
0010
,
0100
0010
1000
0001
0010
0001
0010
0001
,
0100
0001
0100
0010
0100
0010
0100
0001
,
0100
0001
0100
0010
0100
0001
0010
0001
,
0010
0100
0010
0100
0010
0001
0100
0010
,
0100
0001
0010
0010
0010
0010
0100
0100
,
0100
0100
0001
0001
0010
0010
0001
0001
,
0010
0010
0100
0100
0010
0010
0001
0001
,
0010
0100
0010
0100
0010
0001
0200
0000
,
0000
0020
0000
0330
;
