#VERSION:0.83;
#TITLE:Gekka Bijin;
#SUBTITLE:Taiko 2008;
#ARTIST:Unknown artist;
#TITLETRANSLIT:;
#SUBTITLETRANSLIT:;
#ARTISTTRANSLIT:;
#GENRE:;
#ORIGIN:;
#CREDIT:;
#BANNER:;
#BACKGROUND:;
#PREVIEWVID:;
#JACKET:;
#CDIMAGE:;
#DISCIMAGE:;
#LYRICSPATH:;
#CDTITLE:;
#MUSIC:Taiko no Tatsujin Soundtrack 2008 - Gekka Bijin.mp3;
#OFFSET:-0.089000;
#SAMPLESTART:2.233000;
#SAMPLELENGTH:12.000000;
#SELECTABLE:YES;
#BPMS:0.000=150.000;
#STOPS:;
#DELAYS:;
#WARPS:;
#TIMESIGNATURES:0.000=4=4;
#TICKCOUNTS:0.000=4;
#COMBOS:0.000=1;
#SPEEDS:0.000=1.000=0.000=0;
#SCROLLS:0.000=1.000;
#FAKES:;
#LABELS:0.000=Song Start;
#BGCHANGES:;
#KEYSOUNDS:;
#ATTACKS:
;

//---------------dance-single - ----------------
#NOTEDATA:;
#CHARTNAME:;
#STEPSTYPE:dance-single;
#DESCRIPTION:;
#CHARTSTYLE:;
#DIFFICULTY:Beginner;
#METER:2;
#RADARVALUES:0.158362,0.246094,0.169975,0.110853,0.000000,150.000000,127.000000,23.000000,15.000000,0.000000,0.000000,0.000000,0.000000,0.000000,0.158362,0.246094,0.169975,0.110853,0.000000,150.000000,127.000000,23.000000,15.000000,0.000000,0.000000,0.000000,0.000000,0.000000;
#CREDIT:;
#NOTES:
// measure 0
0000
0000
0000
0000
,  // measure 1
0000
0000
0000
0000
,  // measure 2
0000
0000
0100
0000
,  // measure 3
0000
0000
0000
0000
,  // measure 4
0000
0000
0100
0000
,  // measure 5
0000
0000
1001
0000
,  // measure 6
0000
0000
0110
0000
,  // measure 7
0000
0000
1000
0000
,  // measure 8
0000
0000
0001
0000
,  // measure 9
0000
0000
1001
0000
,  // measure 10
0000
0000
1000
0000
,  // measure 11
0000
0000
0010
0000
,  // measure 12
0000
0000
0200
0000
,  // measure 13
0000
0300
0020
0000
,  // measure 14
0000
0030
0110
0000
,  // measure 15
1000
0000
0001
0000
,  // measure 16
0100
0000
0001
0000
,  // measure 17
0010
0000
0001
0001
,  // measure 18
0001
0000
2000
0000
,  // measure 19
0000
3000
0002
0000
,  // measure 20
2003
0000
3001
0000
,  // measure 21
0001
0000
1000
0000
,  // measure 22
0001
0000
1001
0000
,  // measure 23
0000
0000
1001
0000
,  // measure 24
0000
0000
0001
0000
,  // measure 25
0100
0000
0010
0000
,  // measure 26
1000
0000
0002
0000
,  // measure 27
0000
0003
2000
0000
,  // measure 28
3002
0000
1003
0000
,  // measure 29
0000
0000
1000
0000
,  // measure 30
0000
0100
0100
0100
,  // measure 31
0100
0000
0000
0110
,  // measure 32
0000
0000
1001
0000
,  // measure 33
0000
0000
0110
0000
,  // measure 34
0010
0000
0000
1000
,  // measure 35
0000
0001
0000
0010
,  // measure 36
0000
0000
0001
0001
,  // measure 37
0001
0000
1000
1000
,  // measure 38
1000
0000
0010
0000
,  // measure 39
0010
0000
0100
0000
,  // measure 40
0100
0000
0100
0000
,  // measure 41
0110
0000
1001
0000
,  // measure 42
1001
0000
0000
0000
,  // measure 43
0001
0000
0000
0000
,  // measure 44
1000
0000
0000
0000
,  // measure 45
1001
0000
0000
0000
,  // measure 46
0001
0000
0000
0000
,  // measure 47
0101
0000
0000
0000
,  // measure 48
0100
0000
0100
0000
,  // measure 49
0100
0000
0000
0000
,  // measure 50
0010
0000
1000
0000
,  // measure 51
0001
0000
1000
0000
,  // measure 52
1000
0000
0100
0000
,  // measure 53
0010
0000
0001
0000
,  // measure 54
1000
1000
1000
0000
,  // measure 55
0010
0000
0010
0000
,  // measure 56
0200
0000
0000
0000
,  // measure 57
0302
0000
0000
0000
,  // measure 58
1003
0000
0000
0000
,  // measure 59
0200
0000
0000
0000
,  // measure 60
0302
0000
0000
0000
,  // measure 61
0023
0000
0000
0000
,  // measure 62
0030
0000
0000
0000
,  // measure 63
0110
0000
0000
0000
,  // measure 64
0010
0000
0000
0000
,  // measure 65
1001
0000
0000
0000
,  // measure 66
1001
0000
2000
0000
,  // measure 67
3010
0000
0010
0000
,  // measure 68
0100
0000
0100
0000
,  // measure 69
0010
0000
0010
0000
,  // measure 70
0001
0000
0001
0000
,  // measure 71
1000
1000
1000
0000
,  // measure 72
0001
0000
0100
0000
,  // measure 73
0020
0000
0000
0000
,  // measure 74
1030
0000
0100
0000
,  // measure 75
1000
0000
0110
0000
,  // measure 76
0100
0000
0001
0000
,  // measure 77
1001
0000
0000
0000
,  // measure 78
0001
0000
1000
0000
,  // measure 79
1001
0000
0100
0000
,  // measure 80
0010
0000
1000
0000
,  // measure 81
1001
0000
0000
0110
,  // measure 82
0000
0000
1001
0000
,  // measure 83
0001
0100
0000
0000
;

//---------------dance-single - ----------------
#NOTEDATA:;
#CHARTNAME:;
#STEPSTYPE:dance-single;
#DESCRIPTION:;
#CHARTSTYLE:;
#DIFFICULTY:Easy;
#METER:4;
#RADARVALUES:0.228041,0.399903,0.258658,0.073902,0.000000,216.000000,181.000000,35.000000,10.000000,0.000000,0.000000,0.000000,0.000000,0.000000,0.228041,0.399903,0.258658,0.073902,0.000000,216.000000,181.000000,35.000000,10.000000,0.000000,0.000000,0.000000,0.000000,0.000000;
#CREDIT:;
#NOTES:
0000
0000
1001
0000
,
0000
0000
0000
0000
,
0000
0000
1000
0000
,
0000
0000
0000
0000
,
0000
0001
1000
0000
,
0000
0000
1000
0000
,
0000
0000
1000
0100
,
1000
0000
0001
0010
,
0001
0000
0001
1000
,
0001
0000
1000
1000
,
1000
0000
0001
0001
,
0001
0000
1000
0100
,
0010
0000
0110
0110
,
0110
0000
0110
0110
,
0110
0000
1000
0000
,
1000
0000
1000
0000
,
0001
0000
0001
0000
,
0001
0000
1000
0000
,
1000
0000
1000
0000
,
1000
0000
0001
0000
,
0010
0000
1000
0000
,
1000
0000
0001
0000
,
0001
0000
1001
0010
,
0100
0000
1000
0100
,
0010
0000
0001
0001
,
0001
0000
0001
0010
,
0001
0000
1000
1000
,
1000
0000
0001
0000
,
0010
0000
1000
1000
,
0100
0000
1000
0000
,
0100
0000
1001
0000
,
0110
0110
0000
1001
,
1001
0000
0110
0000
,
1001
1001
1001
0000
,
1000
0001
1000
0100
,
0010
0001
0010
0010
,
0001
0100
0001
0001
,
1000
0100
0001
0000
,
0010
0100
1000
0000
,
0100
0010
0010
0000
,
0110
0010
0010
0000
,
0100
0100
0001
0100
,
0001
0000
0000
0000
,
1001
0000
0000
0000
,
1000
0000
0000
0000
,
0110
0000
0000
0000
,
0001
0000
0000
0000
,
0110
0000
0000
0000
,
1010
0000
1010
0000
,
0011
0000
0000
0000
,
1000
1000
0100
0000
,
1000
0100
1000
0000
,
0001
0010
0001
0000
,
1000
0100
0100
0010
,
0001
0000
0010
0000
,
1000
0000
0100
0000
,
0011
0000
0010
0000
,
0100
0100
0100
0100
,
0200
0000
0000
0300
,
0002
0000
0000
0003
,
0020
0000
0000
0030
,
2000
0000
0000
3000
,
0010
0000
0010
0000
,
0010
0000
0010
0000
,
1001
0000
0000
0000
,
1001
0000
0000
0000
,
1001
0000
0000
0100
,
0010
0000
0010
0000
,
0010
0000
0100
0000
,
0001
0000
0100
0000
,
0001
0000
0010
0000
,
0100
0000
1000
0000
,
0100
0000
0100
0000
,
1000
0000
0001
0000
,
0100
0010
0100
0000
,
0110
0000
0001
0000
,
0100
0000
1000
0000
,
1001
0000
1000
0000
,
0001
0000
0001
0000
,
1001
0000
0010
0000
,
1000
0000
0001
0000
,
2002
0000
3003
0220
,
0000
0330
2002
0000
,
3003
1001
0000
0000
;

//---------------dance-single - ----------------
#NOTEDATA:;
#CHARTNAME:;
#STEPSTYPE:dance-single;
#DESCRIPTION:;
#CHARTSTYLE:;
#DIFFICULTY:Medium;
#METER:7;
#RADARVALUES:0.391682,0.553712,0.266048,0.147804,0.000000,371.000000,335.000000,36.000000,20.000000,0.000000,0.000000,0.000000,0.000000,0.000000,0.391682,0.553712,0.266048,0.147804,0.000000,371.000000,335.000000,36.000000,20.000000,0.000000,0.000000,0.000000,0.000000,0.000000;
#CREDIT:;
#NOTES:
0000
0000
1001
0000
,
0000
0000
0000
1000
,
0000
0000
1001
0000
,
0000
0000
0001
0000
,
0000
0001
1000
0000
,
0000
1000
0001
0001
1000
0001
0000
0000
,
0000
0001
0000
0001
1000
0000
0000
0000
,
0000
0001
1000
1000
0001
1000
0000
0000
,
0000
1000
0000
1000
0001
0000
0000
0000
,
0000
1000
0001
0001
1000
0100
0010
0001
,
0010
0100
0010
0000
0001
0001
1000
1000
,
0001
0001
0001
0000
1000
1000
0001
0001
,
1000
1000
0001
0000
0110
0000
0100
0000
,
0100
0001
0110
1000
,
0110
0000
0000
0000
1000
0100
0001
0100
,
1000
0000
0001
0000
1000
0100
0010
0001
,
0010
0000
0010
0000
0001
0010
1000
0010
,
0001
0000
1000
0000
0001
0010
0001
0010
,
0001
0100
0100
0010
2000
0000
0000
0000
,
0000
0000
3002
0000
,
0023
0000
0230
0001
,
0010
0000
1300
0100
,
0001
0010
0100
0000
1001
0000
0010
0001
,
0100
0000
0000
0000
1000
0000
0100
1000
,
0010
0000
0000
0000
1001
0000
0001
1000
,
0001
0000
0000
0000
0001
0100
0010
0100
,
0001
0001
2000
0000
,
0000
0000
3002
0000
,
0020
0000
0030
0000
1003
0000
1000
0010
,
0100
0000
0010
0000
1000
0000
0100
1000
,
0100
0010
1001
0110
,
0110
1001
1001
0110
,
0110
1001
0110
1001
,
1001
0110
1001
0000
,
1000
0000
0001
0000
1000
1000
0100
0000
,
0010
0000
0001
0000
0010
0001
0010
0000
,
0001
0010
0001
0000
0001
0000
0000
0000
,
1000
0010
0100
0000
0001
0000
1001
0000
,
0010
0000
0100
0001
0010
0000
0001
0000
,
1000
1000
0010
0000
0010
0100
0010
0000
,
0001
1000
0001
1000
0001
0100
0001
0000
,
1000
0001
1000
0010
1000
0001
0100
0000
,
0001
0000
0000
0000
0000
0000
0000
0010
,
1000
0010
0000
0000
0000
0000
0000
0000
,
1000
0000
0000
0000
0000
0000
0000
1000
,
0100
1000
0000
0000
0000
0000
0000
0000
,
0001
0000
0000
0000
,
0110
0000
0000
0000
,
1010
0000
1010
1010
,
0011
0011
0000
0000
,
1000
0100
1000
0100
1000
0000
0000
0000
,
0001
1000
0001
0100
0001
0000
0000
0000
,
0001
0100
0010
0100
0001
0000
0000
0000
,
0010
0100
0100
0010
0010
0000
0010
0100
,
1001
0000
0010
0010
,
1000
1000
0100
0100
,
0011
0010
0010
0001
,
0100
0010
0100
0010
0100
0010
0100
0010
,
0200
0000
0000
0300
,
0001
1000
0100
1000
0100
1000
0100
0010
,
0002
0000
0000
0003
,
1000
0100
0010
0001
0100
0010
1000
0100
,
0010
0000
0010
0000
,
0010
0000
0100
0000
,
1001
0000
0100
0100
0000
0010
1000
0010
,
1000
0000
0010
0010
0000
0100
0001
0100
,
0002
0000
0000
0003
,
0010
0001
0010
0001
,
0020
0000
0000
0000
0000
0000
0000
0000
0230
0000
0000
0000
0000
0000
0000
0300
,
0010
0001
0100
0010
,
1000
0001
0010
0000
,
0100
0010
1000
0100
,
0020
0000
0230
0000
,
1300
1000
0001
0001
,
0100
0010
0100
0010
0100
0010
0100
0010
,
0100
0000
0000
1000
0001
1000
0000
1000
,
0100
0010
0000
0010
0001
0010
0000
0000
,
1001
0000
0000
0100
1000
0100
0000
0010
,
0001
0010
0000
0010
1000
0010
0000
0000
,
1001
0000
0000
0100
0010
0100
0000
0001
,
1000
0100
0000
0010
0100
1000
0000
0000
,
2002
0000
3003
0220
,
0000
0330
2002
3003
,
0100
1001
0000
0000
;

//---------------dance-single - ----------------
#NOTEDATA:;
#CHARTNAME:;
#STEPSTYPE:dance-single;
#DESCRIPTION:;
#CHARTSTYLE:;
#DIFFICULTY:Hard;
#METER:8;
#RADARVALUES:0.545820,0.553712,0.251267,0.155195,0.081292,517.000000,483.000000,34.000000,21.000000,0.000000,0.000000,0.000000,0.000000,0.000000,0.545820,0.553712,0.251267,0.155195,0.081292,517.000000,483.000000,34.000000,21.000000,0.000000,0.000000,0.000000,0.000000,0.000000;
#CREDIT:;
#NOTES:
0000
0000
2002
0000
,
0000
0000
0000
3003
,
0000
0000
0220
0000
,
0000
0000
0000
0000
0000
0330
0000
0000
,
0000
0000
0110
1000
,
0000
0001
0100
0001
0010
0001
0000
0000
,
0000
0001
0000
0100
0010
0000
0100
0000
,
0001
1000
0010
1000
0010
1000
0000
0001
,
0000
0001
0000
0100
0110
0000
1000
0100
,
0100
0001
0100
1000
0100
0010
0001
0100
,
0010
1000
0001
0000
1000
0100
0010
0001
,
0010
0100
1000
0100
1000
0010
0100
0010
,
0100
0000
0000
1000
0000
0000
0100
0000
0000
0000
0000
0000
0101
0000
0000
0000
0000
0000
0001
0000
0000
0000
0010
0000
,
0001
0000
0000
0101
0000
0000
1001
0000
0100
1000
0000
0001
,
0100
0000
0000
0000
0000
0000
0000
0000
1000
0000
0100
0010
0100
0000
1000
0000
,
0001
0000
0000
0000
0100
0000
0000
0000
0100
0000
0001
0100
0001
0000
0000
0000
,
0100
0000
0100
0000
0001
0010
0100
1000
,
1000
0000
0100
0000
0010
0000
0001
0000
0100
0000
0001
0100
0001
0000
0100
0001
,
0100
0101
0200
0001
,
1000
0301
0002
0103
,
0120
1030
2002
3003
,
1000
0010
0100
0001
1000
0010
0001
0010
,
1000
0001
0100
0000
1001
0010
0010
0100
,
0100
0000
0100
0000
1000
0100
0010
0001
,
0001
0000
0100
0000
0001
0010
1000
0010
,
0100
0000
1001
0000
1000
0001
0001
0010
,
0100
0010
0220
0000
,
0330
1000
0002
0103
,
0001
0100
0010
0100
0001
0000
0110
0000
,
1001
1000
1010
0000
0010
0100
0010
0100
,
0010
0000
0000
1001
0000
0000
1000
0000
1000
0001
0000
0001
,
1000
0000
0000
1000
0000
0001
0100
0000
0001
1000
0000
0000
,
0001
0100
0001
0100
0000
0000
0010
0100
0010
0100
0000
0000
,
1000
0100
1000
0100
0000
0000
0110
0000
0000
0000
0000
0000
,
0001
1000
0010
0100
0100
0001
1000
0000
,
0010
0000
1000
0100
1000
0000
0001
0100
,
0001
1000
0010
0000
0100
0001
0001
0000
,
1000
0010
1000
0010
0100
0001
0100
0001
,
0010
1000
0010
1000
0010
0001
1000
0000
,
0100
0001
0100
1000
0001
0100
0010
0000
,
1000
0100
0010
0100
0010
0100
1000
0001
,
1001
0000
0100
0010
0100
0010
0100
0010
,
0110
0000
0000
0000
1000
0000
0000
0000
0001
0000
0000
0000
0000
0000
0100
0010
,
0100
0000
0010
0100
,
2002
0000
0000
0000
0000
0000
0000
0000
3003
0000
0000
0000
0000
0000
1000
0100
,
1000
0000
0000
0000
0001
1000
0010
0000
,
2002
0000
0000
0000
0000
0000
0000
0000
3003
0000
0000
0000
0000
0000
0010
0100
,
0010
0000
0000
0000
0100
0100
0001
0000
,
1000
0010
0100
0001
0010
0100
1000
0100
,
0010
0110
0000
0000
0000
0000
0100
0000
,
0010
0001
0010
0001
0100
0000
0001
0000
,
1000
0100
1000
0100
1000
0001
0010
0010
,
0001
1000
0010
0100
0001
0100
1000
0100
,
0010
0000
0110
0000
0110
0000
0001
1000
,
1001
0000
0010
0001
0010
0000
0100
1000
,
0100
0000
0010
0001
0010
0100
1000
0100
,
0010
0000
0001
0010
1000
0010
0001
0000
,
0100
0010
0100
0010
0100
0000
1001
0000
,
0100
0001
0010
0100
1000
0001
0010
0100
,
1000
0001
1000
0001
1000
0010
0100
0010
,
1000
0001
0001
1000
1000
0001
0010
0100
,
0010
0001
0010
0100
1000
0010
0100
0001
,
1000
0001
1000
0001
0001
1000
0001
1000
,
0001
1000
0010
1000
0010
1000
0100
0010
,
0001
0000
0100
0100
0000
0001
0010
0100
,
1001
0000
1000
1000
0000
1000
0100
0010
,
0002
0000
0003
1000
,
0001
0000
0100
0010
0100
0000
0100
0010
,
0100
0000
0010
0100
0010
0000
0010
1000
,
0010
0000
0100
0001
0010
0001
1000
0000
,
0100
0010
0100
0010
0001
1000
0100
0010
,
1001
0000
0001
0100
0010
0100
0001
0100
,
0001
1000
0010
1000
0100
1000
0001
0010
,
0001
0100
0010
0010
0100
0100
0001
0100
,
0001
0010
0100
1000
0001
0001
0100
0001
,
0101
0000
0000
0001
1000
0010
0000
1000
,
0100
0010
0000
0001
0010
0100
0000
1000
,
0100
0010
0000
0001
0100
0010
0000
1000
,
0010
0100
0000
0001
1000
0001
0000
0001
,
1000
0001
1000
0001
0010
0100
1000
0100
,
0010
0001
0001
1000
0001
1000
0100
0010
,
2002
0000
3003
0202
,
0000
0000
0000
0303
0000
0000
1001
0000
0000
1001
0000
0100
,
0010
0000
1000
0001
0000
0000
0000
0000
0000
0000
0000
0000
;

//---------------dance-single - ----------------
#NOTEDATA:;
#CHARTNAME:;
#STEPSTYPE:dance-single;
#DESCRIPTION:;
#CHARTSTYLE:;
#DIFFICULTY:Challenge;
#METER:10;
#RADARVALUES:0.865711,0.892092,0.480364,0.236487,0.683595,820.000000,755.000000,65.000000,32.000000,0.000000,0.000000,2.000000,0.000000,0.000000,0.865711,0.892092,0.480364,0.236487,0.683595,820.000000,755.000000,65.000000,32.000000,0.000000,0.000000,2.000000,0.000000,0.000000;
#CREDIT:;
#NOTES:
0000
0000
1001
0000
,
0000
0000
0000
0000
0000
0000
0000
0000
0010
0100
0000
0000
0000
0000
0000
0000
,
0000
0000
0220
0030
,
0301
0000
0000
0000
0001
0000
0000
0000
0100
0010
0000
0000
0000
0000
0000
0000
,
0000
0100
0110
1000
,
0000
0001
0100
0001
0010
0001
0000
1000
,
0000
0000
0001
0000
0000
0000
0100
0000
0010
0000
0100
0010
0100
0000
0001
1000
,
0001
0000
1000
0100
0010
0000
1000
0100
0010
0001
1000
0001
0100
0000
0001
0010
,
0001
0010
0001
0000
1000
0000
0100
0010
0001
0000
1000
0100
1000
0000
0100
1000
,
0100
0000
1000
0010
0100
0000
0001
0000
0101
0000
1010
0000
1010
0000
0101
0000
,
0011
0110
1001
1001
2000
3200
0320
0032
,
1003
0000
0100
0000
0001
0000
0100
0000
1000
0000
0001
0100
0001
0000
0100
0001
,
0100
0000
0000
0010
0000
0000
0010
0000
0000
0010
0000
0000
0100
0000
0001
0000
0100
0000
0001
0000
1000
0000
0010
0000
,
1000
0010
0100
0100
0000
0000
0001
0010
0100
1000
0100
0010
,
0011
0000
0000
0000
0000
0000
0000
0000
1001
0000
0100
0010
0100
0000
0001
0000
,
0011
0000
1001
0000
0101
0000
0010
0000
0100
0000
1000
0100
1000
0000
0001
0000
,
0100
0000
0010
0000
0100
0000
0001
0000
0001
0010
0100
0010
0001
0000
1000
0000
,
1000
0000
0010
0000
0010
0000
0100
0000
0100
0000
0001
0010
0100
0010
0001
0010
,
0100
0000
1000
0000
0100
1000
0010
0000
0101
0000
0010
0000
0011
0000
1000
0000
,
1000
0000
0100
0010
0100
0000
0010
0000
0002
0000
0100
0000
0103
0000
0100
0000
,
0020
0001
0031
0001
2000
0001
3001
0002
,
1003
0000
0020
0000
0130
0000
0002
0000
0013
0000
0010
0001
0010
0000
0001
1000
,
0001
1000
0001
0000
0100
0000
0110
0000
1001
0000
0010
0100
0010
0000
0100
0000
,
0010
0000
1001
0000
0110
0000
0001
0000
1000
0000
0100
0010
0001
0000
0011
0000
,
1001
0000
1000
0000
0100
0000
0110
0000
1001
0000
0010
0100
1000
0000
0001
0010
,
0100
0000
1000
0000
0002
0000
0003
0000
1000
0000
0001
0010
0001
0000
0010
0001
,
0100
0000
0001
0100
0010
0000
0100
0010
0100
0000
0001
1000
0100
0000
0010
0001
,
1000
0010
0100
0001
1000
0000
0001
0000
0001
0000
1000
0010
0100
0000
0001
0010
,
0001
0100
0001
0000
0100
0000
0100
0000
1001
0000
1000
0010
0100
0000
0001
0000
,
1001
0000
1000
0000
1000
0000
1000
0000
0010
0000
0010
0000
0010
0000
0100
0010
,
0100
0000
0000
1000
0000
0000
1001
0000
0000
0000
0000
0000
1000
0000
0100
0000
0010
0000
0001
0000
0010
0000
0100
0000
,
1000
0000
0000
1000
0100
0010
0100
0010
0001
1000
0000
0000
,
0001
0100
0010
0100
0001
1000
0010
0100
0001
0100
0000
0000
,
1000
0100
0010
0100
1000
0010
0101
0000
0000
0000
0000
0000
,
0100
0010
1000
0100
0010
0000
0001
0100
0001
0000
0001
0000
0001
0010
0100
0010
,
0100
0000
1000
0100
1000
0100
0010
0100
0010
0100
1000
0100
0010
0000
0001
0010
,
0001
0000
0010
0001
0010
0000
0001
0010
0100
0010
0001
0000
0010
0000
0100
1000
,
0100
0010
0001
0000
0010
0000
0001
0100
0010
0100
0001
0000
0110
0000
0100
0001
,
0010
0000
0001
1000
0010
0000
1000
0001
0010
0000
0001
1000
0010
0000
1000
0100
,
0001
0001
0100
1000
0001
0100
0010
0110
,
1000
0010
0001
0010
1000
0100
1000
0001
,
1001
0001
0101
0001
0110
1100
1100
0110
,
0010
0000
1000
0100
1000
0000
0001
0000
0001
0000
0001
0000
0001
0000
0100
0010
,
0100
0000
0001
1000
0001
0000
0010
0000
0010
0000
0100
0000
0100
0000
0100
0000
,
2000
0010
3010
0020
1000
1030
0100
0100
,
0001
0000
0100
0000
0100
0000
1000
0000
0001
0000
1000
0100
0010
0000
0001
0000
,
1001
0000
0100
0000
0100
0000
0100
0000
0100
0000
0001
1000
0010
0000
0010
1000
,
0001
0000
0100
0010
0100
0001
0100
0010
0100
0001
0100
0000
0001
0000
0000
0000
,
1000
0010
0000
0000
0000
0000
0000
0000
0001
0100
0000
0000
0000
0000
0000
0000
0010
0000
0000
0000
0100
0000
0000
0000
0000
0000
0000
0000
0010
0000
0000
0000
,
0110
0000
0110
0000
0000
0000
1000
0001
1000
0100
0010
0001
0100
0000
0000
0000
,
0011
0000
0010
0000
1100
0000
0100
0000
1001
0000
1000
0100
1000
0100
1000
0000
,
0001
0010
0100
1000
0001
1000
0010
0000
1000
0000
0001
0000
1000
0000
0110
0000
,
1001
0000
1000
0100
0010
0000
0100
0000
0001
0000
0100
0000
1000
0000
0010
0100
,
0010
0000
0100
0010
0100
0000
0010
0100
0010
0000
0000
0000
0002
0000
2003
0000
,
3001
0000
0010
0001
0010
0000
0010
0000
0010
0000
0001
1000
0010
0100
0010
0000
,
0100
0000
0100
0010
1000
0000
0010
0000
1000
0000
1000
0000
0001
0000
1000
0000
,
0200
0320
0032
0103
0020
0100
0100
0000
,
0130
0100
0010
0010
0110
0110
1001
1001
,
0100
0001
0010
0100
1000
0001
0010
0100
,
1000
0100
1000
0100
1000
0000
0001
0010
0001
0000
1000
0100
1000
0000
0010
0100
,
0010
0000
0100
0001
0100
1000
0100
0010
0100
0000
0001
0000
1000
0000
0100
0000
,
0010
0001
0010
0100
0010
0001
0010
0100
1000
0010
0100
0001
0100
0010
0100
0000
,
1001
0100
0000
0000
0100
0010
0010
0010
,
0100
0000
0001
0010
0001
0010
0001
1000
,
2200
0000
3300
0000
0101
0000
0101
0000
0000
0000
1000
0100
0010
0000
0101
0000
,
1001
0000
0000
0000
1100
0000
1100
0000
0000
0000
0001
0010
0100
0000
1100
0000
,
2002
3000
2003
3000
,
0001
0000
0000
0000
0100
0000
0010
0000
0100
0000
0010
0100
0010
0000
1000
0000
,
1100
0010
0001
1000
0010
0100
1000
0100
,
0002
0000
0103
0001
0010
0010
0001
1000
,
0010
0000
0100
0000
0010
0000
1000
0100
1000
0001
0010
0001
0010
0100
0010
0001
,
1000
0000
0010
0100
0001
0000
0100
0001
0010
0000
0100
0010
0001
0000
0100
0010
,
0100
0000
0001
1000
0100
0000
0010
0001
0010
0000
0100
0000
0100
0000
0010
0000
,
0001
0000
0100
0001
0010
0000
0010
0001
0010
0000
0001
1000
0100
0000
0010
0100
,
1000
0100
0010
0001
1000
0010
0100
0010
1000
0001
0100
0010
0100
0000
0010
0000
,
0110
0000
0100
0001
0010
0000
0001
1000
0010
0000
1000
0100
1000
0100
0010
0100
,
0010
0100
1000
0100
1000
0000
0001
0010
0001
0000
0100
0100
0001
0000
0100
0001
,
0001
1000
0010
0100
0001
1001
1000
0100
,
0200
0000
2300
0000
3002
0000
0103
0010
0010
0000
1000
0000
0010
0000
0001
0000
,
1000
0000
0001
0000
1000
0000
0001
0100
0010
0000
1000
0100
0010
0000
0001
1000
,
0100
0000
0010
0000
0010
0000
0001
0000
0001
0000
1000
0100
0010
0100
1000
0000
,
2004
0000
3003
0240
,
0000
0000
0000
0330
0000
0000
1000
0100
0010
0001
0010
0001
,
0010
0100
1000
0100
0000
0000
0000
0000
0000
0000
0000
0000
;
