#TITLE:Forbidden Fruit;
#SUBTITLE:;
#ARTIST:Katrina feat. BGR;
#TITLETRANSLIT:;
#SUBTITLETRANSLIT:;
#ARTISTTRANSLIT:;
#GENRE:;
#CREDIT:;
#BANNER:Forbidden Fruit.png;
#BACKGROUND:;
#LYRICSPATH:;
#CDTITLE:;
#MUSIC:Katrina - Forbidden Fruit Featuring BGR.mp3;
#OFFSET:-0.168000;
#SAMPLESTART:104.985001;
#SAMPLELENGTH:12.000000;
#SELECTABLE:YES;
#BPMS:0.000000=105.000000
;
#STOPS:
;
#BGCHANGES:;
#KEYSOUNDS:;
#ATTACKS:;

//---------------dance-single - ----------------
#NOTES:
     dance-single:
     :
     Edit:
     9:
     0.656857,0.761365,0.441294,0.441294,0.658382,646.000000,584.000000,62.000000,62.000000,0.000000,0.000000,0.656857,0.761365,0.441294,0.441294,0.658382,646.000000,584.000000,62.000000,62.000000,0.000000,0.000000:
0000
0000
0000
0000
,
0000
0000
1000
0000
,
0001
0000
0000
0000
0000
0000
0000
1000
0000
0000
0000
0000
0000
0000
0000
0000
,
0002
0003
0020
0030
0200
0000
0300
0000
,
1001
0000
0000
0000
1000
0000
0000
0001
0000
0000
0000
0000
0000
0000
0000
0000
,
0000
0000
0000
0000
0001
0100
0001
1000
,
0001
0000
0010
0000
0001
0000
0010
0000
0000
0000
0011
0000
0000
0000
0001
0010
,
0001
0010
0010
0000
0010
0100
0010
0100
,
0001
0000
0001
0000
1000
1000
0100
1000
0000
0000
0110
0000
0000
1000
0100
1000
,
0000
0000
0010
0000
0001
0000
1000
0000
0101
0000
0011
0000
1000
0000
0010
0001
,
0010
0000
0001
0000
2000
0000
3100
0000
0010
0001
1000
0100
0010
0001
1000
0100
,
0010
0000
0001
0000
0010
0000
0100
0000
1000
0000
0110
0000
0001
0000
0010
0100
,
0010
0100
0010
0000
0001
0010
0000
0000
0010
0001
0010
0000
0100
0010
0100
0000
,
0011
1100
0110
0101
0020
0031
1000
0100
,
1000
0000
0010
0000
0020
0000
1000
0000
1030
0000
0100
0000
0100
0000
0010
0001
,
0010
0010
1000
0100
2000
3010
1000
0200
,
0310
0000
0001
0000
2000
0000
0010
0000
3001
0000
0100
0000
1000
0000
0010
0001
,
0100
0000
0001
0000
2000
0000
3000
0000
0020
0000
0000
0032
0000
0000
0023
0000
,
0000
0230
0000
0000
1300
0000
0100
0000
1000
0000
0000
0020
0000
0000
0031
0000
,
1000
0100
0010
0001
0100
0010
1000
0010
1000
0000
1000
0010
1000
0000
0011
0000
,
0001
0000
0100
0000
0010
0000
0100
0010
0100
0000
0001
0010
0001
0000
0010
0000
,
0001
0000
0000
0000
0000
0000
0000
0000
1000
0001
1000
0001
1000
0001
1000
0001
2000
0000
0000
0000
0000
0000
0000
0000
0100
0000
0000
0000
0000
0000
0000
0000
,
0100
0000
0000
0000
0001
0000
0000
0010
0000
0000
0100
0000
0000
0100
3000
0000
,
1000
0100
0010
0100
1000
0001
0100
0010
1000
0000
0001
0000
0100
0000
0010
0000
,
0110
0000
0010
0000
0001
1000
0010
0000
0010
0000
0100
0000
0101
0000
0010
0000
,
0001
0000
1000
0000
0100
1000
0010
0100
0110
0000
0002
0000
0103
0000
0020
0000
,
0130
0000
0020
0000
1030
1000
0000
1000
0000
0000
0020
0000
0130
0001
0000
0000
,
0010
0001
1000
0100
0010
0100
0010
0001
0100
0000
0010
0000
0001
0000
0110
0000
,
1001
0000
0010
0000
0011
0000
0100
0001
0010
0001
1000
0001
1000
0000
0010
0000
,
0100
0010
2002
3003
0000
0010
0010
0100
,
0100
0000
0010
0001
0010
0000
0001
0000
1000
0000
0100
0010
0001
0100
0010
0000
,
0011
0000
1000
0001
0100
0010
0010
0000
1001
0000
0000
0000
0010
0001
0100
0001
,
1000
0100
0010
0001
1000
0000
0000
0000
0100
1000
0100
0000
0100
0010
0100
0000
,
0010
0000
0000
0001
0000
0000
0010
0000
0000
0100
0000
0000
0010
0000
0000
0001
0000
0000
0100
0000
0000
0000
0000
0000
0220
0000
0000
0000
0000
0000
0330
0000
0000
0000
2002
0000
0000
0000
3003
0000
0000
0000
0120
0000
0000
0030
0000
0000
,
1002
0003
0020
0030
0220
0000
0330
0000
1000
0001
1000
0010
0100
0001
1000
1000
,
0010
0200
0300
0000
0001
0000
0000
0000
0010
0000
0000
0001
0000
0000
0010
0000
,
0100
0000
0000
0110
0000
0000
0000
0000
0001
0100
0001
0100
0010
1000
0010
1000
,
0010
0020
0030
0000
0001
0000
0001
1000
0010
0100
0001
0001
0010
0001
0010
0100
,
1000
0010
0010
0010
0000
0000
0001
1000
0100
1000
0100
0020
0030
0000
0100
0010
,
0100
0001
0010
0100
1010
0000
1000
0100
1000
0000
0011
0011
0011
0000
0020
0000
,
0130
0000
1000
0000
0010
0010
1000
0100
0010
0000
0010
0100
1000
0000
1001
0000
,
1001
0000
0010
0000
0100
0000
0011
0010
0011
0000
0110
0100
0110
0000
1000
0001
,
1000
0010
0100
0010
0100
0000
0011
0000
0100
0000
1000
0001
1000
0100
1001
1100
,
0100
0000
1000
0001
0010
0100
0010
0001
0010
0000
1000
0100
1000
0000
0011
0000
,
0010
0000
0100
0000
0100
0010
0001
0010
0011
0000
1100
1010
1010
0000
0011
0000
,
0101
0000
0000
0000
0002
0000
0003
0000
0010
0001
0010
0001
0010
0001
0010
0001
2000
0000
0000
0000
3100
0000
0010
0000
0001
0000
0000
0000
1000
0000
0001
0000
,
1000
0000
0001
0000
0110
0000
0000
0101
0000
0000
0010
0100
0010
0100
0000
0001
,
0010
0001
1000
0100
1000
1000
0010
1000
0010
0000
0100
0010
0100
0000
0011
0000
,
1001
0000
0010
0000
0100
0010
0100
0001
0100
0010
0100
0001
0010
0000
1000
0000
,
0100
0000
0010
0000
0002
2003
3002
2003
3002
0000
0010
0000
0010
0000
0010
0000
,
0103
0000
0020
0000
1030
0100
2000
0000
3010
0000
0200
0000
0310
1000
0200
0000
,
1300
0100
0010
0100
1000
0001
0010
0100
1000
0000
0100
0000
1000
0000
0110
0000
,
1001
0000
0010
0000
0010
0100
0010
0001
0010
0100
0010
0001
1001
0000
0100
0010
,
0100
0000
0001
0001
0020
0230
0320
2030
3002
0000
0013
0010
0200
0000
0310
0001
,
1001
0000
0010
0001
1100
0000
0000
0011
0000
0000
0100
0001
0100
0001
0000
0001
,
1000
0010
1000
0010
0100
0001
0010
0100
0001
0000
1000
0010
1000
0000
0101
0000
,
1100
0000
1001
0000
0100
0100
0010
0100
0001
1000
0001
0010
0100
0000
0010
0000
,
0100
0000
0010
0000
0002
2003
3002
2003
3020
0000
2030
3100
1000
0000
0020
0031
,
0010
0000
0200
0000
0310
0100
0000
0020
0000
0030
0100
0010
1000
0100
0000
0100
,
0010
0001
1000
0010
0010
0100
0001
0010
0010
0000
0100
0001
1000
0000
1010
0000
,
0011
0000
1100
0000
1000
0010
1000
0010
0100
0001
0010
0001
0020
0000
0000
0000
,
0000
0030
0000
0000
0000
0000
0000
0000
;
