#TITLE:Feels Right Tomorrow;
#SUBTITLE:;
#ARTIST:I. Rich;
#TITLETRANSLIT:;
#SUBTITLETRANSLIT:;
#ARTISTTRANSLIT:;
#GENRE:;
#CREDIT:;
#BANNER:;
#BACKGROUND:Feels Right Tomorrow-bg.png;
#LYRICSPATH:;
#CDTITLE:;
#MUSIC:Feels Right Tomorrow.ogg;
#OFFSET:-0.091000;
#SAMPLESTART:40.860001;
#SAMPLELENGTH:16.000000;
#SELECTABLE:YES;
#BPMS:0.000000=100.000000
;
#STOPS:
;
#BGCHANGES:;
#KEYSOUNDS:;
#ATTACKS:;

//---------------dance-single - ----------------
#NOTES:
     dance-single:
     :
     Medium:
     8:
     0.494070,0.567951,0.465757,0.267563,0.475667,349.000000,302.000000,47.000000,27.000000,0.000000,0.000000,0.494070,0.567951,0.465757,0.267563,0.475667,349.000000,302.000000,47.000000,27.000000,0.000000,0.000000:
0000
0000
0000
0000
0000
0000
0000
0000
0000
0000
0100
0000
0001
0000
0001
0200
,
0000
0001
0300
0000
0001
0000
0100
0000
0010
0000
0100
0010
0100
0000
0001
0000
,
1000
0001
0000
0010
0000
0100
0000
1000
0000
0001
0000
1000
0001
0000
0100
0000
,
0110
0000
0000
0000
0010
0000
0100
0000
0000
0100
0010
0100
0010
0000
1000
0000
,
0001
1000
0000
0001
0000
0010
0000
1000
0000
0010
0000
0000
0001
0100
0001
0000
,
0110
0000
0010
0000
0100
0000
0010
0000
0100
0010
0100
0000
0010
0000
0000
0000
,
0100
0001
0000
0001
0000
1000
0000
0001
0000
0100
0000
0000
0010
0000
0100
0000
,
0010
0100
0000
0010
0000
0100
0000
0010
0000
1000
0000
0000
0001
0000
0002
0000
,
0000
0000
0003
0000
1000
0000
0010
0100
0010
0100
0000
0000
0010
0000
0100
0020
,
0000
0100
0030
0000
0100
0000
0101
0000
0000
0000
1000
0000
0020
0000
0230
0000
,
0310
0000
0100
1001
0000
0010
0010
0100
,
0020
0030
0100
0101
0000
0010
0100
0010
,
0200
0300
0010
1010
0000
0010
0110
0010
,
0010
1000
0010
0000
0100
0000
0010
0000
0100
0000
0001
0100
0000
0000
0001
0000
,
0000
0000
0100
0000
0000
0000
0010
0000
0100
0000
0010
0000
0100
0000
0001
1000
,
0000
0010
0100
0110
0000
1000
0001
0100
,
0010
0000
0010
0110
0000
0100
0010
0100
,
0010
0000
0100
0010
0000
0000
0202
0000
0303
0000
2020
0000
3030
0000
0100
0000
,
0010
0000
0010
0000
0000
0000
0100
0001
0100
0000
0001
0000
1000
0000
0001
0100
,
0000
0000
0000
0110
0000
0101
0000
0101
0000
1000
0001
0000
0200
0000
0000
0000
,
0301
0000
0000
0110
0000
1010
0000
1010
0000
1000
0001
0000
1000
0000
0010
0000
,
0110
0000
0010
0100
0000
0000
2020
0000
3030
0000
2002
0000
3003
0000
0010
0000
,
1000
0000
0001
0000
0000
0000
1000
0001
1000
0000
0010
0000
0100
0000
0001
0010
,
0000
0000
0000
0011
0000
1001
0000
1001
0000
1000
0001
0000
0200
0000
0000
0000
,
0310
0000
0000
0101
0000
0101
0000
0011
0000
0001
1000
0000
0010
0000
0100
0010
,
0000
0100
0000
0000
0010
0000
0100
0010
0100
0000
0000
0000
0010
0000
0000
0000
,
0100
0000
0010
0000
0100
0000
0000
0000
0001
0000
1000
0000
0010
0000
0100
0010
,
0000
0100
0000
0000
0010
0000
0000
0000
0100
0000
0000
0000
0101
0000
0000
0000
,
0001
0000
1000
0000
0000
0000
1001
0000
0000
0000
0010
0000
0010
0000
0100
0010
,
0000
0100
0000
0000
0010
0000
0110
0000
0000
0000
1000
0000
0001
0000
1000
0000
,
0001
0000
0100
0000
0010
0000
0100
0000
0010
0000
0000
0000
0100
0000
0010
0100
,
0000
0100
0000
0000
0010
0000
1001
0000
0000
0000
0010
0000
0100
0000
0010
0000
,
0100
0000
0010
1100
0000
1000
0010
0010
,
1001
0000
1000
0001
0000
0000
2020
0000
3030
0000
0202
0000
0303
0000
0100
0010
,
0100
0000
0010
0000
0100
0000
0001
1000
0001
0000
0010
0001
0010
0000
0001
1000
,
0000
0000
0000
1010
0000
1001
0000
0101
0000
0001
0100
0000
0101
0000
0010
1000
,
0010
0000
0000
0101
0000
0110
0000
1010
0000
1000
0001
0000
0100
0010
0100
0000
,
0110
0000
0001
0100
0000
0000
0202
0000
0303
0000
2002
0000
3003
0000
0010
0100
,
0010
0000
1000
0000
0001
0000
0100
0010
0100
0000
0010
1000
0010
0000
0100
0001
,
0000
0000
0000
0101
0000
0110
0000
1001
0000
1000
0001
0000
0100
0000
0020
0000
,
0230
0000
0000
0001
0000
0301
0000
1000
0000
0010
0100
0000
0001
1000
0001
1000
;

//---------------dance-single - ----------------
#NOTES:
     dance-single:
     :
     Hard:
     9:
     0.622897,0.567951,0.277472,0.416208,0.847281,440.000000,412.000000,28.000000,42.000000,0.000000,0.000000,0.622897,0.567951,0.277472,0.416208,0.847281,440.000000,412.000000,28.000000,42.000000,0.000000,0.000000:
0000
0000
0000
0000
0000
0000
0000
0000
0000
0000
0100
0000
0010
0000
0100
0020
,
0000
0230
0000
0000
0310
0000
0100
0000
0000
0010
0100
0010
0100
0001
0100
0010
,
0100
0001
0000
1000
0000
0001
0000
0010
0000
0110
0000
1000
0001
0000
1000
0002
,
0000
2003
0000
0000
3001
1000
0001
1000
0000
1000
0001
1000
0001
1000
0001
0000
,
0100
0010
0000
0100
0000
0010
0000
0010
0000
1000
0000
0001
1000
0010
0100
0010
,
0000
0200
0000
0000
1300
0000
0001
0000
0100
0010
0100
0000
0010
0100
0010
0000
,
1000
1000
0000
0020
0000
0230
0000
0302
0000
2003
0000
3000
0001
0000
0000
0000
,
0010
0100
0000
0100
0000
0010
0000
1000
0000
0020
0000
0000
1030
0000
2002
0000
,
3003
0000
0000
0100
0001
0010
0000
0001
0000
0000
0100
0000
0110
0000
0100
0001
,
0000
0101
0000
0000
0100
0000
0010
0100
0000
0100
0010
0100
0020
1000
1030
0000
,
1100
0000
0010
0000
0010
0000
0100
0010
0000
0010
0100
0010
0200
0010
0301
0000
,
0001
1001
0000
1000
0001
1000
0001
0000
0101
0000
0010
0100
0010
0000
0100
0001
,
0010
0001
0100
0001
1000
0000
0001
1000
0020
0030
0000
0000
0100
0100
0100
0100
,
0001
1000
0001
1000
0010
0000
1010
0000
0101
0000
0010
0100
0000
0000
0200
0000
,
0010
0000
0001
0000
0301
0000
1010
0000
0100
0000
0010
0000
0011
0000
1000
0001
,
0200
0000
0301
0000
0001
0000
0100
0010
0000
0100
0020
0000
2030
0000
3001
0001
,
0001
0000
0010
0100
0020
0000
0130
0000
0100
0100
0000
0010
0010
0000
0100
0100
,
0110
0000
1000
0001
0000
0001
0200
0000
0000
0000
0302
0000
0100
0000
1003
0001
,
1000
0000
0010
0010
0100
0000
0010
0100
0010
0000
0100
0000
0101
0000
0001
1000
,
0010
0000
0100
0110
0000
1000
0001
1000
0000
0001
1000
0001
0200
0000
0300
0000
,
0110
0000
0001
1000
0001
0100
0000
0000
0010
0100
0010
0000
1000
1000
0001
0001
,
1000
0000
0010
0100
0000
0001
2000
0000
0000
0000
3002
0000
0100
0000
1003
0010
,
1000
0000
0001
0010
0100
0000
1000
0001
1000
0000
0010
0000
0110
0000
0100
0001
,
0100
0000
0010
0110
0000
1000
0010
0001
0000
0010
1000
0100
0010
0000
0100
1000
,
0100
0000
0001
0101
0000
0100
0010
0100
0000
0000
0110
0000
0010
0000
1000
0002
,
0000
1003
0000
0000
0010
0000
0100
0010
0200
0000
0000
0000
0301
1000
0001
0000
,
0010
0000
0100
0000
0100
0000
0020
0000
0000
0000
1030
0000
0001
0000
1000
0002
,
0000
2003
0000
0000
3001
0000
0001
1000
0000
1000
0010
1000
0010
0100
0010
0100
,
0010
0000
0000
0010
0100
0010
0000
0010
0000
0000
0100
0000
0100
0010
0100
0010
,
0000
0020
0000
0000
0130
0000
0010
0100
0000
0001
1000
0001
0100
0010
0100
0010
,
2000
0000
3002
0000
0103
0000
0100
0000
0110
0000
0010
0000
0100
0000
0001
2000
,
0000
3002
0000
0003
0101
0000
0010
0100
0010
0000
0100
0010
0100
0001
0010
0001
,
0100
0000
0000
1000
0010
0100
0000
0100
0001
0001
0000
1000
1001
0000
1010
0000
,
0110
0000
1000
0010
0000
0100
0020
0000
0000
0000
0230
0000
0001
0000
0301
1000
,
0010
0000
0100
0010
0100
0000
0001
0100
1000
0000
0100
0000
0001
0000
1000
1000
,
0010
0000
0100
0101
0000
1000
0010
1000
0000
1000
0001
1000
0010
0000
0200
0000
,
0320
0000
0130
0010
0100
0010
0000
0000
0100
0010
0100
0000
0001
0010
0100
1000
,
0100
0000
1000
0100
0000
0001
2000
0000
0000
0000
3020
0000
1000
0000
1030
0001
,
0100
0000
0010
1000
0100
0000
0010
0001
0100
0000
0001
0000
1001
0000
0010
0100
,
1000
0000
1000
1001
0000
0100
0010
1000
0000
0001
1000
0001
2000
0000
3010
0000
,
0101
0000
0001
0100
0001
0010
0000
0000
0010
0001
0010
1000
0010
0001
0010
0100
;

//---------------dance-single - ----------------
#NOTES:
     dance-single:
     :
     Easy:
     5:
     0.276057,0.263289,0.148646,0.247743,0.099097,195.000000,180.000000,15.000000,25.000000,0.000000,0.000000,0.276057,0.263289,0.148646,0.247743,0.099097,195.000000,180.000000,15.000000,25.000000,0.000000,0.000000:
// measure 0
0000
0000
0000
0010
,  // measure 1
2002
0000
3003
0010
0000
0000
0100
0000
,  // measure 2
0001
0000
0000
0110
0000
0000
0100
0000
,  // measure 3
0010
0000
0000
1100
0000
0000
1000
0000
,  // measure 4
0001
0000
0000
0100
0000
0000
0010
0100
,  // measure 5
0010
0000
0000
0110
0000
0000
0101
0000
,  // measure 6
0001
0000
0100
0001
0000
0000
0001
0000
,  // measure 7
1001
0000
0001
0100
0000
0000
0010
0000
,  // measure 8
0110
0000
0100
0010
0000
0000
1000
0000
,  // measure 9
2002
0000
3003
0010
0000
0000
0100
0001
,  // measure 10
0100
0000
0100
0002
0000
0003
0100
0000
,  // measure 11
0010
0100
0010
0200
0000
0300
0001
0000
,  // measure 12
1000
0001
1000
0010
0000
0000
0100
0100
,  // measure 13
0100
0000
0001
1000
0000
0000
0001
1000
,  // measure 14
0001
0000
0100
0010
0000
0000
0100
0001
,  // measure 15
0010
0000
0100
1000
0000
0000
0001
0000
,  // measure 16
1001
0000
0100
0010
0000
0000
0100
0000
,  // measure 17
0010
0000
0100
0002
0000
0003
0100
0000
,  // measure 18
0001
0000
1000
0010
1000
0000
0001
0000
,  // measure 19
0001
0000
0000
1000
0000
0010
0000
1000
0000
0010
0000
1000
0000
0000
0000
0000
,  // measure 20
0010
0000
0000
0100
0000
0010
0000
0100
0000
0010
0000
0100
0000
0000
0000
0000
,  // measure 21
1000
0000
0001
0200
0000
0300
0001
0010
,  // measure 22
0001
0000
1000
0010
0000
0000
0110
0000
,  // measure 23
0100
0000
0000
0010
0000
0100
0000
0010
0000
0100
0000
0020
0000
0000
0030
0000
,  // measure 24
0000
0000
0000
1000
0000
0001
0000
1000
0000
0001
0000
1000
0000
0000
0000
0000
,  // measure 25
0200
0302
2003
3020
,  // measure 26
0130
0002
2003
3002
,  // measure 27
0203
0302
1003
1001
,  // measure 28
0100
0010
0000
0010
0000
0100
0010
0000
,  // measure 29
0200
0302
1003
0011
,  // measure 30
1100
0000
0010
0100
0000
0000
0001
0000
,  // measure 31
0200
0300
0210
0001
,  // measure 32
0301
0000
0001
0100
0000
0000
0010
0100
,  // measure 33
0010
0000
0100
0002
0000
0003
1000
0001
,  // measure 34
0100
0000
0010
0000
0100
0001
0100
0000
,  // measure 35
0001
0000
1010
0000
0100
0010
0010
0000
,  // measure 36
1000
0000
1000
0000
0001
1000
1000
0000
,  // measure 37
0001
0000
0100
0020
0000
0030
0100
0000
,  // measure 38
0002
0000
1003
0000
0010
0100
0010
0000
,  // measure 39
1000
0000
0001
0100
0000
0000
0001
1000
,  // measure 40
0001
0000
0010
0100
0000
0001
0010
0100
;

//---------------dance-single - ----------------
#NOTES:
     dance-single:
     :
     Beginner:
     3:
     0.135905,0.181720,0.069368,0.069368,0.000000,96.000000,89.000000,7.000000,7.000000,0.000000,0.000000,0.135905,0.181720,0.069368,0.069368,0.000000,96.000000,89.000000,7.000000,7.000000,0.000000,0.000000:
0000
0000
0000
0000
,
2000
0000
3000
0100
,
0100
0100
0000
0010
,
0001
0000
1000
1000
,
1000
0000
0010
0010
,
0010
0100
0000
0110
,
0000
0100
0000
0110
,
0000
0010
0000
1000
,
1000
1000
0000
0000
,
0002
0000
0003
0100
,
0200
0000
0300
0010
,
0020
0000
0030
1000
,
2000
0000
3000
0001
,
0001
0000
0000
1000
,
0001
1000
0000
0001
,
0100
0001
0000
0100
,
0001
0100
0000
0000
,
0010
0000
0000
0110
,
0000
1001
0000
1001
,
0000
0110
0000
0100
,
0000
0001
0000
0100
,
0100
0000
0002
0000
,
0000
0003
0000
1000
,
0000
0100
0000
0010
,
0000
0001
0000
1000
,
1000
0000
1000
0100
,
1000
0000
0000
0010
,
0000
0100
0000
1001
,
0000
0010
0000
0000
,
0200
0000
0300
0000
,
0001
1000
0001
0000
,
0100
0000
0100
0100
,
0100
0000
1000
0001
,
1000
0000
0000
0100
,
0000
0010
0000
0001
,
0000
1000
1000
1000
,
0000
0001
0001
0001
,
0000
0100
0000
0010
,
0000
0100
0000
0001
,
0000
0010
0000
0100
,
0000
0001
0000
0010
;
