#TITLE:FREEWAYLOVE;
#SUBTITLE:;
#ARTIST:NGHTGRV;
#TITLETRANSLIT:;
#SUBTITLETRANSLIT:;
#ARTISTTRANSLIT:;
#GENRE:;
#CREDIT:;
#BANNER:NGHTGRV - FREEWAYLOVE.PNG;
#BACKGROUND:;
#LYRICSPATH:;
#CDTITLE:;
#MUSIC:NGHTGRV - FREEWAYLOVE.mp3;
#OFFSET:-0.404000;
#SAMPLESTART:0.200000;
#SAMPLELENGTH:17.000000;
#SELECTABLE:YES;
#BPMS:0.000000=180.576996
;
#STOPS:
;
#BGCHANGES:;
#KEYSOUNDS:;
#ATTACKS:;

//---------------dance-single - ----------------
#NOTES:
     dance-single:
     :
     Easy:
     4:
     0.267026,0.297085,0.073096,0.167077,0.000000,179.000000,172.000000,7.000000,16.000000,0.000000,0.000000,0.267026,0.297085,0.073096,0.167077,0.000000,179.000000,172.000000,7.000000,16.000000,0.000000,0.000000:
0000
0010
0100
0020
,
0000
1030
0000
0010
,
1000
0000
1000
0001
,
0000
0010
0000
0100
,
0000
0100
0001
0002
,
0000
1003
0000
0100
,
0000
0010
0001
0001
,
0000
1000
0000
0110
,
0000
0100
0010
0200
,
0000
0301
0000
0001
,
1000
0000
0001
1000
,
0000
0010
0000
0100
,
0000
0010
0100
1000
,
0000
0001
0000
1000
,
0000
0010
0000
0100
,
0000
0001
0001
1000
,
0000
0010
0000
0200
,
0000
0310
0000
1000
,
0000
0001
0010
0001
,
0000
0001
0000
1000
,
0010
0200
0300
0002
,
0003
2000
3000
0020
,
0000
0130
0000
0200
,
0000
0310
0000
0010
,
0000
1000
1000
0010
,
0000
0100
0000
0010
,
0000
0100
0001
0001
,
0000
1000
0000
0020
,
0000
0130
0100
0001
,
0000
1001
0000
0010
,
0000
0100
0010
0100
,
0000
0010
0000
0100
,
0000
0001
1000
0002
,
0000
1003
0000
0010
,
0000
0100
0001
0001
,
0000
0010
0000
0100
,
0000
0010
0100
0010
,
0000
1000
0000
0001
,
0001
0100
0000
0010
,
0001
1000
0000
0110
,
0000
0010
0010
0010
,
0000
0100
0000
0010
,
0100
0000
0100
0001
,
0000
1000
0000
0001
,
0000
0001
1000
1000
,
0000
0010
0000
0100
,
0000
0110
0000
0010
,
0000
1001
0000
1000
,
0000
0010
0010
0010
,
0000
0100
0000
0100
,
0010
0000
1000
0010
,
0000
1001
0000
0010
,
0000
1000
0001
1000
,
0000
0001
0000
0001
,
0000
1001
0000
1000
,
0000
0010
0000
0010
,
0000
0100
0100
0010
,
0000
1000
0000
0001
,
0001
0000
0001
1000
,
0000
0010
0000
0100
,
0000
0100
0010
0001
,
0000
1000
0000
0010
,
0000
0100
0000
0100
,
0000
0010
0010
0010
,
0000
1000
0000
0001
,
0000
0100
0000
0001
,
0000
1000
0000
0001
,
0001
0001
0000
1000
,
0010
0200
0000
0302
,
0000
2003
0000
3200
,
0000
0300
0000
0020
,
0000
0030
0000
0000
0000
0000
0000
0000
;

//---------------dance-single - ----------------
#NOTES:
     dance-single:
     :
     Medium:
     5:
     0.359515,0.408491,0.177520,0.449021,0.000000,241.000000,224.000000,17.000000,43.000000,0.000000,0.000000,0.359515,0.408491,0.177520,0.449021,0.000000,241.000000,224.000000,17.000000,43.000000,0.000000,0.000000:
0000
0100
0010
0000
0010
0000
0110
0000
,
0000
0100
0000
0100
,
0010
0000
0100
0010
,
0000
0000
0110
0000
0000
0010
0100
0000
,
0000
0001
0100
0110
,
0000
0010
1000
0010
,
0100
0001
0001
0101
,
0000
0100
0010
0101
,
0000
0100
0001
0000
0100
0000
0202
0000
,
0303
1001
0000
0200
,
0320
0030
0020
0230
,
0300
0000
0001
0000
0000
1000
0001
0000
,
0000
1000
0001
0202
,
0303
0010
1000
0010
,
0000
0101
0010
0010
,
0000
0100
0001
0010
,
0000
0010
0001
0000
1000
0000
0002
0000
,
0003
0000
0100
0000
0000
0010
0100
0000
,
0000
0010
0100
0000
0010
0000
0100
0000
,
0002
0003
0020
0030
0200
0000
0000
0000
,
0301
1000
0100
0002
,
0000
0103
0000
0110
,
0000
0100
0010
0000
1000
0000
0001
0000
,
0000
0000
0001
1000
0000
0000
0100
0000
,
0000
0010
0001
0000
1000
0000
1010
0000
,
0000
0100
0010
0100
,
0000
0010
0100
0000
0020
0000
0030
0000
,
0100
0010
0200
0000
,
0301
1000
0001
2000
,
0000
3002
0000
0103
,
0000
0010
0100
0000
1000
0000
0002
0000
,
0003
0000
0100
0010
0000
0000
0010
0000
,
0000
1000
0001
0000
0100
0000
0220
0000
,
0330
1000
0001
1001
,
0000
0100
0010
0000
1000
0000
0002
0000
,
0000
0000
1003
0000
0000
0010
0010
0000
,
0200
0301
0002
0003
,
1000
0020
0230
0300
,
0010
0000
1000
0000
,
0001
1000
0001
0110
,
0000
0100
0001
0000
0001
0000
0200
0000
,
0300
0001
1000
0001
,
0200
0300
0010
0200
,
0300
0001
0000
1000
,
0000
0001
0100
0000
0010
0000
0020
0000
,
0030
0110
0000
1000
,
0000
0001
0001
0000
1000
0000
0002
0000
,
0003
0100
0010
0101
,
0000
0100
0001
0000
0100
0000
0002
0000
,
0003
0100
0001
0010
,
0010
0000
0100
0100
,
0000
0000
0010
0000
0000
0100
0010
0000
,
0000
1000
0001
0000
0010
0000
0100
0000
,
0000
0001
1000
0010
,
0000
0010
0100
0010
,
0000
0000
0100
0000
0000
0001
0001
0000
,
0000
1000
0010
0000
0100
0000
0002
0000
,
0003
1000
0010
0200
,
0302
0003
2000
3020
,
0030
0000
0100
0000
0000
1000
0001
0000
,
0000
0010
0100
0110
,
0000
0010
0000
0100
,
0000
0010
0001
0000
1000
0000
0001
0000
,
0000
1000
0010
0100
,
0001
1000
0010
0010
,
0000
0100
0001
0100
,
0100
0010
0020
2030
,
3002
0203
0302
0000
,
1003
1000
0000
0001
,
0000
1000
0000
0020
,
0000
0000
0000
0230
,
0000
0300
0000
0000
0000
0000
0000
0000
;

//---------------dance-single - ----------------
#NOTES:
     dance-single:
     :
     Hard:
     8:
     0.523609,0.557033,0.198404,0.407251,0.000000,351.000000,332.000000,19.000000,39.000000,0.000000,0.000000,0.523609,0.557033,0.198404,0.407251,0.000000,351.000000,332.000000,19.000000,39.000000,0.000000,0.000000:
// measure 0
0000
0100
0010
0000
0100
0000
0110
0000
,  // measure 1
0100
0010
0100
0000
0001
0000
0200
0000
,  // measure 2
0310
1000
0020
0000
0130
0000
0020
0000
,  // measure 3
0030
0000
0110
0000
0000
0010
0100
0000
,  // measure 4
0001
1000
0010
0000
0100
0000
0101
0000
,  // measure 5
0100
0001
0100
0000
1000
0001
0010
0000
,  // measure 6
0100
0000
0010
0000
0001
1000
0010
0000
,  // measure 7
0100
0100
0010
0000
0010
0100
0110
0000
,  // measure 8
0000
0100
0001
0000
1000
0000
2002
0000
,  // measure 9
3003
0000
1001
0000
0100
0010
0200
0000
,  // measure 10
0320
0000
0030
1000
0200
0300
0200
0000
,  // measure 11
0300
0000
0001
0000
0000
1000
0001
0000
,  // measure 12
1000
0010
0100
0000
0001
0000
0101
0000
,  // measure 13
0001
0100
0010
0000
1000
0100
0010
0000
,  // measure 14
0010
0000
0101
0000
0010
1000
0010
0000
,  // measure 15
0100
0001
0100
0001
0001
0100
0010
0100
,  // measure 16
0001
0000
0001
1000
0000
0100
0000
0001
,  // measure 17
0100
0000
0010
0000
0100
0010
0100
0000
,  // measure 18
1000
0000
0001
0001
0010
0000
0101
0000
,  // measure 19
0002
0003
0020
0030
0200
0000
0000
0000
,  // measure 20
1300
0000
0100
0010
0100
0000
0002
0000
,  // measure 21
0000
0203
0300
0010
,  // measure 22
0000
0100
0010
0000
1000
0001
0000
0001
,  // measure 23
1000
0000
0001
1000
0010
0100
0010
0000
,  // measure 24
0000
0100
0100
0000
0001
0000
0022
0000
,  // measure 25
0033
0000
0100
0010
0100
0010
0100
0000
,  // measure 26
0000
0010
0100
0000
0001
0000
1000
0100
,  // measure 27
0010
0010
0002
0000
,  // measure 28
1003
1000
0001
2000
,  // measure 29
0000
3020
0000
0130
,  // measure 30
0000
0100
0010
0000
1000
0000
0002
0000
,  // measure 31
0003
0000
0100
0010
0000
0100
0001
0000
,  // measure 32
0000
1000
0001
0000
0100
0000
0020
0000
,  // measure 33
0030
0000
1000
0001
1000
0001
1001
0000
,  // measure 34
0000
0010
0100
0000
1000
0000
0002
0000
,  // measure 35
0003
0000
1100
0000
0000
0010
0010
0000
,  // measure 36
0200
0301
0002
0003
,  // measure 37
1000
0000
0010
0100
0010
0000
1000
0000
,  // measure 38
1000
0100
0021
0030
,  // measure 39
0001
0000
1000
0100
0001
0100
0110
0000
,  // measure 40
0000
0100
1000
0000
0001
0000
0100
0000
,  // measure 41
0001
0010
0001
0000
1000
0000
0001
0000
,  // measure 42
0100
0010
0100
0000
0010
0000
0200
0000
,  // measure 43
0300
0000
0001
0000
0000
0001
1000
0000
,  // measure 44
0100
0010
0100
0000
1000
0000
0010
0000
,  // measure 45
0100
0001
0100
0000
0010
1000
0100
0000
,  // measure 46
0000
0001
0001
0000
1000
0001
0002
0000
,  // measure 47
0103
0100
0100
0000
0010
0100
0010
0000
,  // measure 48
0000
0100
0001
0000
1000
0000
0002
0000
,  // measure 49
1003
0001
1000
0000
0001
0000
0010
0000
,  // measure 50
0100
0010
0000
0010
0100
0000
0200
0000
,  // measure 51
0300
0000
0110
0000
0000
0100
0010
0000
,  // measure 52
1000
0001
1000
0000
0010
0100
0001
0000
,  // measure 53
1000
1000
0001
0000
1000
0001
0010
0000
,  // measure 54
0010
0000
0100
0000
0100
0001
0010
0000
,  // measure 55
0001
0001
1000
0000
1000
1000
0001
0000
,  // measure 56
0000
1000
0010
0000
0100
0000
0002
0000
,  // measure 57
0103
0001
0100
0000
0010
0000
1000
0001
,  // measure 58
2000
0001
3001
0100
2000
0000
3200
0000
,  // measure 59
0300
0000
0100
0000
0000
0100
0001
0000
,  // measure 60
0100
0010
0100
0000
0001
0000
1100
0000
,  // measure 61
0010
0001
0010
0000
0100
1000
0100
0000
,  // measure 62
0010
0010
0001
0000
1000
0001
1000
0000
,  // measure 63
0001
0100
1000
0000
0100
0010
1000
0010
,  // measure 64
0100
0000
0001
0100
0000
0010
0000
0100
,  // measure 65
0001
0100
0001
0000
0001
1000
0100
0000
,  // measure 66
0100
0010
0002
2003
,  // measure 67
3002
0000
0023
0000
0032
1000
1000
0000
,  // measure 68
1003
1001
0100
0101
,  // measure 69
0000
0000
1010
0000
0000
0100
0020
0000
,  // measure 70
0000
0000
1000
0000
0000
0030
0100
1000
,  // measure 71
0100
1000
0000
0000
0000
0000
0000
0000
;
